  0
SECTION
  2
HEADER
  9
$ACADVER
  1
AC1009
  9
$INSBASE
 10
0
 20
0
  9
$EXTMIN
 10
1509.329407998882
 20
45.12241560133305
  9
$EXTMAX
 10
1746.838023712636
 20
387.2678987748586
  9
$LIMMIN
 10
1509.329407998882
 20
45.12241560133305
  9
$LIMMAX
 10
1746.838023712636
 20
387.2678987748586
  9
$VIEWCTR
 10
10
 20
10
  9
$VIEWSIZE
 40
10
  9
$SNAPMODE
 70
0
  9
$SNAPUNIT
 10
1
 20
1
  9
$SNAPBASE
 10
0
 20
0
  9
$SNAPANG
 50
0
  9
$SNAPSTYLE
 70
0
  9
$SNAPISOPAIR
 70
0
  9
$GRIDMODE
 70
0
  9
$GRIDUNIT
 10
0
 20
0
  9
$ORTHOMODE
 70
0
  9
$REGENMODE
 70
1
  9
$FILLMODE
 70
1
  9
$QTEXTMODE
 70
0
  9
$DRAGMODE
 70
2
  9
$LTSCALE
 40
1
  9
$OSMODE
 70
0
  9
$ATTMODE
 70
1
  9
$TEXTSIZE
 40
3.5
  9
$TRACEWID
 40
0.5
  9
$TEXTSTYLE
  7
STANDARD
  9
$CLAYER
  8
0
  9
$CELTYPE
  6
BYLAYER
  9
$CECOLOR
 62
256
  9
$DIMSCALE
 40
1
  9
$DIMASZ
 40
0.18
  9
$DIMEXO
 40
0.0625
  9
$DIMDLI
 40
0.38
  9
$DIMRND
 40
0
  9
$DIMDLE
 40
0
  9
$DIMEXE
 40
0.18
  9
$DIMTP
 40
0
  9
$DIMTM
 40
0
  9
$DIMTXT
 40
0.18
  9
$DIMCEN
 40
0.09
  9
$DIMTSZ
 40
0
  9
$DIMTOL
 70
0
  9
$DIMLIM
 70
0
  9
$DIMTIH
 70
1
  9
$DIMTOH
 70
1
  9
$DIMSE1
 70
0
  9
$DIMSE2
 70
0
  9
$DIMTAD
 70
0
  9
$DIMZIN
 70
0
  9
$DIMBLK
  1

  9
$DIMASO
 70
1
  9
$DIMSHO
 70
1
  9
$DIMPOST
  1

  9
$DIMAPOST
  1

  9
$DIMALT
 70
0
  9
$DIMALTD
 70
2
  9
$DIMALTF
 40
25.4
  9
$DIMLFAC
 40
1
  9
$DIMTOFL
 70
0
  9
$DIMTVP
 40
0
  9
$DIMTIX
 70
0
  9
$DIMSOXD
 70
0
  9
$DIMSAH
 70
0
  9
$DIMBLK1
  1

  9
$DIMBLK2
  1

  9
$DIMSTYLE
  2
*UNNAMED
  9
$DIMCLRD
 70
0
  9
$DIMCLRE
 70
0
  9
$DIMCLRT
 70
0
  9
$DIMTFAC
 40
1
  9
$DIMGAP
 40
0.09
  9
$LUNITS
 70
2
  9
$LUPREC
 70
4
  9
$AXISMODE
 70
0
  9
$AXISUNIT
 10
0
 20
0
  9
$SKETCHINC
 40
0.1
  9
$FILLETRAD
 40
2
  9
$AUNITS
 70
0
  9
$AUPREC
 70
0
  9
$MENU
  1
ACAD
  9
$ELEVATION
 40
0
  9
$THICKNESS
 40
0
  9
$VIEWDIR
 10
0
 20
0
 30
1
  9
$LIMCHECK
 70
0
  9
$BLIPMODE
 70
1
  9
$CHAMFERA
 40
0
  9
$CHAMFERB
 40
0
  9
$FASTZOOM
 70
1
  9
$SKPOLY
 70
0
  9
$ANGBASE
 50
0
  9
$ANGDIR
 70
0
  9
$PDMODE
 70
0
  9
$PDSIZE
 40
0
  9
$PLINEWID
 40
0
  9
$COORDS
 70
2
  0
ENDSEC
  0
SECTION
  2
TABLES
  0
TABLE
  2
DIMSTYLE
 70
4
  0
DIMSTYLE
  2
DMST_1
 70
0
  3

  4

  5

  6

  7

 40
1
 41
3
 42
0.5
 43
7
 44
0.9999999999999998
 45
0
 46
0
 47
0
 48
0
140
3
141
0
142
0
143
25.4
144
1
145
0
146
1
147
0.09
 71
0
 72
0
 73
0
 74
0
 75
0
 76
0
 77
1
 78
1
170
0
171
2
172
0
173
0
174
0
175
0
176
2
177
2
178
2
  0
DIMSTYLE
  2
DMST_2
 70
0
  3
)
  4

  5

  6

  7

 40
1
 41
3
 42
0.5
 43
7
 44
0.9999999999999998
 45
0
 46
0
 47
0
 48
0
140
3
141
0
142
0
143
25.4
144
1
145
0
146
1
147
0.09
 71
0
 72
0
 73
0
 74
0
 75
0
 76
0
 77
1
 78
1
170
0
171
2
172
0
173
0
174
0
175
0
176
2
177
2
178
2
  0
DIMSTYLE
  2
DMST_3
 70
0
  3

  4

  5

  6

  7

 40
1
 41
2.5
 42
0.5
 43
7
 44
0.9999999999999998
 45
0
 46
0
 47
0
 48
0
140
2.5
141
0
142
0
143
25.4
144
1
145
0
146
1
147
0.09
 71
0
 72
0
 73
0
 74
0
 75
0
 76
0
 77
1
 78
1
170
0
171
2
172
0
173
0
174
0
175
0
176
2
177
2
178
2
  0
DIMSTYLE
  2
DMST_4
 70
0
  3

  4

  5

  6

  7

 40
1
 41
3.2
 42
0.4999999999999999
 43
7
 44
1.499999999999999
 45
0
 46
0
 47
0
 48
0
140
3.2
141
0
142
0
143
25.4
144
1
145
0
146
1
147
0.09
 71
0
 72
0
 73
0
 74
0
 75
0
 76
0
 77
1
 78
1
170
0
171
2
172
0
173
0
174
0
175
0
176
2
177
2
178
2
  0
ENDTAB
  0
TABLE
  2
LTYPE
 70
9
  0
LTYPE
  2
CONTINUOUS
 70
64
  3
Solid line
 72
65
 73
0
 40
0
  0
LTYPE
  2
BORDER
 70
64
  3
__ __ . __ __ .
 72
65
 73
6
 40
15.75669988299131
 49
4.501914252283231
 49
-2.250957126141616
 49
4.501914252283231
 49
-2.250957126141616
 49
0
 49
-2.250957126141616
  0
LTYPE
  2
CENTER
 70
64
  3
____ _ ____ _
 72
65
 73
4
 40
18.00765700913292
 49
11.25478563070808
 49
-2.250957126141616
 49
2.250957126141616
 49
-2.250957126141616
  0
LTYPE
  2
DASHDOT
 70
64
  3
__ . __ . __ .
 72
65
 73
4
 40
9.003828504566462
 49
4.501914252283231
 49
-2.250957126141616
 49
0
 49
-2.250957126141616
  0
LTYPE
  2
DASHED
 70
64
  3
__ __ __ __ __
 72
65
 73
2
 40
6.752871378424846
 49
4.501914252283231
 49
-2.250957126141616
  0
LTYPE
  2
DIVIDE
 70
64
  3
__ . . __ . . 
 72
65
 73
6
 40
11.25478563070808
 49
4.501914252283231
 49
-2.250957126141616
 49
0
 49
-2.250957126141616
 49
0
 49
-2.250957126141616
  0
LTYPE
  2
DOT
 70
64
  3
..............
 72
65
 73
4
 40
4.501914252283231
 49
0
 49
-2.250957126141616
 49
0
 49
-2.250957126141616
  0
LTYPE
  2
HIDDEN
 70
64
  3
_ _ _ _ _ _ _
 72
65
 73
2
 40
3.376435689212423
 49
2.250957126141616
 49
-1.125478563070808
  0
LTYPE
  2
PHANTOM
 70
64
  3
_____ _ _ _____ _ _ 
 72
65
 73
6
 40
22.50957126141616
 49
11.25478563070808
 49
-2.250957126141616
 49
2.250957126141616
 49
-2.250957126141616
 49
2.250957126141616
 49
-2.250957126141616
  0
ENDTAB
  0
TABLE
  2
LAYER
 70
3
  0
LAYER
  2
0
 70
0
 62
7
  6
CONTINUOUS
  0
LAYER
  2
1
 70
0
 62
7
  6
CONTINUOUS
  0
ENDTAB
  0
TABLE
  2
STYLE
 70
4
  0
STYLE
  2
STANDARD
 70
0
 40
0
 41
1
 50
0
 71
0
 42
3.5
  3
txt
  4

  0
STYLE
  2
SIMPLEX
 70
0
 40
0
 41
1
 50
0
 71
0
 42
3.5
  3
simplex
  4

  0
STYLE
  2
COMPLEX
 70
0
 40
0
 41
1
 50
0
 71
0
 42
3.5
  3
complex
  4

  0
STYLE
  2
ITALIC
 70
0
 40
0
 41
1
 50
0
 71
0
 42
3.5
  3
italic
  4

  0
ENDTAB
  0
TABLE
  2
VIEW
 70
0
  0
ENDTAB
  0
ENDSEC
  0
SECTION
  2
BLOCKS
  0
BLOCK
  8
1
  2
*D0
 70
1
 10
0
 20
0
 30
0
  0
LINE
  8
1
 62
2
 10
1513.315336403073
 20
68.10223008670326
 30
0
 11
1738.315336403073
 21
68.10223008670326
 31
0
  0
LINE
  8
1
 62
2
 10
1738.315336403073
 20
100.9213561945642
 30
0
 11
1738.315336403073
 21
67.60223008670326
 31
0
  0
LINE
  8
1
 62
2
 10
1513.315336403073
 20
100.9213561945642
 30
0
 11
1513.315336403073
 21
67.60223008670326
 31
0
  0
LINE
  8
1
 62
2
 10
1513.315336403073
 20
68.10223008670326
 30
0
 11
1516.315336403073
 21
68.91223008670326
 31
0
  0
LINE
  8
1
 62
2
 10
1513.315336403073
 20
68.10223008670326
 30
0
 11
1516.315336403073
 21
67.29223008670326
 31
0
  0
LINE
  8
1
 62
2
 10
1738.315336403073
 20
68.10223008670326
 30
0
 11
1735.315336403073
 21
67.29223008670326
 31
0
  0
LINE
  8
1
 62
2
 10
1738.315336403073
 20
68.10223008670326
 30
0
 11
1735.315336403073
 21
68.91223008670326
 31
0
  0
TEXT
  8
1
 62
2
 10
1620.7970451983
 20
68.19223008670326
 30
0
 40
3
  1
225
 41
0.8910000000000001
 51
15
  0
ENDBLK
  8
0
  0
BLOCK
  8
1
  2
*D1
 70
1
 10
0
 20
0
 30
0
  0
LINE
  8
1
 62
2
 10
1746.034176135342
 20
84.92135619456421
 30
0
 11
1746.034176135342
 21
246.7213569624693
 31
0
  0
LINE
  8
1
 62
2
 10
1663.213450197988
 20
246.7213569624693
 30
0
 11
1746.534176135342
 21
246.7213569624693
 31
0
  0
LINE
  8
1
 62
2
 10
1658.815336403073
 20
84.92135619456421
 30
0
 11
1746.534176135342
 21
84.92135619456421
 31
0
  0
LINE
  8
1
 62
2
 10
1746.034176135342
 20
246.7213569624693
 30
0
 11
1746.844176135342
 21
243.7213569624693
 31
0
  0
LINE
  8
1
 62
2
 10
1746.034176135342
 20
246.7213569624693
 30
0
 11
1745.224176135342
 21
243.7213569624693
 31
0
  0
LINE
  8
1
 62
2
 10
1746.034176135342
 20
84.92135619456421
 30
0
 11
1745.224176135342
 21
87.92135619456421
 31
0
  0
LINE
  8
1
 62
2
 10
1746.034176135342
 20
84.92135619456421
 30
0
 11
1746.844176135342
 21
87.92135619456421
 31
0
  0
TEXT
  8
1
 62
2
 10
1745.944176135342
 20
183.8927819531243
 30
0
 40
3
  1
162
 50
90
 41
0.8910000000000001
 51
15
  0
TEXT
  8
1
 62
2
 10
1745.944176135342
 20
181.143434375831
 30
0
 40
3
  1
(
 50
90
 41
0.8910000000000001
 51
15
  0
TEXT
  8
1
 62
2
 10
1745.944176135342
 20
192.4336295304177
 30
0
 40
3
  1
)
 50
90
 41
0.8910000000000001
 51
15
  0
ENDBLK
  8
0
  0
BLOCK
  8
1
  2
*D2
 70
1
 10
0
 20
0
 30
0
  0
LINE
  8
1
 62
2
 10
1687.818259302892
 20
274.0439027773219
 30
0
 11
1687.818259302892
 21
372.043902777322
 31
0
  0
LINE
  8
1
 62
2
 10
1632.815336403074
 20
372.043902777322
 30
0
 11
1688.318259302892
 21
372.043902777322
 31
0
  0
LINE
  8
1
 62
2
 10
1632.815336403074
 20
274.0439027773219
 30
0
 11
1688.318259302892
 21
274.0439027773219
 31
0
  0
LINE
  8
1
 62
2
 10
1687.818259302892
 20
274.0439027773219
 30
0
 11
1687.143259302892
 21
276.5439027773219
 31
0
  0
LINE
  8
1
 62
2
 10
1687.818259302892
 20
274.0439027773219
 30
0
 11
1688.493259302892
 21
276.5439027773219
 31
0
  0
LINE
  8
1
 62
2
 10
1687.818259302892
 20
372.043902777322
 30
0
 11
1688.493259302892
 21
369.543902777322
 31
0
  0
LINE
  8
1
 62
2
 10
1687.818259302892
 20
372.043902777322
 30
0
 11
1687.143259302892
 21
369.543902777322
 31
0
  0
TEXT
  8
1
 62
2
 10
1687.728259302892
 20
356.3567402845541
 30
0
 40
2.5
  1
98
 50
90
 41
0.891
 51
15
  0
ENDBLK
  8
0
  0
BLOCK
  8
1
  2
*D3
 70
1
 10
0
 20
0
 30
0
  0
LINE
  8
1
 62
2
 10
1686.585425981672
 20
84.92135619456421
 30
0
 11
1686.585425981672
 21
119.9213561945642
 31
0
  0
LINE
  8
1
 62
2
 10
1647.5720355779
 20
119.9213561945642
 30
0
 11
1687.085425981672
 21
119.9213561945642
 31
0
  0
LINE
  8
1
 62
2
 10
1658.815336403073
 20
84.92135619456421
 30
0
 11
1687.085425981672
 21
84.92135619456421
 31
0
  0
LINE
  8
1
 62
2
 10
1686.585425981672
 20
119.9213561945642
 30
0
 11
1687.395425981672
 21
116.9213561945642
 31
0
  0
LINE
  8
1
 62
2
 10
1686.585425981672
 20
119.9213561945642
 30
0
 11
1685.775425981672
 21
116.9213561945642
 31
0
  0
LINE
  8
1
 62
2
 10
1686.585425981672
 20
84.92135619456421
 30
0
 11
1685.775425981672
 21
87.92135619456421
 31
0
  0
LINE
  8
1
 62
2
 10
1686.585425981672
 20
84.92135619456421
 30
0
 11
1687.395425981672
 21
87.92135619456421
 31
0
  0
TEXT
  8
1
 62
2
 10
1686.495425981672
 20
108.0971853610533
 30
0
 40
3
  1
35
 50
90
 41
0.8910000000000001
 51
15
  0
ENDBLK
  8
0
  0
BLOCK
  8
1
  2
*D4
 70
1
 10
0
 20
0
 30
0
  0
LINE
  8
1
 62
2
 10
1723.305971518886
 20
150.7455697569372
 30
0
 11
1738.315336403073
 21
150.7455697569372
 31
0
  0
LINE
  8
1
 62
2
 10
1738.315336403073
 20
138.9213561945642
 30
0
 11
1738.315336403073
 21
151.2455697569372
 31
0
  0
LINE
  8
1
 62
2
 10
1723.305971518886
 20
138.9213561945642
 30
0
 11
1723.305971518886
 21
151.2455697569372
 31
0
  0
LINE
  8
1
 62
2
 10
1723.305971518886
 20
150.7455697569372
 30
0
 11
1726.505971518886
 21
151.6095697569372
 31
0
  0
LINE
  8
1
 62
2
 10
1723.305971518886
 20
150.7455697569372
 30
0
 11
1726.505971518886
 21
149.8815697569372
 31
0
  0
LINE
  8
1
 62
2
 10
1738.315336403073
 20
150.7455697569372
 30
0
 11
1735.115336403073
 21
149.8815697569372
 31
0
  0
LINE
  8
1
 62
2
 10
1738.315336403073
 20
150.7455697569372
 30
0
 11
1735.115336403073
 21
151.6095697569372
 31
0
  0
TEXT
  8
1
 62
2
 10
1728.481135253087
 20
150.8355697569372
 30
0
 40
3.2
  1
15
 41
0.8910000000000001
 51
15
  0
ENDBLK
  8
0
  0
ENDSEC
  0
SECTION
  2
ENTITIES
  0
POLYLINE
  8
1
 62
7
 66
1
 70
1
  0
VERTEX
  8
1
 10
1632.410806644753
 20
224.0385440834442
 30
0
 42
0.03571986070120822
  0
VERTEX
  8
1
 10
1632.300992790021
 20
223.8790289775857
 30
0
 42
0.05001447801480645
  0
VERTEX
  8
1
 10
1632.219987920253
 20
223.7032814017361
 30
0
 42
0.04733296127813339
  0
VERTEX
  8
1
 10
1632.188950347461
 20
223.574997356755
 30
0
 42
0.04357203115629083
  0
VERTEX
  8
1
 10
1632.184118981786
 20
223.4846984675793
 30
0
 42
0.05357212705859221
  0
VERTEX
  8
1
 10
1632.195837656052
 20
223.4013502713175
 30
0
 42
0.1094247059519036
  0
VERTEX
  8
1
 10
1632.258157683032
 20
223.2773126761307
 30
0
 42
0.1133878202693097
  0
VERTEX
  8
1
 10
1632.375214869266
 20
223.1908164920635
 30
0
 42
0.07195778157395552
  0
VERTEX
  8
1
 10
1632.492607872144
 20
223.1594193253085
 30
0
 42
0.05145352632563031
  0
VERTEX
  8
1
 10
1632.619550826693
 20
223.157116279482
 30
0
 42
0.0414259434281211
  0
VERTEX
  8
1
 10
1632.758130248267
 20
223.1804021259928
 30
0
 42
0.05088981411569526
  0
VERTEX
  8
1
 10
1632.978569437768
 20
223.261499325319
 30
0
 42
0.04203820926525499
  0
VERTEX
  8
1
 10
1633.186742232261
 20
223.3849411503243
 30
0
 42
0.03827686564857674
  0
VERTEX
  8
1
 10
1633.374278447973
 20
223.5415470994423
 30
0
 42
0.04264275054539056
  0
VERTEX
  8
1
 10
1633.535752580017
 20
223.7281300254944
 30
0
 42
0.05310791306094107
  0
VERTEX
  8
1
 10
1633.64606705834
 20
223.9138079458184
 30
0
 42
0.05427745626470851
  0
VERTEX
  8
1
 10
1633.700564608485
 20
224.0630448236187
 30
0
 42
0.05418238078664207
  0
VERTEX
  8
1
 10
1633.71895120757
 20
224.1734494756896
 30
0
 42
0.04895675332336479
  0
VERTEX
  8
1
 10
1633.716734747603
 20
224.2646233362482
 30
0
 42
0.06590206660888091
  0
VERTEX
  8
1
 10
1633.683806063101
 20
224.3751848055517
 30
0
 42
0.1185715814409501
  0
VERTEX
  8
1
 10
1633.592315244839
 20
224.4836472382792
 30
0
 42
0.1025971211067674
  0
VERTEX
  8
1
 10
1633.471186883589
 20
224.5401483131292
 30
0
 42
0.05839274882862031
  0
VERTEX
  8
1
 10
1633.34797738
 20
224.5560046810363
 30
0
 42
0.04342770515427422
  0
VERTEX
  8
1
 10
1633.21468750119
 20
224.5451035096159
 30
0
 42
0.03505393695985389
  0
VERTEX
  8
1
 10
1633.033679280606
 20
224.4956534105507
 30
0
 42
0.04373616893404558
  0
VERTEX
  8
1
 10
1632.808765834734
 20
224.3862244445113
 30
0
 42
0.04404853925644256
  0
VERTEX
  8
1
 10
1632.594818103277
 20
224.2292475545577
 30
0
 42
0.04130223793664391
  0
VERTEX
  8
1
 10
1632.410806644753
 20
224.0385440834442
 30
0
  0
SEQEND
  8
1
  0
POLYLINE
  8
1
 62
7
 66
1
 70
1
  0
VERTEX
  8
1
 10
1632.410806644753
 20
290.6134030512368
 30
0
 42
0.03571986069740707
  0
VERTEX
  8
1
 10
1632.300992790023
 20
290.4538879453784
 30
0
 42
0.05001447801833622
  0
VERTEX
  8
1
 10
1632.219987920255
 20
290.2781403695288
 30
0
 42
0.04733296127789616
  0
VERTEX
  8
1
 10
1632.188950347463
 20
290.1498563245478
 30
0
 42
0.04357203115123206
  0
VERTEX
  8
1
 10
1632.184118981787
 20
290.059557435372
 30
0
 42
0.05357212706623343
  0
VERTEX
  8
1
 10
1632.195837656054
 20
289.9762092391102
 30
0
 42
0.1094247059508752
  0
VERTEX
  8
1
 10
1632.258157683033
 20
289.8521716439234
 30
0
 42
0.1133878202681519
  0
VERTEX
  8
1
 10
1632.375214869268
 20
289.7656754598563
 30
0
 42
0.07195778157304467
  0
VERTEX
  8
1
 10
1632.492607872146
 20
289.7342782931012
 30
0
 42
0.05145352632461243
  0
VERTEX
  8
1
 10
1632.619550826694
 20
289.7319752472747
 30
0
 42
0.04142594342977372
  0
VERTEX
  8
1
 10
1632.758130248268
 20
289.7552610937855
 30
0
 42
0.05088981411624246
  0
VERTEX
  8
1
 10
1632.97856943777
 20
289.8363582931117
 30
0
 42
0.04203820926467353
  0
VERTEX
  8
1
 10
1633.186742232263
 20
289.959800118117
 30
0
 42
0.03827686564868325
  0
VERTEX
  8
1
 10
1633.374278447973
 20
290.1164060672351
 30
0
 42
0.04264275054674416
  0
VERTEX
  8
1
 10
1633.535752580018
 20
290.3029889932872
 30
0
 42
0.05310791305824163
  0
VERTEX
  8
1
 10
1633.646067058342
 20
290.488666913611
 30
0
 42
0.05427745626931971
  0
VERTEX
  8
1
 10
1633.700564608487
 20
290.6379037914114
 30
0
 42
0.0541823807926159
  0
VERTEX
  8
1
 10
1633.718951207572
 20
290.7483084434824
 30
0
 42
0.04895675331842982
  0
VERTEX
  8
1
 10
1633.716734747604
 20
290.8394823040409
 30
0
 42
0.06590206661271339
  0
VERTEX
  8
1
 10
1633.683806063103
 20
290.9500437733445
 30
0
 42
0.1185715814423421
  0
VERTEX
  8
1
 10
1633.592315244841
 20
291.0585062060719
 30
0
 42
0.1025971211058379
  0
VERTEX
  8
1
 10
1633.471186883591
 20
291.1150072809219
 30
0
 42
0.05839274882744447
  0
VERTEX
  8
1
 10
1633.347977380001
 20
291.130863648829
 30
0
 42
0.04342770515330323
  0
VERTEX
  8
1
 10
1633.214687501192
 20
291.1199624774086
 30
0
 42
0.03505393695983277
  0
VERTEX
  8
1
 10
1633.033679280607
 20
291.0705123783433
 30
0
 42
0.04373616893351794
  0
VERTEX
  8
1
 10
1632.808765834735
 20
290.9610834123039
 30
0
 42
0.04404853925516322
  0
VERTEX
  8
1
 10
1632.594818103278
 20
290.8041065223503
 30
0
 42
0.04130223793405801
  0
VERTEX
  8
1
 10
1632.410806644753
 20
290.6134030512368
 30
0
  0
SEQEND
  8
1
  0
POLYLINE
  8
1
 62
7
 66
1
  0
VERTEX
  8
1
 10
1631.246052886712
 20
113.5770190420154
 30
0
  0
VERTEX
  8
1
 10
1631.240528563236
 20
113.0968311097211
 30
0
 42
-0.05226734987114402
  0
VERTEX
  8
1
 10
1631.077103665616
 20
112.149902148865
 30
0
 42
-0.05364305115599029
  0
VERTEX
  8
1
 10
1630.711228133941
 20
111.2403096061995
 30
0
 42
-0.05424811633584954
  0
VERTEX
  8
1
 10
1630.159323782828
 20
110.4308858604693
 30
0
 42
-0.05048995255483046
  0
VERTEX
  8
1
 10
1629.500061927907
 20
109.8018284806993
 30
0
 42
-0.05295707665801769
  0
VERTEX
  8
1
 10
1628.727528912196
 20
109.321831191197
 30
0
 42
-0.05749837801292333
  0
VERTEX
  8
1
 10
1627.885269423817
 20
109.0277920090838
 30
0
 42
-0.04955366171857643
  0
VERTEX
  8
1
 10
1627.007348884911
 20
108.9207846492245
 30
0
 42
-0.04281793838470164
  0
VERTEX
  8
1
 10
1626.114716445651
 20
108.9777054301018
 30
0
 42
-0.03969677923795115
  0
VERTEX
  8
1
 10
1625.170923633762
 20
109.2018619559508
 30
0
 42
-0.06252953199515272
  0
VERTEX
  8
1
 10
1624.244742315974
 20
109.6374458309405
 30
0
  0
SEQEND
  8
1
  0
POLYLINE
  8
1
 62
7
 66
1
  0
VERTEX
  8
1
 10
1624.069927100205
 20
112.8054592079993
 30
0
 42
0.04687019939505882
  0
VERTEX
  8
1
 10
1624.200276070973
 20
112.3621789775086
 30
0
 42
0.04192246356474703
  0
VERTEX
  8
1
 10
1624.411950533777
 20
111.9393602090606
 30
0
 42
0.03928427775740021
  0
VERTEX
  8
1
 10
1624.693768084985
 20
111.5501156124876
 30
0
 42
0.03895715976751409
  0
VERTEX
  8
1
 10
1625.034546320968
 20
111.2075578976219
 30
0
 42
0.04087430038639379
  0
VERTEX
  8
1
 10
1625.423102838095
 20
110.9247997742958
 30
0
 42
0.04491045513906956
  0
VERTEX
  8
1
 10
1625.848255232736
 20
110.7149539523416
 30
0
 42
0.05061138585021883
  0
VERTEX
  8
1
 10
1626.298821101261
 20
110.5911331415914
 30
0
 42
0.03085525946385657
  0
VERTEX
  8
1
 10
1626.574816463903
 20
110.5628032754232
 30
0
  0
SEQEND
  8
1
  0
POLYLINE
  8
1
 62
7
 66
1
  0
VERTEX
  8
1
 10
1622.315336403073
 20
112.6160760575827
 30
0
  0
VERTEX
  8
1
 10
1622.334898517338
 20
112.3679594120271
 30
0
 42
0.048601349143177
  0
VERTEX
  8
1
 10
1622.444701028088
 20
111.8961601110852
 30
0
 42
0.0408914974761953
  0
VERTEX
  8
1
 10
1622.635443380548
 20
111.4551605716509
 30
0
 42
0.03231747833611924
  0
VERTEX
  8
1
 10
1622.891168133217
 20
111.0428261232627
 30
0
 42
0.02432463219098299
  0
VERTEX
  8
1
 10
1623.195917844596
 20
110.6570220954591
 30
0
 42
0.0173074366778445
  0
VERTEX
  8
1
 10
1623.533735073182
 20
110.2956138177786
 30
0
 42
0.01106010150604183
  0
VERTEX
  8
1
 10
1623.888662377475
 20
109.9564666197596
 30
0
 42
0.005088325559499914
  0
VERTEX
  8
1
 10
1624.244742315974
 20
109.6374458309405
 30
0
  0
SEQEND
  8
1
  0
POLYLINE
  8
1
 62
7
 66
1
  0
VERTEX
  8
1
 10
1665.315336403074
 20
323.043902777322
 30
0
 42
-0.000988159865047114
  0
VERTEX
  8
1
 10
1665.248504493686
 20
321.5970100822867
 30
0
 42
-0.007858628445222152
  0
VERTEX
  8
1
 10
1665.170274904718
 20
320.1515205923513
 30
0
 42
-6.381788920299519e-005
  0
VERTEX
  8
1
 10
1665.069249956589
 20
318.7088375126158
 30
0
 42
-0.01184373752834201
  0
VERTEX
  8
1
 10
1664.934031969718
 20
317.2703640481802
 30
0
 42
-0.004055919957293216
  0
VERTEX
  8
1
 10
1664.753223264525
 20
315.8375034041443
 30
0
 42
-0.01492370530601283
  0
VERTEX
  8
1
 10
1664.519463138365
 20
314.4203708812183
 30
0
 42
-0.003800815716982479
  0
VERTEX
  8
1
 10
1664.232533499602
 20
313.0116148727893
 30
0
 42
-0.01392492966854762
  0
VERTEX
  8
1
 10
1663.895557934683
 20
311.6126814683396
 30
0
 42
-0.002837302142432286
  0
VERTEX
  8
1
 10
1663.511660030052
 20
310.2250167573513
 30
0
 42
-0.02049561125432298
  0
VERTEX
  8
1
 10
1662.620680103356
 20
307.5050976456278
 30
0
 42
-0.01004428278790159
  0
VERTEX
  8
1
 10
1661.572528456524
 20
304.862727806967
 30
0
 42
-0.04667480678487793
  0
VERTEX
  8
1
 10
1658.257975938866
 20
298.6635638235921
 30
0
 42
-0.0288977247090932
  0
VERTEX
  8
1
 10
1654.941265973979
 20
294.2280219239454
 30
0
 42
-0.03142982050452216
  0
VERTEX
  8
1
 10
1652.098477961476
 20
291.2530583878843
 30
0
 42
-0.03069653508484259
  0
VERTEX
  8
1
 10
1647.930833391928
 20
287.8558713863002
 30
0
 42
-0.1866489170739137
  0
VERTEX
  8
1
 10
1624.444606476327
 20
281.771820541392
 30
0
 42
-0.04967186749600391
  0
VERTEX
  8
1
 10
1618.108434852833
 20
283.1544058755076
 30
0
 42
-0.03691308997089143
  0
VERTEX
  8
1
 10
1613.25462305804
 20
285.1376416195683
 30
0
 42
-0.03820232382438241
  0
VERTEX
  8
1
 10
1608.699839414221
 20
287.8558713863002
 30
0
 42
-0.03475430443827125
  0
VERTEX
  8
1
 10
1604.532194844672
 20
291.2530583878843
 30
0
 42
-0.0273728882352061
  0
VERTEX
  8
1
 10
1601.689406832169
 20
294.2280219239454
 30
0
 42
-0.04145297279500188
  0
VERTEX
  8
1
 10
1597.63223986323
 20
299.8502907926467
 30
0
 42
-0.0256143596486703
  0
VERTEX
  8
1
 10
1595.644208823942
 20
303.568363183211
 30
0
 42
-0.03862938488787364
  0
VERTEX
  8
1
 10
1593.119012776096
 20
310.2250167573513
 30
0
 42
-0.007729126243580001
  0
VERTEX
  8
1
 10
1592.735114871465
 20
311.6126814683396
 30
0
 42
-0.009032597570343347
  0
VERTEX
  8
1
 10
1592.398139306545
 20
313.0116148727894
 30
0
 42
-0.008692694162459781
  0
VERTEX
  8
1
 10
1592.111209667783
 20
314.4203708812183
 30
0
 42
-0.01003125617247219
  0
VERTEX
  8
1
 10
1591.877449541622
 20
315.8375034041443
 30
0
 42
-0.008947814311971411
  0
VERTEX
  8
1
 10
1591.696640836429
 20
317.2703640481802
 30
0
 42
-0.006951617951664988
  0
VERTEX
  8
1
 10
1591.561422849559
 20
318.7088375126158
 30
0
 42
-0.00495553626241842
  0
VERTEX
  8
1
 10
1591.46039790143
 20
320.1515205923513
 30
0
 42
-0.002966797569154167
  0
VERTEX
  8
1
 10
1591.382168312462
 20
321.5970100822867
 30
0
 42
-0.0009881598653608634
  0
VERTEX
  8
1
 10
1591.315336403074
 20
323.043902777322
 30
0
  0
SEQEND
  8
1
  0
LINE
  8
1
 62
2
 10
1642.042601742341
 20
57.2556752378622
 30
0
 11
1642.153712853452
 21
57.3806752378622
 31
0
  0
LINE
  8
1
 62
2
 10
1642.042601742341
 20
58.0056752378622
 30
0
 11
1641.375935075675
 21
58.0056752378622
 31
0
  0
LINE
  8
1
 62
2
 10
1643.709268409008
 20
55.1306752378622
 30
0
 11
1644.709268409008
 21
55.1306752378622
 31
0
  0
LINE
  8
1
 62
2
 10
1642.598157297897
 20
55.1306752378622
 30
0
 11
1643.709268409008
 21
55.1306752378622
 31
0
  0
LINE
  8
1
 62
2
 10
1643.709268409008
 20
58.7556752378622
 30
0
 11
1643.709268409008
 21
55.1306752378622
 31
0
  0
LINE
  8
1
 62
2
 10
1642.93149063123
 20
57.2556752378622
 30
0
 11
1644.487046186786
 21
57.2556752378622
 31
0
  0
LINE
  8
1
 62
2
 10
1642.264823964563
 20
57.1306752378622
 30
0
 11
1642.820379520119
 21
56.5056752378622
 31
0
  0
LINE
  8
1
 62
2
 10
1642.042601742341
 20
58.0056752378622
 30
0
 11
1642.042601742341
 21
58.7556752378622
 31
0
  0
LINE
  8
1
 62
2
 10
1642.598157297897
 20
58.0056752378622
 30
0
 11
1642.042601742341
 21
58.0056752378622
 31
0
  0
LINE
  8
1
 62
2
 10
1642.153712853452
 20
57.3806752378622
 30
0
 11
1642.598157297897
 21
58.0056752378622
 31
0
  0
LINE
  8
1
 62
2
 10
1641.598157297897
 20
56.7556752378622
 30
0
 11
1642.042601742341
 21
57.2556752378622
 31
0
  0
LINE
  8
1
 62
2
 10
1641.153712853452
 20
56.3806752378622
 30
0
 11
1641.598157297897
 21
56.7556752378622
 31
0
  0
LINE
  8
1
 62
2
 10
1642.042601742341
 20
55.0056752378622
 30
0
 11
1642.042601742341
 21
57.2556752378622
 31
0
  0
LINE
  8
1
 62
2
 10
1638.93149063123
 20
56.3806752378622
 30
0
 11
1637.820379520119
 21
55.0056752378622
 31
0
  0
LINE
  8
1
 62
2
 10
1639.93149063123
 20
55.2556752378622
 30
0
 11
1639.487046186786
 21
55.7556752378622
 31
0
  0
LINE
  8
1
 62
2
 10
1640.264823964563
 20
54.8806752378622
 30
0
 11
1639.93149063123
 21
55.2556752378622
 31
0
  0
LINE
  8
1
 62
2
 10
1637.487046186786
 20
55.0056752378622
 30
0
 11
1639.93149063123
 21
55.2556752378622
 31
0
  0
LINE
  8
1
 62
2
 10
1637.709268409008
 20
56.5056752378622
 30
0
 11
1640.264823964563
 21
56.5056752378622
 31
0
  0
LINE
  8
1
 62
2
 10
1638.153712853452
 20
57.1306752378622
 30
0
 11
1639.709268409008
 21
57.1306752378622
 31
0
  0
LINE
  8
1
 62
2
 10
1638.93149063123
 20
58.7556752378622
 30
0
 11
1640.709268409008
 21
56.8806752378622
 31
0
  0
LINE
  8
1
 62
2
 10
1638.93149063123
 20
58.7556752378622
 30
0
 11
1637.153712853452
 21
56.8806752378622
 31
0
  0
LINE
  8
1
 62
2
 10
1634.153712853452
 20
57.0056752378622
 30
0
 11
1633.375935075675
 21
57.0056752378622
 31
0
  0
LINE
  8
1
 62
2
 10
1634.153712853452
 20
55.6306752378622
 30
0
 11
1634.93149063123
 21
55.8806752378622
 31
0
  0
LINE
  8
1
 62
2
 10
1636.375935075675
 20
55.0056752378622
 30
0
 11
1636.709268409008
 21
55.3806752378622
 31
0
  0
LINE
  8
1
 62
2
 10
1635.93149063123
 20
55.5056752378622
 30
0
 11
1636.375935075675
 21
55.0056752378622
 31
0
  0
LINE
  8
1
 62
2
 10
1635.487046186786
 20
56.3806752378622
 30
0
 11
1635.93149063123
 21
55.5056752378622
 31
0
  0
LINE
  8
1
 62
2
 10
1635.264823964563
 20
57.3806752378622
 30
0
 11
1635.487046186786
 21
56.3806752378622
 31
0
  0
LINE
  8
1
 62
2
 10
1635.153712853452
 20
58.8806752378622
 30
0
 11
1635.264823964563
 21
57.3806752378622
 31
0
  0
LINE
  8
1
 62
2
 10
1635.820379520119
 20
58.3806752378622
 30
0
 11
1635.487046186786
 21
58.7556752378622
 31
0
  0
LINE
  8
1
 62
2
 10
1633.153712853452
 20
58.0056752378622
 30
0
 11
1636.375935075675
 21
58.0056752378622
 31
0
  0
LINE
  8
1
 62
2
 10
1634.153712853452
 20
57.0056752378622
 30
0
 11
1634.153712853452
 21
55.6306752378622
 31
0
  0
LINE
  8
1
 62
2
 10
1634.93149063123
 20
57.0056752378622
 30
0
 11
1634.153712853452
 21
57.0056752378622
 31
0
  0
LINE
  8
1
 62
2
 10
1633.375935075675
 20
55.3806752378622
 30
0
 11
1634.153712853452
 21
55.6306752378622
 31
0
  0
LINE
  8
1
 62
2
 10
1629.93149063123
 20
57.7556752378622
 30
0
 11
1629.93149063123
 21
58.8806752378622
 31
0
  0
LINE
  8
1
 62
2
 10
1629.93149063123
 20
57.7556752378622
 30
0
 11
1629.375935075675
 21
57.7556752378622
 31
0
  0
LINE
  8
1
 62
2
 10
1632.153712853452
 20
55.8806752378622
 30
0
 11
1632.598157297897
 21
55.0056752378622
 31
0
  0
LINE
  8
1
 62
2
 10
1631.598157297897
 20
57.0056752378622
 30
0
 11
1632.153712853452
 21
55.8806752378622
 31
0
  0
LINE
  8
1
 62
2
 10
1631.264823964563
 20
56.1306752378622
 30
0
 11
1631.598157297897
 21
57.0056752378622
 31
0
  0
LINE
  8
1
 62
2
 10
1630.820379520119
 20
55.5056752378622
 30
0
 11
1631.264823964563
 21
56.1306752378622
 31
0
  0
LINE
  8
1
 62
2
 10
1630.487046186786
 20
55.0056752378622
 30
0
 11
1630.820379520119
 21
55.5056752378622
 31
0
  0
LINE
  8
1
 62
2
 10
1631.598157297897
 20
58.8806752378622
 30
0
 11
1631.598157297897
 21
54.8806752378622
 31
0
  0
LINE
  8
1
 62
2
 10
1632.598157297897
 20
57.0056752378622
 30
0
 11
1630.709268409008
 21
57.0056752378622
 31
0
  0
LINE
  8
1
 62
2
 10
1631.042601742341
 20
57.8806752378622
 30
0
 11
1632.487046186786
 21
57.8806752378622
 31
0
  0
LINE
  8
1
 62
2
 10
1631.042601742341
 20
57.8806752378622
 30
0
 11
1631.153712853452
 21
58.5056752378622
 31
0
  0
LINE
  8
1
 62
2
 10
1630.709268409008
 20
57.2556752378622
 30
0
 11
1631.042601742341
 21
57.8806752378622
 31
0
  0
LINE
  8
1
 62
2
 10
1629.93149063123
 20
57.7556752378622
 30
0
 11
1630.487046186786
 21
56.7556752378622
 31
0
  0
LINE
  8
1
 62
2
 10
1629.264823964563
 20
56.0056752378622
 30
0
 11
1629.93149063123
 21
57.7556752378622
 31
0
  0
LINE
  8
1
 62
2
 10
1630.487046186786
 20
57.7556752378622
 30
0
 11
1629.93149063123
 21
57.7556752378622
 31
0
  0
LINE
  8
1
 62
2
 10
1629.93149063123
 20
55.0056752378622
 30
0
 11
1629.93149063123
 21
57.7556752378622
 31
0
  0
LINE
  8
1
 62
2
 10
1625.487046186786
 20
57.3806752378622
 30
0
 11
1625.487046186786
 21
58.0056752378622
 31
0
  0
LINE
  8
1
 62
2
 10
1626.598157297897
 20
58.0056752378622
 30
0
 11
1626.598157297897
 21
57.3806752378622
 31
0
  0
LINE
  8
1
 62
2
 10
1625.487046186786
 20
58.0056752378622
 30
0
 11
1625.487046186786
 21
58.6306752378622
 31
0
  0
LINE
  8
1
 62
2
 10
1628.375935075675
 20
57.3806752378622
 30
0
 11
1628.375935075675
 21
58.0056752378622
 31
0
  0
LINE
  8
1
 62
2
 10
1627.264823964563
 20
58.0056752378622
 30
0
 11
1627.264823964563
 21
57.3806752378622
 31
0
  0
LINE
  8
1
 62
2
 10
1628.375935075675
 20
58.0056752378622
 30
0
 11
1628.375935075675
 21
58.6306752378622
 31
0
  0
LINE
  8
1
 62
2
 10
1625.487046186786
 20
55.1306752378622
 30
0
 11
1625.487046186786
 21
55.0056752378622
 31
0
  0
LINE
  8
1
 62
2
 10
1627.264823964563
 20
58.0056752378622
 30
0
 11
1628.375935075675
 21
58.0056752378622
 31
0
  0
LINE
  8
1
 62
2
 10
1627.264823964563
 20
57.3806752378622
 30
0
 11
1628.375935075675
 21
57.3806752378622
 31
0
  0
LINE
  8
1
 62
2
 10
1627.264823964563
 20
58.6306752378622
 30
0
 11
1627.264823964563
 21
58.0056752378622
 31
0
  0
LINE
  8
1
 62
2
 10
1628.375935075675
 20
58.6306752378622
 30
0
 11
1627.264823964563
 21
58.6306752378622
 31
0
  0
LINE
  8
1
 62
2
 10
1628.375935075675
 20
55.1306752378622
 30
0
 11
1628.375935075675
 21
57.3806752378622
 31
0
  0
LINE
  8
1
 62
2
 10
1628.264823964563
 20
55.0056752378622
 30
0
 11
1628.375935075675
 21
55.1306752378622
 31
0
  0
LINE
  8
1
 62
2
 10
1627.93149063123
 20
55.0056752378622
 30
0
 11
1628.264823964563
 21
55.0056752378622
 31
0
  0
LINE
  8
1
 62
2
 10
1626.598157297897
 20
58.0056752378622
 30
0
 11
1625.487046186786
 21
58.0056752378622
 31
0
  0
LINE
  8
1
 62
2
 10
1626.598157297897
 20
57.3806752378622
 30
0
 11
1625.487046186786
 21
57.3806752378622
 31
0
  0
LINE
  8
1
 62
2
 10
1626.598157297897
 20
58.6306752378622
 30
0
 11
1626.598157297897
 21
58.0056752378622
 31
0
  0
LINE
  8
1
 62
2
 10
1625.487046186786
 20
58.6306752378622
 30
0
 11
1626.598157297897
 21
58.6306752378622
 31
0
  0
LINE
  8
1
 62
2
 10
1625.487046186786
 20
55.1306752378622
 30
0
 11
1625.487046186786
 21
57.3806752378622
 31
0
  0
LINE
  8
1
 62
2
 10
1622.93149063123
 20
55.0056752378622
 30
0
 11
1624.264823964563
 21
55.0056752378622
 31
0
  0
LINE
  8
1
 62
2
 10
1622.93149063123
 20
57.3806752378622
 30
0
 11
1623.709268409008
 21
57.3806752378622
 31
0
  0
LINE
  8
1
 62
2
 10
1624.264823964563
 20
57.2556752378622
 30
0
 11
1624.709268409008
 21
56.8806752378622
 31
0
  0
LINE
  8
1
 62
2
 10
1623.487046186786
 20
58.1306752378622
 30
0
 11
1624.264823964563
 21
57.2556752378622
 31
0
  0
LINE
  8
1
 62
2
 10
1622.93149063123
 20
58.8806752378622
 30
0
 11
1623.487046186786
 21
58.1306752378622
 31
0
  0
LINE
  8
1
 62
2
 10
1622.375935075675
 20
58.1306752378622
 30
0
 11
1622.93149063123
 21
58.8806752378622
 31
0
  0
LINE
  8
1
 62
2
 10
1621.598157297897
 20
57.2556752378622
 30
0
 11
1622.375935075675
 21
58.1306752378622
 31
0
  0
LINE
  8
1
 62
2
 10
1621.153712853452
 20
56.8806752378622
 30
0
 11
1621.598157297897
 21
57.2556752378622
 31
0
  0
LINE
  8
1
 62
2
 10
1623.487046186786
 20
55.5056752378622
 30
0
 11
1623.709268409008
 21
56.1306752378622
 31
0
  0
LINE
  8
1
 62
2
 10
1622.153712853452
 20
56.1306752378622
 30
0
 11
1622.375935075675
 21
55.5056752378622
 31
0
  0
LINE
  8
1
 62
2
 10
1624.042601742341
 20
56.6306752378622
 30
0
 11
1621.820379520119
 21
56.6306752378622
 31
0
  0
LINE
  8
1
 62
2
 10
1622.153712853452
 20
57.3806752378622
 30
0
 11
1622.93149063123
 21
57.3806752378622
 31
0
  0
LINE
  8
1
 62
2
 10
1622.93149063123
 20
55.0056752378622
 30
0
 11
1622.93149063123
 21
57.3806752378622
 31
0
  0
LINE
  8
1
 62
2
 10
1621.487046186786
 20
55.0056752378622
 30
0
 11
1622.93149063123
 21
55.0056752378622
 31
0
  0
LINE
  8
1
 62
2
 10
1619.93149063123
 20
56.1306752378622
 30
0
 11
1620.487046186786
 21
56.8806752378622
 31
0
  0
LINE
  8
1
 62
2
 10
1619.042601742341
 20
55.6306752378622
 30
0
 11
1619.93149063123
 21
56.1306752378622
 31
0
  0
LINE
  8
1
 62
2
 10
1619.042601742341
 20
57.8806752378622
 30
0
 11
1619.042601742341
 21
55.6306752378622
 31
0
  0
LINE
  8
1
 62
2
 10
1618.153712853452
 20
56.8806752378622
 30
0
 11
1618.264823964563
 21
57.8806752378622
 31
0
  0
LINE
  8
1
 62
2
 10
1617.93149063123
 20
56.1306752378622
 30
0
 11
1618.153712853452
 21
56.8806752378622
 31
0
  0
LINE
  8
1
 62
2
 10
1617.598157297897
 20
55.5056752378622
 30
0
 11
1617.93149063123
 21
56.1306752378622
 31
0
  0
LINE
  8
1
 62
2
 10
1613.820379520119
 20
56.5056752378622
 30
0
 11
1613.820379520119
 21
55.7556752378622
 31
0
  0
LINE
  8
1
 62
2
 10
1615.042601742341
 20
55.2556752378622
 30
0
 11
1615.709268409008
 21
55.3806752378622
 31
0
  0
LINE
  8
1
 62
2
 10
1613.93149063123
 20
55.3806752378622
 30
0
 11
1615.042601742341
 21
55.2556752378622
 31
0
  0
LINE
  8
1
 62
2
 10
1613.820379520119
 20
55.7556752378622
 30
0
 11
1613.93149063123
 21
55.3806752378622
 31
0
  0
LINE
  8
1
 62
2
 10
1613.820379520119
 20
57.8806752378622
 30
0
 11
1613.820379520119
 21
56.5056752378622
 31
0
  0
LINE
  8
1
 62
2
 10
1615.93149063123
 20
58.1306752378622
 30
0
 11
1616.264823964563
 21
57.7556752378622
 31
0
  0
LINE
  8
1
 62
2
 10
1616.042601742341
 20
57.5056752378622
 30
0
 11
1615.709268409008
 21
57.8806752378622
 31
0
  0
LINE
  8
1
 62
2
 10
1614.820379520119
 20
56.8806752378622
 30
0
 11
1615.487046186786
 21
57.2556752378622
 31
0
  0
LINE
  8
1
 62
2
 10
1613.820379520119
 20
56.5056752378622
 30
0
 11
1614.820379520119
 21
56.8806752378622
 31
0
  0
LINE
  8
1
 62
2
 10
1611.375935075675
 20
56.1306752378622
 30
0
 11
1612.042601742341
 21
55.3806752378622
 31
0
  0
LINE
  8
1
 62
2
 10
1610.820379520119
 20
56.6306752378622
 30
0
 11
1611.375935075675
 21
56.1306752378622
 31
0
  0
LINE
  8
1
 62
2
 10
1612.153712853452
 20
58.3806752378622
 30
0
 11
1612.487046186786
 21
58.0056752378622
 31
0
  0
LINE
  8
1
 62
2
 10
1611.93149063123
 20
58.1306752378622
 30
0
 11
1612.264823964563
 21
57.7556752378622
 31
0
  0
LINE
  8
1
 62
2
 10
1611.487046186786
 20
57.8806752378622
 30
0
 11
1610.042601742341
 21
57.8806752378622
 31
0
  0
LINE
  8
1
 62
2
 10
1611.153712853452
 20
57.1306752378622
 30
0
 11
1611.487046186786
 21
57.8806752378622
 31
0
  0
LINE
  8
1
 62
2
 10
1610.375935075675
 20
56.0056752378622
 30
0
 11
1611.153712853452
 21
57.1306752378622
 31
0
  0
LINE
  8
1
 62
2
 10
1609.598157297897
 20
55.3806752378622
 30
0
 11
1610.375935075675
 21
56.0056752378622
 31
0
  0
LINE
  8
1
 62
2
 10
1608.264823964563
 20
57.7556752378622
 30
0
 11
1607.264823964563
 21
56.6306752378622
 31
0
  0
LINE
  8
1
 62
2
 10
1605.709268409008
 20
57.7556752378622
 30
0
 11
1608.264823964563
 21
57.7556752378622
 31
0
  0
LINE
  8
1
 62
2
 10
1606.93149063123
 20
56.6306752378622
 30
0
 11
1607.042601742341
 21
57.2556752378622
 31
0
  0
LINE
  8
1
 62
2
 10
1606.709268409008
 20
55.8806752378622
 30
0
 11
1606.93149063123
 21
56.6306752378622
 31
0
  0
LINE
  8
1
 62
2
 10
1606.264823964563
 20
55.1306752378622
 30
0
 11
1606.709268409008
 21
55.8806752378622
 31
0
  0
LINE
  8
1
 62
2
 10
1566.31760095035
 20
113.992524565339
 30
0
 11
1568.44518118552
 21
116.2551719683681
 31
0
  0
LINE
  8
1
 62
2
 10
1567.733966354788
 20
113.231871719953
 30
0
 11
1568.44518118552
 21
116.2551719683681
 31
0
  0
LINE
  8
1
 62
2
 10
1553.63636186416
 20
88.68057010554468
 30
0
 11
1568.44518118552
 21
116.2551719683681
 31
0
  0
LINE
  8
1
 62
2
 10
1526.14308779786
 20
88.68057010554468
 30
0
 11
1553.63636186416
 21
88.68057010554468
 31
0
  0
LINE
  8
1
 62
2
 10
1575.886821909402
 20
112.9248823504329
 30
0
 11
1576.964179854265
 21
115.8378654925331
 31
0
  0
LINE
  8
1
 62
2
 10
1577.487652076095
 20
112.7764691182468
 30
0
 11
1576.964179854265
 21
115.8378654925331
 31
0
  0
LINE
  8
1
 62
2
 10
1573.263930295686
 20
75.92585070506947
 30
0
 11
1576.964179854265
 21
115.8378654925331
 31
0
  0
LINE
  8
1
 62
2
 10
1552.356353848736
 20
75.92585070506947
 30
0
 11
1573.263930295686
 21
75.92585070506947
 31
0
  0
LINE
  8
1
 62
2
 10
1521.440576930629
 20
142.3893140107224
 30
0
 11
1522.35567109465
 21
139.4213561945642
 31
0
  0
LINE
  8
1
 62
2
 10
1520.079197393674
 20
141.5341359787071
 30
0
 11
1522.35567109465
 21
139.4213561945642
 31
0
  0
LINE
  8
1
 62
2
 10
1513.30907472331
 20
153.822861750094
 30
0
 11
1522.35567109465
 21
139.4213561945642
 31
0
  0
LINE
  8
1
 62
2
 10
1568.7080219669
 20
153.822861750094
 30
0
 11
1513.30907472331
 21
153.822861750094
 31
0
  0
LINE
  8
0
 62
7
 10
1632.933384351491
 20
219.8153852804082
 30
0
 11
1633.408701771619
 21
222.5114041271674
 31
0
  0
LINE
  8
0
 62
7
 10
1631.859275022991
 20
219.8153852804082
 30
0
 11
1632.933384351491
 21
219.8153852804082
 31
0
  0
LINE
  8
0
 62
7
 10
1632.284779780599
 20
222.2289591402034
 30
0
 11
1631.859275022991
 21
219.8153852804082
 31
0
  0
LINE
  8
0
 62
7
 10
1626.329795551873
 20
222.0375080170911
 30
0
 11
1626.317316180098
 21
222.0248904864192
 31
0
  0
LINE
  8
0
 62
7
 10
1625.069573491188
 20
222.0375080170911
 30
0
 11
1626.329795551873
 21
222.0375080170911
 31
0
  0
LINE
  8
0
 62
7
 10
1625.226221682394
 20
222.9264402806408
 30
0
 11
1625.069573491188
 21
222.0375080170911
 31
0
  0
LINE
  8
0
 62
7
 10
1627.837313068173
 20
222.9264402806408
 30
0
 11
1625.226221682394
 21
222.9264402806408
 31
0
  0
LINE
  8
0
 62
7
 10
1627.708049755981
 20
222.2598796899718
 30
0
 11
1627.837313068173
 21
222.9264402806408
 31
0
  0
LINE
  8
0
 62
7
 10
1626.933561766316
 20
221.4468276517137
 30
0
 11
1627.708049755981
 21
222.2598796899718
 31
0
  0
LINE
  8
0
 62
7
 10
1626.177515197136
 20
220.7041788060176
 30
0
 11
1626.183654929236
 21
220.7168747009111
 31
0
  0
LINE
  8
0
 62
7
 10
1627.49396274225
 20
220.7041788060176
 30
0
 11
1626.177515197136
 21
220.7041788060176
 31
0
  0
LINE
  8
0
 62
7
 10
1627.337279894846
 20
219.8153852804082
 30
0
 11
1627.49396274225
 21
220.7041788060176
 31
0
  0
LINE
  8
0
 62
7
 10
1624.652197675813
 20
219.8153852804082
 30
0
 11
1627.337279894846
 21
219.8153852804082
 31
0
  0
LINE
  8
0
 62
7
 10
1624.773748125984
 20
220.5049282368964
 30
0
 11
1624.652197675813
 21
219.8153852804082
 31
0
  0
LINE
  8
0
 62
7
 10
1625.55671705207
 20
221.2951252342693
 30
0
 11
1624.773748125984
 21
220.5049282368964
 31
0
  0
LINE
  8
0
 62
7
 10
1629.426087782674
 20
222.0375773501544
 30
0
 11
1629.414441642427
 21
222.0375773501544
 31
0
  0
LINE
  8
0
 62
7
 10
1629.911145921996
 20
222.9225925156404
 30
0
 11
1629.426087782674
 21
222.0375773501544
 31
0
  0
LINE
  8
0
 62
7
 10
1628.819912513854
 20
224.4819678628701
 30
0
 11
1628.177218290233
 21
221.1652145897297
 31
0
  0
LINE
  8
0
 62
7
 10
1629.894021637002
 20
224.4819678628701
 30
0
 11
1628.819912513854
 21
224.4819678628701
 31
0
  0
LINE
  8
0
 62
7
 10
1629.456420444308
 20
222.2238020785495
 30
0
 11
1629.894021637002
 21
224.4819678628701
 31
0
  0
LINE
  8
0
 62
7
 10
1622.826435880213
 20
220.7042481185527
 30
0
 11
1622.837251235334
 21
220.7042481855704
 31
0
  0
LINE
  8
0
 62
7
 10
1622.341187207107
 20
219.8191983025741
 30
0
 11
1622.826435880213
 21
220.7042481185527
 31
0
  0
LINE
  8
0
 62
7
 10
1624.0773679324
 20
221.5867328938275
 30
0
 11
1624.079890123428
 21
221.5988849022869
 31
0
  0
LINE
  8
0
 62
7
 10
1622.715232787202
 20
219.8153852543955
 30
0
 11
1623.807922045578
 21
219.8153852804082
 31
0
  0
LINE
  8
0
 62
7
 10
1635.65989479362
 20
224.4819678628701
 30
0
 11
1634.585681332161
 21
224.4819678628701
 31
0
  0
LINE
  8
0
 62
7
 10
1634.836997897483
 20
219.8153852804082
 30
0
 11
1635.65989479362
 21
224.4819678628701
 31
0
  0
LINE
  8
0
 62
7
 10
1633.762958210039
 20
219.8153852804082
 30
0
 11
1634.836997897483
 21
219.8153852804082
 31
0
  0
LINE
  8
0
 62
7
 10
1634.585681332161
 20
224.4819678628701
 30
0
 11
1633.762958210039
 21
219.8153852804082
 31
0
  0
LINE
  8
1
 62
7
 10
1615.565336403073
 20
225.1840493908872
 30
0
 11
1615.565336403073
 21
219.1129815790219
 31
0
  0
LINE
  8
1
 62
7
 10
1616.065336403073
 20
218.6129815790219
 30
0
 11
1640.565336403073
 21
218.6129815790219
 31
0
  0
LINE
  8
1
 62
7
 10
1641.065336403073
 20
219.1129815790219
 30
0
 11
1641.065336403073
 21
225.1840493908872
 31
0
  0
LINE
  8
1
 62
7
 10
1640.565336403073
 20
225.6840493908872
 30
0
 11
1616.065336403073
 21
225.6840493908872
 31
0
  0
LINE
  8
0
 62
7
 10
1632.933384351493
 20
286.3902442482009
 30
0
 11
1633.408701771621
 21
289.08626309496
 31
0
  0
LINE
  8
0
 62
7
 10
1631.859275022991
 20
286.3902442482009
 30
0
 11
1632.933384351493
 21
286.3902442482009
 31
0
  0
LINE
  8
0
 62
7
 10
1632.2847797806
 20
288.8038181079961
 30
0
 11
1631.859275022991
 21
286.3902442482009
 31
0
  0
LINE
  8
0
 62
7
 10
1626.329795551875
 20
288.6123669848838
 30
0
 11
1626.317316180099
 21
288.5997494542119
 31
0
  0
LINE
  8
0
 62
7
 10
1625.069573491189
 20
288.6123669848838
 30
0
 11
1626.329795551875
 21
288.6123669848838
 31
0
  0
LINE
  8
0
 62
7
 10
1625.226221682396
 20
289.5012992484334
 30
0
 11
1625.069573491189
 21
288.6123669848838
 31
0
  0
LINE
  8
0
 62
7
 10
1627.837313068175
 20
289.5012992484334
 30
0
 11
1625.226221682396
 21
289.5012992484334
 31
0
  0
LINE
  8
0
 62
7
 10
1627.708049755981
 20
288.8347386577644
 30
0
 11
1627.837313068175
 21
289.5012992484334
 31
0
  0
LINE
  8
0
 62
7
 10
1626.933561766317
 20
288.0216866195064
 30
0
 11
1627.708049755981
 21
288.8347386577644
 31
0
  0
LINE
  8
0
 62
7
 10
1626.177515197137
 20
287.2790377738103
 30
0
 11
1626.183654929238
 21
287.2917336687038
 31
0
  0
LINE
  8
0
 62
7
 10
1627.493962742251
 20
287.2790377738103
 30
0
 11
1626.177515197137
 21
287.2790377738103
 31
0
  0
LINE
  8
0
 62
7
 10
1627.337279894847
 20
286.3902442482009
 30
0
 11
1627.493962742251
 21
287.2790377738103
 31
0
  0
LINE
  8
0
 62
7
 10
1624.652197675814
 20
286.3902442482009
 30
0
 11
1627.337279894847
 21
286.3902442482009
 31
0
  0
LINE
  8
0
 62
7
 10
1624.773748125986
 20
287.0797872046891
 30
0
 11
1624.652197675814
 21
286.3902442482009
 31
0
  0
LINE
  8
0
 62
7
 10
1625.556717052072
 20
287.869984202062
 30
0
 11
1624.773748125986
 21
287.0797872046891
 31
0
  0
LINE
  8
0
 62
7
 10
1629.426087782676
 20
288.6124363179471
 30
0
 11
1629.414441642429
 21
288.6124363179471
 31
0
  0
LINE
  8
0
 62
7
 10
1629.911145921998
 20
289.4974514834331
 30
0
 11
1629.426087782676
 21
288.6124363179471
 31
0
  0
LINE
  8
0
 62
7
 10
1628.819912513854
 20
291.0568268306628
 30
0
 11
1628.177218290235
 21
287.7400735575224
 31
0
  0
LINE
  8
0
 62
7
 10
1629.894021637002
 20
291.0568268306628
 30
0
 11
1628.819912513854
 21
291.0568268306628
 31
0
  0
LINE
  8
0
 62
7
 10
1629.45642044431
 20
288.7986610463422
 30
0
 11
1629.894021637002
 21
291.0568268306628
 31
0
  0
LINE
  8
0
 62
7
 10
1622.826435880213
 20
287.2791070863454
 30
0
 11
1622.837251235334
 21
287.2791071533631
 31
0
  0
LINE
  8
0
 62
7
 10
1622.341187207109
 20
286.3940572703667
 30
0
 11
1622.826435880213
 21
287.2791070863454
 31
0
  0
LINE
  8
0
 62
7
 10
1624.077367932402
 20
288.1615918616201
 30
0
 11
1624.079890123429
 21
288.1737438700797
 31
0
  0
LINE
  8
0
 62
7
 10
1622.715232787203
 20
286.3902442221882
 30
0
 11
1623.807922045579
 21
286.3902442482009
 31
0
  0
LINE
  8
0
 62
7
 10
1635.659894793622
 20
291.0568268306628
 30
0
 11
1634.585681332162
 21
291.0568268306628
 31
0
  0
LINE
  8
0
 62
7
 10
1634.836997897485
 20
286.3902442482009
 30
0
 11
1635.659894793622
 21
291.0568268306628
 31
0
  0
LINE
  8
0
 62
7
 10
1633.762958210041
 20
286.3902442482009
 30
0
 11
1634.836997897485
 21
286.3902442482009
 31
0
  0
LINE
  8
0
 62
7
 10
1634.585681332162
 20
291.0568268306628
 30
0
 11
1633.762958210041
 21
286.3902442482009
 31
0
  0
LINE
  8
1
 62
7
 10
1615.565336403074
 20
291.75890835868
 30
0
 11
1615.565336403074
 21
285.6878405468145
 31
0
  0
LINE
  8
1
 62
7
 10
1616.065336403074
 20
285.1878405468145
 30
0
 11
1640.565336403074
 21
285.1878405468145
 31
0
  0
LINE
  8
1
 62
7
 10
1641.065336403074
 20
285.6878405468145
 30
0
 11
1641.065336403074
 21
291.75890835868
 31
0
  0
LINE
  8
1
 62
7
 10
1640.565336403074
 20
292.25890835868
 30
0
 11
1616.065336403074
 21
292.25890835868
 31
0
  0
LINE
  8
1
 62
7
 10
1531.891397348083
 20
307.743933868527
 30
0
 11
1590.706525111799
 21
296.2360843727875
 31
0
  0
LINE
  8
1
 62
7
 10
1573.315336403074
 20
298.6199065711041
 30
0
 11
1573.507356718077
 21
299.601297522064
 31
0
  0
LINE
  8
1
 62
7
 10
1569.389772599234
 20
299.3879878311159
 30
0
 11
1573.315336403074
 21
298.6199065711041
 31
0
  0
LINE
  8
1
 62
7
 10
1569.581792914237
 20
300.3693787820759
 30
0
 11
1569.389772599234
 21
299.3879878311159
 31
0
  0
LINE
  8
1
 62
7
 10
1567.240900206914
 20
299.8084391846472
 30
0
 11
1567.432920521917
 21
300.7898301356071
 31
0
  0
LINE
  8
1
 62
7
 10
1563.315336403074
 20
300.576520444659
 30
0
 11
1567.240900206914
 21
299.8084391846472
 31
0
  0
LINE
  8
1
 62
7
 10
1563.507356718077
 20
301.557911395619
 30
0
 11
1563.315336403074
 21
300.576520444659
 31
0
  0
LINE
  8
1
 62
7
 10
1513.892686672263
 20
302.088902777322
 30
0
 11
1513.892686672263
 21
343.998902777322
 31
0
  0
LINE
  8
1
 62
7
 10
1527.738818301252
 20
343.998902777322
 30
0
 11
1527.738818301252
 21
302.088902777322
 31
0
  0
LINE
  8
1
 62
7
 10
1723.85582355083
 20
343.998902777322
 30
0
 11
1723.85582355083
 21
302.088902777322
 31
0
  0
LINE
  8
1
 62
7
 10
1737.737986133884
 20
302.088902777322
 30
0
 11
1737.737986133884
 21
343.998902777322
 31
0
  0
LINE
  8
1
 62
7
 10
1719.738311016388
 20
306.7857184550459
 30
0
 11
1665.921860094807
 21
296.2376113448269
 31
0
  0
LINE
  8
1
 62
7
 10
1665.921860094807
 20
349.850194209817
 30
0
 11
1719.738311016388
 21
339.3020870995981
 31
0
  0
LINE
  8
1
 62
7
 10
1723.315336403074
 20
342.4989027773219
 30
0
 11
1723.315336403074
 21
303.5889027773221
 31
0
  0
LINE
  8
1
 62
7
 10
1528.315336403074
 20
303.5889027773221
 30
0
 11
1528.315336403074
 21
342.4989027773219
 31
0
  0
LINE
  8
1
 62
7
 10
1590.706525111799
 20
349.8517211818565
 30
0
 11
1531.891397348083
 21
338.343871686117
 31
0
  0
LINE
  8
1
 62
7
 10
1738.315336403074
 20
303.5889027773221
 30
0
 11
1738.315336403074
 21
342.4989027773219
 31
0
  0
LINE
  8
1
 62
7
 10
1723.85582355083
 20
343.998902777322
 30
0
 11
1737.737986133884
 21
343.998902777322
 31
0
  0
LINE
  8
1
 62
7
 10
1723.85582355083
 20
302.088902777322
 30
0
 11
1737.737986133884
 21
302.088902777322
 31
0
  0
LINE
  8
1
 62
7
 10
1738.315336403074
 20
303.5889027773221
 30
0
 11
1737.737986133884
 21
302.088902777322
 31
0
  0
LINE
  8
1
 62
7
 10
1738.315336403074
 20
342.4989027773219
 30
0
 11
1737.737986133884
 21
343.998902777322
 31
0
  0
LINE
  8
1
 62
7
 10
1723.85582355083
 20
343.998902777322
 30
0
 11
1723.315336403074
 21
342.4989027773219
 31
0
  0
LINE
  8
1
 62
7
 10
1723.85582355083
 20
302.088902777322
 30
0
 11
1723.315336403074
 21
303.5889027773221
 31
0
  0
LINE
  8
1
 62
2
 10
1723.315336403074
 20
342.4989027773219
 30
0
 11
1738.315336403074
 21
342.4989027773219
 31
0
  0
LINE
  8
1
 62
2
 10
1723.315336403074
 20
303.5889027773221
 30
0
 11
1738.315336403074
 21
303.5889027773221
 31
0
  0
LINE
  8
1
 62
7
 10
1513.315336403074
 20
342.4989027773219
 30
0
 11
1513.315336403074
 21
303.5889027773221
 31
0
  0
LINE
  8
1
 62
7
 10
1513.892686672263
 20
343.998902777322
 30
0
 11
1527.738818301252
 21
343.998902777322
 31
0
  0
LINE
  8
1
 62
7
 10
1513.892686672263
 20
302.088902777322
 30
0
 11
1527.738818301252
 21
302.088902777322
 31
0
  0
LINE
  8
1
 62
7
 10
1527.738818301252
 20
343.998902777322
 30
0
 11
1528.315336403074
 21
342.4989027773219
 31
0
  0
LINE
  8
1
 62
7
 10
1513.315336403074
 20
342.4989027773219
 30
0
 11
1513.892686672263
 21
343.998902777322
 31
0
  0
LINE
  8
1
 62
7
 10
1513.315336403074
 20
303.5889027773221
 30
0
 11
1513.892686672263
 21
302.088902777322
 31
0
  0
LINE
  8
1
 62
7
 10
1527.738818301252
 20
302.088902777322
 30
0
 11
1528.315336403074
 21
303.5889027773221
 31
0
  0
LINE
  8
1
 62
2
 10
1513.315336403074
 20
342.4989027773219
 30
0
 11
1528.315336403074
 21
342.4989027773219
 31
0
  0
LINE
  8
1
 62
2
 10
1513.315336403074
 20
303.5889027773221
 30
0
 11
1528.315336403074
 21
303.5889027773221
 31
0
  0
LINE
  8
1
 62
7
 10
1579.389772599234
 20
297.431373957561
 30
0
 11
1579.581792914237
 21
298.412764908521
 31
0
  0
LINE
  8
1
 62
7
 10
1575.464208795394
 20
298.1994552175729
 30
0
 11
1579.389772599234
 21
297.431373957561
 31
0
  0
LINE
  8
1
 62
7
 10
1575.656229110397
 20
299.1808461685328
 30
0
 11
1575.464208795394
 21
298.1994552175729
 31
0
  0
LINE
  8
1
 62
7
 10
1636.427661267414
 20
122.6630619649181
 30
0
 11
1636.170981505843
 21
122.3130441082307
 31
0
  0
LINE
  8
1
 62
7
 10
1636.748510969378
 20
122.8964072027096
 30
0
 11
1636.427661267414
 21
122.6630619649181
 31
0
  0
LINE
  8
1
 62
7
 10
1637.005190730948
 20
122.8964072027096
 30
0
 11
1636.748510969378
 21
122.8964072027096
 31
0
  0
LINE
  8
1
 62
7
 10
1637.454380313697
 20
122.6630619649181
 30
0
 11
1637.005190730948
 21
122.8964072027096
 31
0
  0
LINE
  8
1
 62
7
 10
1637.839399956053
 20
122.1963714893349
 30
0
 11
1637.454380313697
 21
122.6630619649181
 31
0
  0
LINE
  8
1
 62
7
 10
1638.031909777231
 20
121.7296810137518
 30
0
 11
1637.839399956053
 21
122.1963714893349
 31
0
  0
LINE
  8
1
 62
7
 10
1638.224419598409
 20
121.0296453003771
 30
0
 11
1638.031909777231
 21
121.7296810137518
 31
0
  0
LINE
  8
1
 62
7
 10
1638.288589538802
 20
120.0962643492109
 30
0
 11
1638.224419598409
 21
121.0296453003771
 31
0
  0
LINE
  8
1
 62
7
 10
1638.288589538802
 20
115.8960500689628
 30
0
 11
1638.288589538802
 21
120.0962643492109
 31
0
  0
LINE
  8
1
 62
7
 10
1637.582720194482
 20
115.8960500689628
 30
0
 11
1638.288589538802
 21
115.8960500689628
 31
0
  0
LINE
  8
1
 62
7
 10
1637.582720194482
 20
120.2129369681067
 30
0
 11
1637.582720194482
 21
115.8960500689628
 31
0
  0
LINE
  8
1
 62
7
 10
1637.51855025409
 20
120.6796274436898
 30
0
 11
1637.582720194482
 21
120.2129369681067
 31
0
  0
LINE
  8
1
 62
7
 10
1637.326040432912
 20
121.2629905381687
 30
0
 11
1637.51855025409
 21
120.6796274436898
 31
0
  0
LINE
  8
1
 62
7
 10
1637.133530611734
 20
121.613008394856
 30
0
 11
1637.326040432912
 21
121.2629905381687
 31
0
  0
LINE
  8
1
 62
7
 10
1636.81268090977
 20
121.7296810137518
 30
0
 11
1637.133530611734
 21
121.613008394856
 31
0
  0
LINE
  8
1
 62
7
 10
1636.5560011482
 20
121.613008394856
 30
0
 11
1636.81268090977
 21
121.7296810137518
 31
0
  0
LINE
  8
1
 62
7
 10
1636.299321386629
 20
121.2629905381687
 30
0
 11
1636.5560011482
 21
121.613008394856
 31
0
  0
LINE
  8
1
 62
7
 10
1636.170981505843
 20
120.6796274436898
 30
0
 11
1636.299321386629
 21
121.2629905381687
 31
0
  0
LINE
  8
1
 62
7
 10
1636.170981505843
 20
115.8960500689628
 30
0
 11
1636.170981505843
 21
120.6796274436898
 31
0
  0
LINE
  8
1
 62
7
 10
1635.465112161524
 20
115.8960500689628
 30
0
 11
1636.170981505843
 21
115.8960500689628
 31
0
  0
LINE
  8
1
 62
7
 10
1635.465112161524
 20
120.2129369681067
 30
0
 11
1635.465112161524
 21
115.8960500689628
 31
0
  0
LINE
  8
1
 62
7
 10
1635.400942221131
 20
120.6796274436898
 30
0
 11
1635.465112161524
 21
120.2129369681067
 31
0
  0
LINE
  8
1
 62
7
 10
1635.208432399953
 20
121.2629905381687
 30
0
 11
1635.400942221131
 21
120.6796274436898
 31
0
  0
LINE
  8
1
 62
7
 10
1635.015922578775
 20
121.613008394856
 30
0
 11
1635.208432399953
 21
121.2629905381687
 31
0
  0
LINE
  8
1
 62
7
 10
1634.695072876812
 20
121.7296810137518
 30
0
 11
1635.015922578775
 21
121.613008394856
 31
0
  0
LINE
  8
1
 62
7
 10
1634.438393115241
 20
121.613008394856
 30
0
 11
1634.695072876812
 21
121.7296810137518
 31
0
  0
LINE
  8
1
 62
7
 10
1634.18171335367
 20
121.2629905381687
 30
0
 11
1634.438393115241
 21
121.613008394856
 31
0
  0
LINE
  8
1
 62
7
 10
1634.053373472885
 20
120.6796274436898
 30
0
 11
1634.18171335367
 21
121.2629905381687
 31
0
  0
LINE
  8
1
 62
7
 10
1634.053373472885
 20
115.8960500689628
 30
0
 11
1634.053373472885
 21
120.6796274436898
 31
0
  0
LINE
  8
1
 62
7
 10
1633.347504128566
 20
115.8960500689628
 30
0
 11
1634.053373472885
 21
115.8960500689628
 31
0
  0
LINE
  8
1
 62
7
 10
1633.347504128566
 20
122.7797345838138
 30
0
 11
1633.347504128566
 21
115.8960500689628
 31
0
  0
LINE
  8
1
 62
7
 10
1634.053373472885
 20
122.7797345838138
 30
0
 11
1633.347504128566
 21
122.7797345838138
 31
0
  0
LINE
  8
1
 62
7
 10
1634.053373472885
 20
122.1963714893349
 30
0
 11
1634.053373472885
 21
122.7797345838138
 31
0
  0
LINE
  8
1
 62
7
 10
1634.245883294063
 20
122.6630619649181
 30
0
 11
1634.053373472885
 21
122.1963714893349
 31
0
  0
LINE
  8
1
 62
7
 10
1634.630902936419
 20
122.8964072027096
 30
0
 11
1634.245883294063
 21
122.6630619649181
 31
0
  0
LINE
  8
1
 62
7
 10
1634.88758269799
 20
122.8964072027096
 30
0
 11
1634.630902936419
 21
122.8964072027096
 31
0
  0
LINE
  8
1
 62
7
 10
1635.336772280739
 20
122.6630619649181
 30
0
 11
1634.88758269799
 21
122.8964072027096
 31
0
  0
LINE
  8
1
 62
7
 10
1635.721791923095
 20
122.1963714893349
 30
0
 11
1635.336772280739
 21
122.6630619649181
 31
0
  0
LINE
  8
1
 62
7
 10
1635.978471684666
 20
121.7296810137518
 30
0
 11
1635.721791923095
 21
122.1963714893349
 31
0
  0
LINE
  8
1
 62
7
 10
1636.170981505843
 20
122.3130441082307
 30
0
 11
1635.978471684666
 21
121.7296810137518
 31
0
  0
LINE
  8
1
 62
7
 10
1643.39116500242
 20
122.6630619649181
 30
0
 11
1643.13448524085
 21
122.3130441082307
 31
0
  0
LINE
  8
1
 62
7
 10
1643.712014704384
 20
122.8964072027096
 30
0
 11
1643.39116500242
 21
122.6630619649181
 31
0
  0
LINE
  8
1
 62
7
 10
1643.968694465955
 20
122.8964072027096
 30
0
 11
1643.712014704384
 21
122.8964072027096
 31
0
  0
LINE
  8
1
 62
7
 10
1644.417884048703
 20
122.6630619649181
 30
0
 11
1643.968694465955
 21
122.8964072027096
 31
0
  0
LINE
  8
1
 62
7
 10
1644.802903691059
 20
122.1963714893349
 30
0
 11
1644.417884048703
 21
122.6630619649181
 31
0
  0
LINE
  8
1
 62
7
 10
1644.995413512238
 20
121.7296810137518
 30
0
 11
1644.802903691059
 21
122.1963714893349
 31
0
  0
LINE
  8
1
 62
7
 10
1645.187923333416
 20
121.0296453003771
 30
0
 11
1644.995413512238
 21
121.7296810137518
 31
0
  0
LINE
  8
1
 62
7
 10
1645.252093273808
 20
120.0962643492109
 30
0
 11
1645.187923333416
 21
121.0296453003771
 31
0
  0
LINE
  8
1
 62
7
 10
1645.252093273808
 20
115.8960500689628
 30
0
 11
1645.252093273808
 21
120.0962643492109
 31
0
  0
LINE
  8
1
 62
7
 10
1644.546223929489
 20
115.8960500689628
 30
0
 11
1645.252093273808
 21
115.8960500689628
 31
0
  0
LINE
  8
1
 62
7
 10
1644.546223929489
 20
120.2129369681067
 30
0
 11
1644.546223929489
 21
115.8960500689628
 31
0
  0
LINE
  8
1
 62
7
 10
1644.482053989096
 20
120.6796274436898
 30
0
 11
1644.546223929489
 21
120.2129369681067
 31
0
  0
LINE
  8
1
 62
7
 10
1644.289544167918
 20
121.2629905381687
 30
0
 11
1644.482053989096
 21
120.6796274436898
 31
0
  0
LINE
  8
1
 62
7
 10
1644.09703434674
 20
121.613008394856
 30
0
 11
1644.289544167918
 21
121.2629905381687
 31
0
  0
LINE
  8
1
 62
7
 10
1643.776184644777
 20
121.7296810137518
 30
0
 11
1644.09703434674
 21
121.613008394856
 31
0
  0
LINE
  8
1
 62
7
 10
1643.519504883206
 20
121.613008394856
 30
0
 11
1643.776184644777
 21
121.7296810137518
 31
0
  0
LINE
  8
1
 62
7
 10
1643.262825121635
 20
121.2629905381687
 30
0
 11
1643.519504883206
 21
121.613008394856
 31
0
  0
LINE
  8
1
 62
7
 10
1643.13448524085
 20
120.6796274436898
 30
0
 11
1643.262825121635
 21
121.2629905381687
 31
0
  0
LINE
  8
1
 62
7
 10
1643.13448524085
 20
115.8960500689628
 30
0
 11
1643.13448524085
 21
120.6796274436898
 31
0
  0
LINE
  8
1
 62
7
 10
1642.42861589653
 20
115.8960500689628
 30
0
 11
1643.13448524085
 21
115.8960500689628
 31
0
  0
LINE
  8
1
 62
7
 10
1642.42861589653
 20
120.2129369681067
 30
0
 11
1642.42861589653
 21
115.8960500689628
 31
0
  0
LINE
  8
1
 62
7
 10
1642.364445956138
 20
120.6796274436898
 30
0
 11
1642.42861589653
 21
120.2129369681067
 31
0
  0
LINE
  8
1
 62
7
 10
1642.171936134959
 20
121.2629905381687
 30
0
 11
1642.364445956138
 21
120.6796274436898
 31
0
  0
LINE
  8
1
 62
7
 10
1641.979426313782
 20
121.613008394856
 30
0
 11
1642.171936134959
 21
121.2629905381687
 31
0
  0
LINE
  8
1
 62
7
 10
1641.658576611818
 20
121.7296810137518
 30
0
 11
1641.979426313782
 21
121.613008394856
 31
0
  0
LINE
  8
1
 62
7
 10
1641.401896850247
 20
121.613008394856
 30
0
 11
1641.658576611818
 21
121.7296810137518
 31
0
  0
LINE
  8
1
 62
7
 10
1641.145217088677
 20
121.2629905381687
 30
0
 11
1641.401896850247
 21
121.613008394856
 31
0
  0
LINE
  8
1
 62
7
 10
1641.016877207891
 20
120.6796274436898
 30
0
 11
1641.145217088677
 21
121.2629905381687
 31
0
  0
LINE
  8
1
 62
7
 10
1641.016877207891
 20
115.8960500689628
 30
0
 11
1641.016877207891
 21
120.6796274436898
 31
0
  0
LINE
  8
1
 62
7
 10
1640.311007863572
 20
115.8960500689628
 30
0
 11
1641.016877207891
 21
115.8960500689628
 31
0
  0
LINE
  8
1
 62
7
 10
1640.311007863572
 20
122.7797345838138
 30
0
 11
1640.311007863572
 21
115.8960500689628
 31
0
  0
LINE
  8
1
 62
7
 10
1641.016877207891
 20
122.7797345838138
 30
0
 11
1640.311007863572
 21
122.7797345838138
 31
0
  0
LINE
  8
1
 62
7
 10
1641.016877207891
 20
122.1963714893349
 30
0
 11
1641.016877207891
 21
122.7797345838138
 31
0
  0
LINE
  8
1
 62
7
 10
1641.209387029069
 20
122.6630619649181
 30
0
 11
1641.016877207891
 21
122.1963714893349
 31
0
  0
LINE
  8
1
 62
7
 10
1641.594406671425
 20
122.8964072027096
 30
0
 11
1641.209387029069
 21
122.6630619649181
 31
0
  0
LINE
  8
1
 62
7
 10
1641.851086432996
 20
122.8964072027096
 30
0
 11
1641.594406671425
 21
122.8964072027096
 31
0
  0
LINE
  8
1
 62
7
 10
1642.300276015745
 20
122.6630619649181
 30
0
 11
1641.851086432996
 21
122.8964072027096
 31
0
  0
LINE
  8
1
 62
7
 10
1642.685295658101
 20
122.1963714893349
 30
0
 11
1642.300276015745
 21
122.6630619649181
 31
0
  0
LINE
  8
1
 62
7
 10
1642.941975419672
 20
121.7296810137518
 30
0
 11
1642.685295658101
 21
122.1963714893349
 31
0
  0
LINE
  8
1
 62
7
 10
1643.13448524085
 20
122.3130441082307
 30
0
 11
1642.941975419672
 21
121.7296810137518
 31
0
  0
LINE
  8
1
 62
7
 10
1620.31249067183
 20
108.9798661884718
 30
0
 11
1611.360722115208
 21
108.9798661884718
 31
0
  0
LINE
  8
1
 62
7
 10
1620.31249067183
 20
110.7211166371437
 30
0
 11
1620.31249067183
 21
108.9798661884718
 31
0
  0
LINE
  8
1
 62
7
 10
1613.725340224504
 20
110.7211166371437
 30
0
 11
1620.31249067183
 21
110.7211166371437
 31
0
  0
LINE
  8
1
 62
7
 10
1614.063142811547
 20
111.7658669063468
 30
0
 11
1613.725340224504
 21
110.7211166371437
 31
0
  0
LINE
  8
1
 62
7
 10
1614.907649279153
 20
112.9847422204171
 30
0
 11
1614.063142811547
 21
111.7658669063468
 31
0
  0
LINE
  8
1
 62
7
 10
1616.089958333801
 20
114.3777425793546
 30
0
 11
1614.907649279153
 21
112.9847422204171
 31
0
  0
LINE
  8
1
 62
7
 10
1617.272267388449
 20
115.4224928485578
 30
0
 11
1616.089958333801
 21
114.3777425793546
 31
0
  0
LINE
  8
1
 62
7
 10
1618.623477736618
 20
116.6413681626281
 30
0
 11
1617.272267388449
 21
115.4224928485578
 31
0
  0
LINE
  8
1
 62
7
 10
1618.961280323661
 20
116.9896182523624
 30
0
 11
1618.623477736618
 21
116.6413681626281
 31
0
  0
LINE
  8
1
 62
7
 10
1619.636885497745
 20
118.0343685215656
 30
0
 11
1618.961280323661
 21
116.9896182523624
 31
0
  0
LINE
  8
1
 62
7
 10
1619.805786791266
 20
118.9049937459015
 30
0
 11
1619.636885497745
 21
118.0343685215656
 31
0
  0
LINE
  8
1
 62
7
 10
1619.805786791266
 20
119.6014939253703
 30
0
 11
1619.805786791266
 21
118.9049937459015
 31
0
  0
LINE
  8
1
 62
7
 10
1619.636885497745
 20
120.4721191497062
 30
0
 11
1619.805786791266
 21
119.6014939253703
 31
0
  0
LINE
  8
1
 62
7
 10
1618.961280323661
 20
121.5168694189093
 30
0
 11
1619.636885497745
 21
120.4721191497062
 31
0
  0
LINE
  8
1
 62
7
 10
1618.285675149576
 20
122.2133695983781
 30
0
 11
1618.961280323661
 21
121.5168694189093
 31
0
  0
LINE
  8
1
 62
7
 10
1617.272267388449
 20
122.7357447329796
 30
0
 11
1618.285675149576
 21
122.2133695983781
 31
0
  0
LINE
  8
1
 62
7
 10
1616.427760920843
 20
122.9098697778468
 30
0
 11
1617.272267388449
 21
122.7357447329796
 31
0
  0
LINE
  8
1
 62
7
 10
1615.414353159716
 20
122.9098697778468
 30
0
 11
1616.427760920843
 21
122.9098697778468
 31
0
  0
LINE
  8
1
 62
7
 10
1614.56984669211
 20
122.7357447329796
 30
0
 11
1615.414353159716
 21
122.9098697778468
 31
0
  0
LINE
  8
1
 62
7
 10
1613.556438930983
 20
122.2133695983781
 30
0
 11
1614.56984669211
 21
122.7357447329796
 31
0
  0
LINE
  8
1
 62
7
 10
1612.880833756899
 20
121.5168694189093
 30
0
 11
1613.556438930983
 21
122.2133695983781
 31
0
  0
LINE
  8
1
 62
7
 10
1612.205228582814
 20
120.4721191497062
 30
0
 11
1612.880833756899
 21
121.5168694189093
 31
0
  0
LINE
  8
1
 62
7
 10
1612.036327289293
 20
119.6014939253703
 30
0
 11
1612.205228582814
 21
120.4721191497062
 31
0
  0
LINE
  8
1
 62
7
 10
1612.036327289293
 20
118.9049937459015
 30
0
 11
1612.036327289293
 21
119.6014939253703
 31
0
  0
LINE
  8
1
 62
7
 10
1613.894241518025
 20
118.9049937459015
 30
0
 11
1612.036327289293
 21
118.9049937459015
 31
0
  0
LINE
  8
1
 62
7
 10
1613.894241518025
 20
119.6014939253703
 30
0
 11
1613.894241518025
 21
118.9049937459015
 31
0
  0
LINE
  8
1
 62
7
 10
1614.063142811547
 20
120.1238690599718
 30
0
 11
1613.894241518025
 21
119.6014939253703
 31
0
  0
LINE
  8
1
 62
7
 10
1614.400945398589
 20
120.6462441945734
 30
0
 11
1614.063142811547
 21
120.1238690599718
 31
0
  0
LINE
  8
1
 62
7
 10
1614.907649279153
 20
120.9944942843078
 30
0
 11
1614.400945398589
 21
120.6462441945734
 31
0
  0
LINE
  8
1
 62
7
 10
1615.583254453237
 20
121.1686193291749
 30
0
 11
1614.907649279153
 21
120.9944942843078
 31
0
  0
LINE
  8
1
 62
7
 10
1616.258859627322
 20
121.1686193291749
 30
0
 11
1615.583254453237
 21
121.1686193291749
 31
0
  0
LINE
  8
1
 62
7
 10
1616.934464801406
 20
120.9944942843078
 30
0
 11
1616.258859627322
 21
121.1686193291749
 31
0
  0
LINE
  8
1
 62
7
 10
1617.44116868197
 20
120.6462441945734
 30
0
 11
1616.934464801406
 21
120.9944942843078
 31
0
  0
LINE
  8
1
 62
7
 10
1617.778971269012
 20
120.1238690599718
 30
0
 11
1617.44116868197
 21
120.6462441945734
 31
0
  0
LINE
  8
1
 62
7
 10
1617.947872562534
 20
119.6014939253703
 30
0
 11
1617.778971269012
 21
120.1238690599718
 31
0
  0
LINE
  8
1
 62
7
 10
1617.947872562534
 20
118.9049937459015
 30
0
 11
1617.947872562534
 21
119.6014939253703
 31
0
  0
LINE
  8
1
 62
7
 10
1617.778971269012
 20
118.3826186112999
 30
0
 11
1617.947872562534
 21
118.9049937459015
 31
0
  0
LINE
  8
1
 62
7
 10
1617.44116868197
 20
117.8602434766984
 30
0
 11
1617.778971269012
 21
118.3826186112999
 31
0
  0
LINE
  8
1
 62
7
 10
1616.258859627322
 20
116.6413681626281
 30
0
 11
1617.44116868197
 21
117.8602434766984
 31
0
  0
LINE
  8
1
 62
7
 10
1615.245451866195
 20
115.5966178934249
 30
0
 11
1616.258859627322
 21
116.6413681626281
 31
0
  0
LINE
  8
1
 62
7
 10
1614.232044105068
 20
114.725992669089
 30
0
 11
1615.245451866195
 21
115.5966178934249
 31
0
  0
LINE
  8
1
 62
7
 10
1613.218636343941
 20
113.5071173550187
 30
0
 11
1614.232044105068
 21
114.725992669089
 31
0
  0
LINE
  8
1
 62
7
 10
1612.374129876335
 20
112.4623670858156
 30
0
 11
1613.218636343941
 21
113.5071173550187
 31
0
  0
LINE
  8
1
 62
7
 10
1611.69852470225
 20
111.2434917717453
 30
0
 11
1612.374129876335
 21
112.4623670858156
 31
0
  0
LINE
  8
1
 62
7
 10
1611.360722115208
 20
110.0246164576749
 30
0
 11
1611.69852470225
 21
111.2434917717453
 31
0
  0
LINE
  8
1
 62
7
 10
1611.360722115208
 20
108.9798661884718
 30
0
 11
1611.360722115208
 21
110.0246164576749
 31
0
  0
LINE
  8
1
 62
7
 10
1723.227668005951
 20
101.4213561945642
 30
0
 11
1723.80501827514
 21
100.4213561945642
 31
0
  0
LINE
  8
1
 62
7
 10
1723.80501827514
 20
100.4213561945642
 30
0
 11
1723.855823550829
 21
100.4213561945642
 31
0
  0
LINE
  8
1
 62
7
 10
1673.644367647419
 20
101.7759261156658
 30
0
 11
1720.236046969918
 21
104.2396568636605
 31
0
  0
LINE
  8
1
 62
7
 10
1738.315336403073
 20
101.4213561945642
 30
0
 11
1738.315336403068
 21
138.4213561945671
 31
0
  0
LINE
  8
1
 62
7
 10
1664.565336403073
 20
156.9213561945642
 30
0
 11
1592.065336403073
 21
156.9213561945642
 31
0
  0
LINE
  8
1
 62
2
 10
1589.415336403073
 20
160.2213555915701
 30
0
 11
1589.415336403073
 21
157.5916855034133
 31
0
  0
LINE
  8
1
 62
7
 10
1588.315336403073
 20
160.2213555915701
 30
0
 11
1588.315336403073
 21
157.9213561945642
 31
0
  0
LINE
  8
1
 62
7
 10
1668.315336403073
 20
160.2213555915701
 30
0
 11
1668.315336403073
 21
157.9213561945642
 31
0
  0
LINE
  8
1
 62
2
 10
1667.215336403073
 20
157.5916855034133
 30
0
 11
1667.215336403073
 21
160.2213555915701
 31
0
  0
LINE
  8
1
 62
7
 10
1513.892686672262
 20
100.4213561945642
 30
0
 11
1527.738818301251
 21
100.4213561945642
 31
0
  0
LINE
  8
1
 62
7
 10
1513.892686672262
 20
139.4213561945642
 30
0
 11
1513.892686672262
 21
100.4213561945642
 31
0
  0
LINE
  8
1
 62
7
 10
1678.798195407816
 20
143.2574469443712
 30
0
 11
1672.363091478915
 21
144.3835901319291
 31
0
  0
LINE
  8
1
 62
2
  6
DASHDOT
 10
1509.329407998882
 20
119.9213561945642
 30
0
 11
1560.735013175717
 21
119.9213561945642
 31
0
  0
LINE
  8
1
 62
2
  6
DASHDOT
 10
1628.315336403073
 20
82.3854077463569
 30
0
 11
1628.315336403073
 21
107.0920383260797
 31
0
  0
LINE
  8
1
 62
2
  6
DASHDOT
 10
1671.838002649285
 20
148.4213561945642
 30
0
 11
1672.315336403073
 21
148.4213561945642
 31
0
  0
LINE
  8
1
 62
7
 10
1581.374448432987
 20
140.2860963285851
 30
0
 11
1531.595171164844
 21
135.636428964919
 31
0
  0
LINE
  8
1
 62
7
 10
1608.061314149296
 20
87.40856808034197
 30
0
 11
1616.388009817269
 21
87.12464540311667
 31
0
  0
LINE
  8
1
 62
7
 10
1658.315336403073
 20
84.92135619456421
 30
0
 11
1598.315336403073
 21
84.92135619456421
 31
0
  0
LINE
  8
1
 62
7
 10
1658.315336403073
 20
85.5983073226747
 30
0
 11
1658.315336403073
 21
84.92135619456421
 31
0
  0
LINE
  8
1
 62
7
 10
1738.315336403073
 20
138.4213561945642
 30
0
 11
1737.737986133883
 21
139.4213561945642
 31
0
  0
LINE
  8
1
 62
7
 10
1513.892686672262
 20
139.4213561945642
 30
0
 11
1527.738818301251
 21
139.4213561945642
 31
0
  0
LINE
  8
1
 62
7
 10
1513.315336403073
 20
101.4213561945642
 30
0
 11
1513.892686672262
 21
100.4213561945642
 31
0
  0
LINE
  8
1
 62
7
 10
1598.315336403073
 20
86.07010164131872
 30
0
 11
1598.315336403073
 21
84.92135619456421
 31
0
  0
LINE
  8
1
 62
7
 10
1629.815336403073
 20
85.93018398825051
 30
0
 11
1629.815336403073
 21
84.92135619456421
 31
0
  0
LINE
  8
1
 62
2
 10
1513.315336403073
 20
138.4213561945642
 30
0
 11
1528.31616857044
 21
138.4213561945642
 31
0
  0
LINE
  8
1
 62
2
 10
1513.315336403073
 20
101.4213561945642
 30
0
 11
1528.31616857044
 21
101.4213561945642
 31
0
  0
LINE
  8
1
 62
2
 10
1723.305971518886
 20
101.4213561945642
 30
0
 11
1738.315336403073
 21
101.4213561945642
 31
0
  0
LINE
  8
1
 62
7
 10
1590.315336403073
 20
155.9213561945642
 30
0
 11
1590.315336403073
 21
151.5816102324087
 31
0
  0
LINE
  8
1
 62
7
 10
1673.315336403073
 20
151.4213561945642
 30
0
 11
1666.315336403073
 21
151.4213561945642
 31
0
  0
LINE
  8
1
 62
7
 10
1676.315336403073
 20
146.2125383458384
 30
0
 11
1676.315336403073
 21
148.4213561945642
 31
0
  0
LINE
  8
1
 62
2
  6
DASHDOT
 10
1672.315336403073
 20
148.4213561945642
 30
0
 11
1674.853053411634
 21
148.4213561945642
 31
0
  0
LINE
  8
1
 62
2
  6
DASHDOT
 10
1673.315336403073
 20
146.9198770584013
 30
0
 11
1673.315336403073
 21
149.832722710162
 31
0
  0
LINE
  8
1
 62
7
 10
1661.331683897112
 20
90.28229792691091
 30
0
 11
1708.315336403073
 21
103.6092992206532
 31
0
  0
LINE
  8
1
 62
7
 10
1513.315336403073
 20
101.4213561945642
 30
0
 11
1513.892686672262
 21
100.4213561945642
 31
0
  0
LINE
  8
1
 62
7
 10
1737.737986133883
 20
100.4213561945642
 30
0
 11
1738.315336403073
 21
101.4213561945642
 31
0
  0
LINE
  8
1
 62
7
 10
1513.892686672262
 20
139.4213561945642
 30
0
 11
1513.315336403073
 21
138.4213561945642
 31
0
  0
LINE
  8
1
 62
7
 10
1513.315336403073
 20
138.4213561945642
 30
0
 11
1513.315336403073
 21
101.4213561945642
 31
0
  0
LINE
  8
1
 62
7
 10
1626.815336403073
 20
84.92135619456421
 30
0
 11
1626.815336403073
 21
85.93025944138451
 31
0
  0
LINE
  8
1
 62
7
 10
1527.738818301251
 20
100.4213561945642
 30
0
 11
1528.31616857044
 21
101.4213561945642
 31
0
  0
LINE
  8
1
 62
7
 10
1527.738818301251
 20
100.4213561945642
 30
0
 11
1528.31616857044
 21
101.4213561945642
 31
0
  0
LINE
  8
1
 62
7
 10
1513.315336403073
 20
101.4213561945642
 30
0
 11
1513.892686672262
 21
100.4213561945642
 31
0
  0
LINE
  8
1
 62
7
 10
1513.315336403073
 20
101.4213561945642
 30
0
 11
1513.892686672262
 21
100.4213561945642
 31
0
  0
LINE
  8
1
 62
7
 10
1528.31616857044
 20
138.4213561945642
 30
0
 11
1527.738818301251
 21
139.4213561945642
 31
0
  0
LINE
  8
1
 62
7
 10
1528.343267377651
 20
138.2211106335005
 30
0
 11
1528.31616857044
 21
138.4213561945642
 31
0
  0
LINE
  8
1
 62
7
 10
1666.315336403073
 20
151.5816102324087
 30
0
 11
1666.315336403073
 21
155.9213561945642
 31
0
  0
LINE
  8
1
 62
7
 10
1528.31616857044
 20
101.4213561945642
 30
0
 11
1528.31616857044
 21
138.4213561945642
 31
0
  0
LINE
  8
1
 62
7
 10
1527.738818301251
 20
100.4213561945642
 30
0
 11
1527.738818301251
 21
139.4213561945642
 31
0
  0
LINE
  8
1
 62
7
 10
1737.737986133883
 20
139.4213561945642
 30
0
 11
1737.737986133883
 21
100.4213561945642
 31
0
  0
LINE
  8
1
 62
7
 10
1723.855823550829
 20
139.4213561945642
 30
0
 11
1737.737986133883
 21
139.4213561945642
 31
0
  0
LINE
  8
1
 62
7
 10
1723.27444275278
 20
138.4213561945642
 30
0
 11
1738.315336403073
 21
138.4213561945642
 31
0
  0
LINE
  8
1
 62
7
 10
1719.999470687236
 20
135.636428964919
 30
0
 11
1678.769690964984
 21
143.2625771501795
 31
0
  0
LINE
  8
1
 62
7
 10
1723.855823550829
 20
139.4213561945642
 30
0
 11
1723.27847328164
 21
138.4213561945642
 31
0
  0
LINE
  8
1
 62
7
 10
1723.305971518886
 20
138.4213561945642
 30
0
 11
1723.305971518886
 21
101.4213561945642
 31
0
  0
LINE
  8
1
 62
7
 10
1723.855823550829
 20
139.4213561945642
 30
0
 11
1723.855823550829
 21
100.4213561945642
 31
0
  0
LINE
  8
1
 62
7
 10
1723.855823550829
 20
100.4213561945642
 30
0
 11
1737.737986133883
 21
100.4213561945642
 31
0
  0
LINE
  8
1
 62
7
 10
1588.315336403073
 20
157.9213561945642
 30
0
 11
1668.315336403073
 21
157.9213561945642
 31
0
  0
LINE
  8
1
 62
7
 10
1631.315336403073
 20
121.2156118298494
 30
0
 11
1631.315336403073
 21
122.9213561945642
 31
0
  0
LINE
  8
1
 62
7
  6
DIVIDE
 10
1622.315336403073
 20
122.9213561945642
 30
0
 11
1622.315336403073
 21
115.5849625711318
 31
0
  0
LINE
  8
1
 62
7
 10
1639.315336403073
 20
137.1713561945642
 30
0
 11
1611.315336403073
 21
137.1713561945642
 31
0
  0
LINE
  8
1
 62
7
 10
1611.315336403073
 20
138.6713561945642
 30
0
 11
1639.315336403073
 21
138.6713561945642
 31
0
  0
LINE
  8
1
 62
7
 10
1611.315336403073
 20
137.1713561945642
 30
0
 11
1611.315336403073
 21
138.6713561945642
 31
0
  0
LINE
  8
1
 62
7
 10
1613.315336403073
 20
138.6713561945642
 30
0
 11
1611.315336403073
 21
141.4213561945642
 31
0
  0
LINE
  8
1
 62
7
 10
1611.315336403073
 20
141.4213561945642
 30
0
 11
1628.315336403073
 21
141.4213561945642
 31
0
  0
LINE
  8
1
 62
7
 10
1628.315336403073
 20
141.4213561945642
 30
0
 11
1630.315336403073
 21
138.6713561945642
 31
0
  0
LINE
  8
1
 62
7
 10
1639.315336403073
 20
138.6713561945642
 30
0
 11
1639.315336403073
 21
141.4213561945642
 31
0
  0
LINE
  8
1
 62
7
 10
1639.315336403073
 20
141.4213561945642
 30
0
 11
1645.315336403073
 21
137.9213561945642
 31
0
  0
LINE
  8
1
 62
7
 10
1611.315336403073
 20
134.4213561945642
 30
0
 11
1613.315336403073
 21
137.1713561945642
 31
0
  0
LINE
  8
1
 62
7
 10
1628.315336403073
 20
134.4213561945642
 30
0
 11
1611.315336403073
 21
134.4213561945642
 31
0
  0
LINE
  8
1
 62
7
 10
1630.315336403073
 20
137.1713561945642
 30
0
 11
1628.315336403073
 21
134.4213561945642
 31
0
  0
LINE
  8
1
 62
7
 10
1639.315336403073
 20
134.4213561945642
 30
0
 11
1639.315336403073
 21
137.1713561945642
 31
0
  0
LINE
  8
1
 62
7
 10
1645.315336403073
 20
137.9213561945642
 30
0
 11
1639.315336403073
 21
134.4213561945642
 31
0
  0
LINE
  8
1
 62
7
 10
1622.315336403073
 20
115.5849625711318
 30
0
 11
1627.603014977595
 21
115.5849625711318
 31
0
  0
LINE
  8
1
 62
7
 10
1624.069927100205
 20
112.8054592079993
 30
0
 11
1622.315336403073
 21
112.6160760575827
 31
0
  0
LINE
  8
1
 62
7
 10
1627.872860877915
 20
117.0624756932172
 30
0
 11
1624.244742315974
 21
117.0624756932172
 31
0
  0
LINE
  8
1
 62
7
 10
1624.244742315974
 20
117.0624756932172
 30
0
 11
1624.244742315974
 21
121.2156118298494
 31
0
  0
LINE
  8
1
 62
7
 10
1624.244742315974
 20
121.2156118298494
 30
0
 11
1631.315336403073
 21
121.2156118298494
 31
0
  0
LINE
  8
1
 62
7
 10
1622.315336403073
 20
115.5849625711318
 30
0
 11
1622.315336403073
 21
122.9213561945642
 31
0
  0
LINE
  8
1
 62
7
 10
1622.315336403073
 20
122.9213561945642
 30
0
 11
1631.315336403073
 21
122.9213561945642
 31
0
  0
LINE
  8
1
 62
2
  6
DASHDOT
 10
1580.674790513076
 20
119.9213561945642
 30
0
 11
1609.863741675596
 21
119.9213561945642
 31
0
  0
LINE
  8
1
 62
7
 10
1579.253523251018
 20
116.4213561945643
 30
0
 11
1574.631449065114
 21
116.4213561945643
 31
0
  0
LINE
  8
1
 62
7
 10
1574.631449065114
 20
116.4213561945643
 30
0
 11
1574.631449065114
 21
123.3510026501925
 31
0
  0
LINE
  8
1
 62
7
 10
1574.631449065114
 20
123.3510026501925
 30
0
 11
1579.173832316778
 21
123.3510026501925
 31
0
  0
LINE
  8
1
 62
7
 10
1579.173832316778
 20
123.3510026501925
 30
0
 11
1579.173832316778
 21
122.4847968432389
 31
0
  0
LINE
  8
1
 62
7
 10
1579.173832316778
 20
122.4847968432389
 30
0
 11
1575.508049341751
 21
122.4847968432389
 31
0
  0
LINE
  8
1
 62
7
 10
1575.508049341751
 20
122.4847968432389
 30
0
 11
1575.508049341751
 21
120.4059029065505
 31
0
  0
LINE
  8
1
 62
7
 10
1575.508049341751
 20
120.4059029065505
 30
0
 11
1578.855068579819
 21
120.4059029065505
 31
0
  0
LINE
  8
1
 62
7
 10
1578.855068579819
 20
120.4059029065505
 30
0
 11
1578.855068579819
 21
119.5396970995969
 31
0
  0
LINE
  8
1
 62
7
 10
1578.855068579819
 20
119.5396970995969
 30
0
 11
1575.508049341751
 21
119.5396970995969
 31
0
  0
LINE
  8
1
 62
7
 10
1575.508049341751
 20
119.5396970995969
 30
0
 11
1575.508049341751
 21
117.2875620015178
 31
0
  0
LINE
  8
1
 62
7
 10
1575.508049341751
 20
117.2875620015178
 30
0
 11
1579.253523251018
 21
117.2875620015178
 31
0
  0
LINE
  8
1
 62
7
 10
1579.253523251018
 20
117.2875620015178
 30
0
 11
1579.253523251018
 21
116.4213561945643
 31
0
  0
LINE
  8
1
 62
2
  6
DASHDOT
 10
1647.0720355779
 20
119.9213561945642
 30
0
 11
1745.10192266834
 21
119.9213561945642
 31
0
  0
LINE
  8
1
 62
2
  6
DIVIDE
 10
1563.315336403073
 20
123.3510026501925
 30
0
 11
1573.356394117278
 21
123.3510026501925
 31
0
  0
LINE
  8
1
 62
2
  6
DIVIDE
 10
1573.356394117278
 20
123.3510026501925
 30
0
 11
1573.356394117278
 21
116.4213561945642
 31
0
  0
LINE
  8
1
 62
2
  6
DIVIDE
 10
1573.356394117278
 20
116.4213561945642
 30
0
 11
1563.315336403073
 21
116.4213561945642
 31
0
  0
LINE
  8
1
 62
2
  6
DIVIDE
 10
1563.315336403073
 20
116.4213561945642
 30
0
 11
1563.315336403073
 21
123.3510026501925
 31
0
  0
LINE
  8
1
 62
7
 10
1663.316154584891
 20
191.6845973662113
 30
0
 11
1661.815336403073
 21
191.6845973662113
 31
0
  0
LINE
  8
1
 62
7
 10
1663.316154584891
 20
188.682961002575
 30
0
 11
1661.815336403073
 21
188.682961002575
 31
0
  0
LINE
  8
1
 62
2
 10
1665.215675171635
 20
188.7617391158869
 30
0
 11
1664.394659955285
 21
190.1837791843931
 31
0
  0
LINE
  8
1
 62
2
 10
1664.394659955285
 20
190.1837791843931
 30
0
 11
1665.215675171635
 21
191.6058192528991
 31
0
  0
LINE
  8
1
 62
2
 10
1661.815336403073
 20
191.3844337298475
 30
0
 11
1663.316154584891
 21
191.3844337298475
 31
0
  0
LINE
  8
1
 62
2
 10
1661.815336403073
 20
188.9831246389385
 30
0
 11
1663.316154584891
 21
188.9831246389385
 31
0
  0
LINE
  8
1
 62
7
 10
1663.316154584891
 20
192.9352791843931
 30
0
 11
1663.860897461534
 21
192.8876203581503
 31
0
  0
LINE
  8
1
 62
7
 10
1663.316154584891
 20
187.432279184393
 30
0
 11
1663.860897461534
 21
187.4799380106358
 31
0
  0
LINE
  8
1
 62
7
 10
1663.316154584891
 20
192.9352791843931
 30
0
 11
1663.316154584891
 21
187.432279184393
 31
0
  0
LINE
  8
1
 62
2
  6
DASHDOT
 10
1660.509884302904
 20
190.1837791843931
 30
0
 11
1666.108569510755
 21
190.1837791843931
 31
0
  0
LINE
  8
1
 62
7
 10
1584.815336403073
 20
202.7213569624693
 30
0
 11
1585.315336403073
 21
202.7213569624693
 31
0
  0
LINE
  8
1
 62
7
 10
1673.315336403073
 20
201.2213569624693
 30
0
 11
1673.315336403073
 21
193.7213569624693
 31
0
  0
LINE
  8
1
 62
7
 10
1673.315336403073
 20
193.7213569624693
 30
0
 11
1662.815336403073
 21
193.7213569624693
 31
0
  0
LINE
  8
1
 62
7
 10
1583.315336403073
 20
193.7213569624693
 30
0
 11
1583.315336403073
 21
201.2213569624693
 31
0
  0
LINE
  8
1
 62
7
 10
1586.815336403073
 20
215.2213569624693
 30
0
 11
1622.308045863844
 21
215.2213569624693
 31
0
  0
LINE
  8
1
 62
7
 10
1669.815336403073
 20
215.2213569624693
 30
0
 11
1669.815336403073
 21
204.2213569624693
 31
0
  0
LINE
  8
1
 62
7
 10
1671.315336403073
 20
202.7213569624693
 30
0
 11
1671.815336403073
 21
202.7213569624693
 31
0
  0
LINE
  8
1
 62
7
 10
1586.815336403073
 20
215.2213569624693
 30
0
 11
1586.815336403073
 21
204.2213569624693
 31
0
  0
LINE
  8
1
 62
7
 10
1593.917222608158
 20
246.7213569624693
 30
0
 11
1662.713450197988
 21
246.7213569624693
 31
0
  0
LINE
  8
1
 62
7
 10
1669.815336403073
 20
215.2213569624693
 30
0
 11
1665.683298678971
 21
244.1456210311813
 31
0
  0
LINE
  8
1
 62
7
 10
1590.947374127174
 20
244.1456210311813
 30
0
 11
1586.815336403073
 21
215.2213569624693
 31
0
  0
LINE
  8
1
 62
7
 10
1585.315336403073
 20
202.7213569624693
 30
0
 11
1671.315336403073
 21
202.7213569624693
 31
0
  0
LINE
  8
1
 62
7
 10
1634.322626942302
 20
215.2213569624693
 30
0
 11
1669.815336403073
 21
215.2213569624693
 31
0
  0
LINE
  8
1
 62
7
 10
1609.019394857054
 20
226.9254154164509
 30
0
 11
1647.565336403073
 21
226.9254154164509
 31
0
  0
LINE
  8
1
 62
7
 10
1657.565336403073
 20
236.9254154164509
 30
0
 11
1657.565336403073
 21
240.1836675636987
 31
0
  0
LINE
  8
1
 62
7
 10
1655.565336403073
 20
244.6030849461147
 30
0
 11
1601.019394857054
 21
244.6030849461147
 31
0
  0
LINE
  8
1
 62
7
 10
1601.019394857054
 20
243.8959781649279
 30
0
 11
1655.565336403073
 21
243.8959781649279
 31
0
  0
LINE
  8
1
 62
7
 10
1599.019394857054
 20
241.8959781649279
 30
0
 11
1599.019394857054
 21
240.5372209542927
 31
0
  0
LINE
  8
1
 62
7
 10
1657.565336403073
 20
241.8959781649279
 30
0
 11
1657.565336403073
 21
242.6030849461147
 31
0
  0
LINE
  8
1
 62
7
 10
1599.019394857054
 20
241.8959781649279
 30
0
 11
1599.019394857054
 21
242.6030849461147
 31
0
  0
LINE
  8
1
 62
7
 10
1595.815336403073
 20
186.7213569624693
 30
0
 11
1598.315336403073
 21
186.7213569624693
 31
0
  0
LINE
  8
1
 62
7
 10
1661.815336403073
 20
187.7213569624693
 30
0
 11
1661.815336403073
 21
192.7213569624693
 31
0
  0
LINE
  8
1
 62
7
 10
1594.815336403073
 20
187.7213569624693
 30
0
 11
1594.815336403073
 21
192.7213569624693
 31
0
  0
LINE
  8
1
 62
7
 10
1593.815336403073
 20
193.7213569624693
 30
0
 11
1583.315336403073
 21
193.7213569624693
 31
0
  0
LINE
  8
1
 62
7
 10
1662.815336403073
 20
193.7213569624693
 30
0
 11
1593.815336403073
 21
193.7213569624693
 31
0
  0
LINE
  8
1
 62
7
 10
1598.315336403073
 20
186.7213569624693
 30
0
 11
1598.315336403073
 21
184.7213569624693
 31
0
  0
LINE
  8
1
 62
7
 10
1598.315336403073
 20
186.7213569624693
 30
0
 11
1658.315336403073
 21
186.7213569624693
 31
0
  0
LINE
  8
1
 62
7
 10
1658.315336403073
 20
186.7213569624693
 30
0
 11
1658.315336403073
 21
184.7213569624693
 31
0
  0
LINE
  8
1
 62
7
 10
1658.315336403073
 20
186.7213569624693
 30
0
 11
1660.815336403073
 21
186.7213569624693
 31
0
  0
LINE
  8
1
 62
7
 10
1626.705352040006
 20
240.8021815925722
 30
0
 11
1627.065352040006
 21
240.8021815925722
 31
0
  0
LINE
  8
1
 62
7
 10
1628.100352040005
 20
240.8021815925722
 30
0
 11
1628.460352040006
 21
240.8021815925722
 31
0
  0
LINE
  8
1
 62
7
 10
1629.495352040006
 20
240.8021815925722
 30
0
 11
1629.855352040006
 21
240.8021815925722
 31
0
  0
LINE
  8
1
 62
7
 10
1626.705352040006
 20
240.8021815925722
 30
0
 11
1626.705352040006
 21
243.0341815925723
 31
0
  0
LINE
  8
1
 62
7
 10
1627.065352040006
 20
240.8021815925722
 30
0
 11
1627.065352040006
 21
242.156681592572
 31
0
  0
LINE
  8
1
 62
7
 10
1627.065352040006
 20
242.8653423012334
 30
0
 11
1627.065352040006
 21
243.0341815925723
 31
0
  0
LINE
  8
1
 62
7
 10
1628.100352040005
 20
240.8021815925722
 30
0
 11
1628.100352040005
 21
242.156681592572
 31
0
  0
LINE
  8
1
 62
7
 10
1628.460352040006
 20
240.8021815925722
 30
0
 11
1628.460352040006
 21
242.156681592572
 31
0
  0
LINE
  8
1
 62
7
 10
1629.495352040006
 20
240.8021815925722
 30
0
 11
1629.495352040006
 21
242.156681592572
 31
0
  0
LINE
  8
1
 62
7
 10
1629.855352040006
 20
240.8021815925722
 30
0
 11
1629.855352040006
 21
242.156681592572
 31
0
  0
LINE
  8
1
 62
7
 10
1626.705352040006
 20
240.8021815925722
 30
0
 11
1627.065352040006
 21
240.8021815925722
 31
0
  0
LINE
  8
1
 62
7
 10
1628.100352040005
 20
240.8021815925722
 30
0
 11
1628.460352040006
 21
240.8021815925722
 31
0
  0
LINE
  8
1
 62
7
 10
1629.495352040006
 20
240.8021815925722
 30
0
 11
1629.855352040006
 21
240.8021815925722
 31
0
  0
LINE
  8
1
 62
7
 10
1626.705352040006
 20
243.0341815925723
 30
0
 11
1627.065352040006
 21
243.0341815925723
 31
0
  0
LINE
  8
1
 62
7
 10
1656.839952961645
 20
237.0249103530626
 30
0
 11
1655.579948098086
 21
237.0249103530626
 31
0
  0
LINE
  8
1
 62
7
 10
1655.579948098086
 20
237.0249103530626
 30
0
 11
1655.579948098086
 21
236.6249103530626
 31
0
  0
LINE
  8
1
 62
7
 10
1655.579948098086
 20
236.6249103530626
 30
0
 11
1656.839952961645
 21
236.6249103530626
 31
0
  0
LINE
  8
1
 62
7
 10
1656.839952961645
 20
236.6249103530626
 30
0
 11
1656.839952961645
 21
237.0249103530626
 31
0
  0
LINE
  8
1
 62
7
 10
1630.913398118003
 20
239.1230073919188
 30
0
 11
1599.565336403073
 21
239.1230073919188
 31
0
  0
LINE
  8
1
 62
7
 10
1630.913398118003
 20
234.5268133142061
 30
0
 11
1630.913398118003
 21
239.1230073919188
 31
0
  0
LINE
  8
1
 62
7
 10
1599.565336403073
 20
239.1230073919188
 30
0
 11
1599.565336403073
 21
234.5268133142066
 31
0
  0
LINE
  8
1
 62
7
 10
1599.565336403073
 20
234.5268133142066
 30
0
 11
1630.913398118003
 21
234.5268133142061
 31
0
  0
LINE
  8
1
 62
7
 10
1632.913398118003
 20
240.1836675636996
 30
0
 11
1632.913398118003
 21
233.4661531424274
 31
0
  0
LINE
  8
1
 62
7
 10
1657.065336403073
 20
236.5749103530617
 30
0
 11
1657.065336403073
 21
237.0749103530617
 31
0
  0
LINE
  8
1
 62
7
 10
1657.065336403073
 20
236.5749103530617
 30
0
 11
1657.559191825308
 21
236.5749103530617
 31
0
  0
LINE
  8
1
 62
7
 10
1657.065336403073
 20
237.0749103530617
 30
0
 11
1657.065336403073
 21
239.1230073919179
 31
0
  0
LINE
  8
1
 62
7
 10
1650.565336403073
 20
231.1680561035703
 30
0
 11
1655.741693400072
 21
231.1680561035701
 31
0
  0
LINE
  8
1
 62
7
 10
1650.565336403073
 20
233.4661531424265
 30
0
 11
1650.565336403073
 21
231.1680561035703
 31
0
  0
LINE
  8
1
 62
7
 10
1632.913398118003
 20
233.4661531424274
 30
0
 11
1650.565336403073
 21
233.4661531424265
 31
0
  0
LINE
  8
1
 62
7
 10
1652.065336403073
 20
234.5268133142057
 30
0
 11
1652.065336403073
 21
232.22871627535
 31
0
  0
LINE
  8
1
 62
7
 10
1634.413398118003
 20
234.5268133142066
 30
0
 11
1652.065336403073
 21
234.5268133142057
 31
0
  0
LINE
  8
1
 62
7
 10
1634.413398118003
 20
239.1230073919188
 30
0
 11
1634.413398118003
 21
234.5268133142066
 31
0
  0
LINE
  8
1
 62
7
 10
1657.065336403073
 20
239.1230073919179
 30
0
 11
1634.413398118003
 21
239.1230073919188
 31
0
  0
LINE
  8
1
 62
7
 10
1652.065336403073
 20
232.22871627535
 30
0
 11
1656.393757393147
 21
232.22871627535
 31
0
  0
LINE
  8
1
 62
7
 10
1650.065336403073
 20
233.1125997518325
 30
0
 11
1599.774805265967
 21
233.1125997518334
 31
0
  0
LINE
  8
1
 62
7
 10
1650.065336403073
 20
230.814502712977
 30
0
 11
1650.065336403073
 21
233.1125997518325
 31
0
  0
LINE
  8
1
 62
7
 10
1599.019394857054
 20
240.5372209542927
 30
0
 11
1657.565336403073
 21
240.5372209542921
 31
0
  0
LINE
  8
1
 62
7
 10
1657.565336403073
 20
240.1836675636987
 30
0
 11
1632.913398118003
 21
240.1836675636996
 31
0
  0
LINE
  8
1
 62
7
 10
1657.565336403073
 20
237.0749103530617
 30
0
 11
1657.065336403073
 21
237.0749103530617
 31
0
  0
LINE
  8
1
 62
7
 10
1657.065336403073
 20
233.8029164172517
 30
0
 11
1657.065336403073
 21
236.5749103530617
 31
0
  0
LINE
  8
1
 62
7
 10
1655.480937828771
 20
230.814502712977
 30
0
 11
1650.065336403073
 21
230.814502712977
 31
0
  0
LINE
  8
1
 62
7
 10
1657.565336403073
 20
240.1836675636987
 30
0
 11
1657.565336403073
 21
240.5372209542921
 31
0
  0
LINE
  8
1
 62
7
 10
1657.565336403073
 20
240.5372209542921
 30
0
 11
1657.565336403073
 21
241.8959781649279
 31
0
  0
LINE
  8
1
 62
7
 10
1599.019394857054
 20
240.5372209542927
 30
0
 11
1599.019394857054
 21
236.9254154164509
 31
0
  0
LINE
  8
1
 62
7
 10
1628.984329627258
 20
234.979411803583
 30
0
 11
1628.984329627258
 21
238.6704089025426
 31
0
  0
LINE
  8
1
 62
7
 10
1628.984329627258
 20
238.6704089025426
 30
0
 11
1628.615229917363
 21
238.6704089025426
 31
0
  0
LINE
  8
1
 62
7
 10
1628.615229917363
 20
238.6704089025426
 30
0
 11
1628.569092453626
 21
238.5319965113315
 31
0
  0
LINE
  8
1
 62
7
 10
1628.569092453626
 20
238.5319965113315
 30
0
 11
1628.430680062415
 21
238.3474466563835
 31
0
  0
LINE
  8
1
 62
7
 10
1628.430680062415
 20
238.3474466563835
 30
0
 11
1628.292267671204
 21
238.2090342651726
 31
0
  0
LINE
  8
1
 62
7
 10
1628.292267671204
 20
238.2090342651726
 30
0
 11
1628.107717816256
 21
238.1167593376985
 31
0
  0
LINE
  8
1
 62
7
 10
1628.107717816256
 20
238.1167593376985
 30
0
 11
1627.969305425045
 21
238.0706218739615
 31
0
  0
LINE
  8
1
 62
7
 10
1627.969305425045
 20
238.0706218739615
 30
0
 11
1627.738618106359
 21
238.0244844102246
 31
0
  0
LINE
  8
1
 62
7
 10
1627.738618106359
 20
238.0244844102246
 30
0
 11
1627.646343178887
 21
238.0244844102246
 31
0
  0
LINE
  8
1
 62
7
 10
1627.646343178887
 20
238.0244844102246
 30
0
 11
1627.646343178887
 21
237.6553847003287
 31
0
  0
LINE
  8
1
 62
7
 10
1627.646343178887
 20
237.6553847003287
 30
0
 11
1628.522954989889
 21
237.6553847003287
 31
0
  0
LINE
  8
1
 62
7
 10
1628.522954989889
 20
237.6553847003287
 30
0
 11
1628.522954989889
 21
234.979411803583
 31
0
  0
LINE
  8
1
 62
7
 10
1628.522954989889
 20
234.979411803583
 30
0
 11
1628.984329627258
 21
234.979411803583
 31
0
  0
LINE
  8
1
 62
7
 10
1621.930211042558
 20
235.4407864409527
 30
0
 11
1622.317765737949
 21
235.4407864409527
 31
0
  0
LINE
  8
1
 62
7
 10
1622.317765737949
 20
235.4407864409527
 30
0
 11
1622.539225563887
 21
235.5330613684268
 31
0
  0
LINE
  8
1
 62
7
 10
1622.539225563887
 20
235.5330613684268
 30
0
 11
1622.760685389824
 21
235.6714737596377
 31
0
  0
LINE
  8
1
 62
7
 10
1622.760685389824
 20
235.6714737596377
 30
0
 11
1622.871415302793
 21
235.8098861508487
 31
0
  0
LINE
  8
1
 62
7
 10
1622.871415302793
 20
235.8098861508487
 30
0
 11
1622.982145215762
 21
236.0405734695337
 31
0
  0
LINE
  8
1
 62
7
 10
1622.982145215762
 20
236.0405734695337
 30
0
 11
1623.037510172246
 21
236.5480855706406
 31
0
  0
LINE
  8
1
 62
7
 10
1623.037510172246
 20
236.5480855706406
 30
0
 11
1623.037510172246
 21
237.1017351354846
 31
0
  0
LINE
  8
1
 62
7
 10
1623.037510172246
 20
237.1017351354846
 30
0
 11
1622.982145215762
 21
237.6092472365915
 31
0
  0
LINE
  8
1
 62
7
 10
1622.982145215762
 20
237.6092472365915
 30
0
 11
1622.871415302793
 21
237.8399345552765
 31
0
  0
LINE
  8
1
 62
7
 10
1622.871415302793
 20
237.8399345552765
 30
0
 11
1622.760685389824
 21
237.9783469464875
 31
0
  0
LINE
  8
1
 62
7
 10
1622.760685389824
 20
237.9783469464875
 30
0
 11
1622.539225563887
 21
238.1167593376984
 31
0
  0
LINE
  8
1
 62
7
 10
1622.539225563887
 20
238.1167593376984
 30
0
 11
1622.317765737949
 21
238.2090342651725
 31
0
  0
LINE
  8
1
 62
7
 10
1622.317765737949
 20
238.2090342651725
 30
0
 11
1621.930211042558
 21
238.2090342651725
 31
0
  0
LINE
  8
1
 62
7
 10
1621.930211042558
 20
238.2090342651725
 30
0
 11
1621.708751216621
 21
238.1167593376984
 31
0
  0
LINE
  8
1
 62
7
 10
1621.708751216621
 20
238.1167593376984
 30
0
 11
1621.487291390683
 21
237.9783469464875
 31
0
  0
LINE
  8
1
 62
7
 10
1621.487291390683
 20
237.9783469464875
 30
0
 11
1621.376561477714
 21
237.8399345552765
 31
0
  0
LINE
  8
1
 62
7
 10
1621.376561477714
 20
237.8399345552765
 30
0
 11
1621.265831564746
 21
237.6092472365915
 31
0
  0
LINE
  8
1
 62
7
 10
1621.265831564746
 20
237.6092472365915
 30
0
 11
1621.210466608261
 21
237.1017351354846
 31
0
  0
LINE
  8
1
 62
7
 10
1621.210466608261
 20
237.1017351354846
 30
0
 11
1621.210466608261
 21
236.5480855706406
 31
0
  0
LINE
  8
1
 62
7
 10
1621.210466608261
 20
236.5480855706406
 30
0
 11
1621.265831564746
 21
236.0405734695337
 31
0
  0
LINE
  8
1
 62
7
 10
1621.265831564746
 20
236.0405734695337
 30
0
 11
1621.376561477714
 21
235.8098861508487
 31
0
  0
LINE
  8
1
 62
7
 10
1621.376561477714
 20
235.8098861508487
 30
0
 11
1621.487291390683
 21
235.6714737596377
 31
0
  0
LINE
  8
1
 62
7
 10
1621.487291390683
 20
235.6714737596377
 30
0
 11
1621.708751216621
 21
235.5330613684268
 31
0
  0
LINE
  8
1
 62
7
 10
1621.708751216621
 20
235.5330613684268
 30
0
 11
1621.930211042558
 21
235.4407864409527
 31
0
  0
LINE
  8
1
 62
7
 10
1622.982145215762
 20
235.2100991222677
 30
0
 11
1623.148240085215
 21
235.3485115134788
 31
0
  0
LINE
  8
1
 62
7
 10
1623.148240085215
 20
235.3485115134788
 30
0
 11
1623.314334954668
 21
235.5330613684268
 31
0
  0
LINE
  8
1
 62
7
 10
1623.314334954668
 20
235.5330613684268
 30
0
 11
1623.425064867637
 21
235.7176112233748
 31
0
  0
LINE
  8
1
 62
7
 10
1623.425064867637
 20
235.7176112233748
 30
0
 11
1623.535794780606
 21
235.9482985420596
 31
0
  0
LINE
  8
1
 62
7
 10
1623.535794780606
 20
235.9482985420596
 30
0
 11
1623.59115973709
 21
236.2251233244816
 31
0
  0
LINE
  8
1
 62
7
 10
1623.59115973709
 20
236.2251233244816
 30
0
 11
1623.646524693574
 21
236.6403604981146
 31
0
  0
LINE
  8
1
 62
7
 10
1623.646524693574
 20
236.6403604981146
 30
0
 11
1623.646524693574
 21
237.0094602080106
 31
0
  0
LINE
  8
1
 62
7
 10
1623.646524693574
 20
237.0094602080106
 30
0
 11
1623.59115973709
 21
237.4246973816435
 31
0
  0
LINE
  8
1
 62
7
 10
1623.59115973709
 20
237.4246973816435
 30
0
 11
1623.535794780606
 21
237.7015221640653
 31
0
  0
LINE
  8
1
 62
7
 10
1623.535794780606
 20
237.7015221640653
 30
0
 11
1623.425064867637
 21
237.9322094827504
 31
0
  0
LINE
  8
1
 62
7
 10
1623.425064867637
 20
237.9322094827504
 30
0
 11
1623.314334954668
 21
238.1167593376984
 31
0
  0
LINE
  8
1
 62
7
 10
1623.314334954668
 20
238.1167593376984
 30
0
 11
1623.148240085215
 21
238.3013091926465
 31
0
  0
LINE
  8
1
 62
7
 10
1623.148240085215
 20
238.3013091926465
 30
0
 11
1622.982145215762
 21
238.4397215838573
 31
0
  0
LINE
  8
1
 62
7
 10
1622.982145215762
 20
238.4397215838573
 30
0
 11
1622.816050346309
 21
238.5319965113314
 31
0
  0
LINE
  8
1
 62
7
 10
1622.816050346309
 20
238.5319965113314
 30
0
 11
1622.539225563887
 21
238.6242714388053
 31
0
  0
LINE
  8
1
 62
7
 10
1622.539225563887
 20
238.6242714388053
 30
0
 11
1622.317765737949
 21
238.6704089025423
 31
0
  0
LINE
  8
1
 62
7
 10
1622.317765737949
 20
238.6704089025423
 30
0
 11
1621.930211042558
 21
238.6704089025423
 31
0
  0
LINE
  8
1
 62
7
 10
1621.930211042558
 20
238.6704089025423
 30
0
 11
1621.708751216621
 21
238.6242714388053
 31
0
  0
LINE
  8
1
 62
7
 10
1621.708751216621
 20
238.6242714388053
 30
0
 11
1621.431926434198
 21
238.5319965113314
 31
0
  0
LINE
  8
1
 62
7
 10
1621.431926434198
 20
238.5319965113314
 30
0
 11
1621.265831564746
 21
238.4397215838573
 31
0
  0
LINE
  8
1
 62
7
 10
1621.265831564746
 20
238.4397215838573
 30
0
 11
1621.099736695292
 21
238.3013091926465
 31
0
  0
LINE
  8
1
 62
7
 10
1621.099736695292
 20
238.3013091926465
 30
0
 11
1620.933641825839
 21
238.1167593376984
 31
0
  0
LINE
  8
1
 62
7
 10
1620.933641825839
 20
238.1167593376984
 30
0
 11
1620.82291191287
 21
237.9322094827504
 31
0
  0
LINE
  8
1
 62
7
 10
1620.82291191287
 20
237.9322094827504
 30
0
 11
1620.712181999902
 21
237.7015221640653
 31
0
  0
LINE
  8
1
 62
7
 10
1620.712181999902
 20
237.7015221640653
 30
0
 11
1620.656817043417
 21
237.4246973816435
 31
0
  0
LINE
  8
1
 62
7
 10
1620.656817043417
 20
237.4246973816435
 30
0
 11
1620.601452086933
 21
237.0094602080106
 31
0
  0
LINE
  8
1
 62
7
 10
1620.601452086933
 20
237.0094602080106
 30
0
 11
1620.601452086933
 21
236.6403604981146
 31
0
  0
LINE
  8
1
 62
7
 10
1620.601452086933
 20
236.6403604981146
 30
0
 11
1620.656817043417
 21
236.2251233244816
 31
0
  0
LINE
  8
1
 62
7
 10
1620.656817043417
 20
236.2251233244816
 30
0
 11
1620.712181999902
 21
235.9482985420596
 31
0
  0
LINE
  8
1
 62
7
 10
1620.712181999902
 20
235.9482985420596
 30
0
 11
1620.82291191287
 21
235.7176112233748
 31
0
  0
LINE
  8
1
 62
7
 10
1620.82291191287
 20
235.7176112233748
 30
0
 11
1620.933641825839
 21
235.5330613684268
 31
0
  0
LINE
  8
1
 62
7
 10
1620.933641825839
 20
235.5330613684268
 30
0
 11
1621.099736695292
 21
235.3485115134788
 31
0
  0
LINE
  8
1
 62
7
 10
1621.099736695292
 20
235.3485115134788
 30
0
 11
1621.265831564746
 21
235.2100991222677
 31
0
  0
LINE
  8
1
 62
7
 10
1621.265831564746
 20
235.2100991222677
 30
0
 11
1621.431926434198
 21
235.1178241947938
 31
0
  0
LINE
  8
1
 62
7
 10
1621.431926434198
 20
235.1178241947938
 30
0
 11
1621.708751216621
 21
235.0255492673198
 31
0
  0
LINE
  8
1
 62
7
 10
1621.708751216621
 20
235.0255492673198
 30
0
 11
1621.930211042558
 21
234.9794118035827
 31
0
  0
LINE
  8
1
 62
7
 10
1621.930211042558
 20
234.9794118035827
 30
0
 11
1622.317765737949
 21
234.9794118035827
 31
0
  0
LINE
  8
1
 62
7
 10
1622.317765737949
 20
234.9794118035827
 30
0
 11
1622.539225563887
 21
235.0255492673198
 31
0
  0
LINE
  8
1
 62
7
 10
1622.539225563887
 20
235.0255492673198
 30
0
 11
1622.816050346309
 21
235.1178241947938
 31
0
  0
LINE
  8
1
 62
7
 10
1622.816050346309
 20
235.1178241947938
 30
0
 11
1622.982145215762
 21
235.2100991222677
 31
0
  0
LINE
  8
1
 62
7
 10
1615.305211042558
 20
235.4407864409527
 30
0
 11
1615.692765737949
 21
235.4407864409527
 31
0
  0
LINE
  8
1
 62
7
 10
1615.692765737949
 20
235.4407864409527
 30
0
 11
1615.914225563885
 21
235.5330613684268
 31
0
  0
LINE
  8
1
 62
7
 10
1615.914225563885
 20
235.5330613684268
 30
0
 11
1616.135685389824
 21
235.6714737596377
 31
0
  0
LINE
  8
1
 62
7
 10
1616.135685389824
 20
235.6714737596377
 30
0
 11
1616.246415302793
 21
235.8098861508487
 31
0
  0
LINE
  8
1
 62
7
 10
1616.246415302793
 20
235.8098861508487
 30
0
 11
1616.357145215761
 21
236.0405734695337
 31
0
  0
LINE
  8
1
 62
7
 10
1616.357145215761
 20
236.0405734695337
 30
0
 11
1616.412510172246
 21
236.5480855706406
 31
0
  0
LINE
  8
1
 62
7
 10
1616.412510172246
 20
236.5480855706406
 30
0
 11
1616.412510172246
 21
237.1017351354846
 31
0
  0
LINE
  8
1
 62
7
 10
1616.412510172246
 20
237.1017351354846
 30
0
 11
1616.357145215761
 21
237.6092472365915
 31
0
  0
LINE
  8
1
 62
7
 10
1616.357145215761
 20
237.6092472365915
 30
0
 11
1616.246415302793
 21
237.8399345552765
 31
0
  0
LINE
  8
1
 62
7
 10
1616.246415302793
 20
237.8399345552765
 30
0
 11
1616.135685389824
 21
237.9783469464875
 31
0
  0
LINE
  8
1
 62
7
 10
1616.135685389824
 20
237.9783469464875
 30
0
 11
1615.914225563885
 21
238.1167593376984
 31
0
  0
LINE
  8
1
 62
7
 10
1615.914225563885
 20
238.1167593376984
 30
0
 11
1615.692765737949
 21
238.2090342651725
 31
0
  0
LINE
  8
1
 62
7
 10
1615.692765737949
 20
238.2090342651725
 30
0
 11
1615.305211042558
 21
238.2090342651725
 31
0
  0
LINE
  8
1
 62
7
 10
1615.305211042558
 20
238.2090342651725
 30
0
 11
1615.08375121662
 21
238.1167593376984
 31
0
  0
LINE
  8
1
 62
7
 10
1615.08375121662
 20
238.1167593376984
 30
0
 11
1614.862291390683
 21
237.9783469464875
 31
0
  0
LINE
  8
1
 62
7
 10
1614.862291390683
 20
237.9783469464875
 30
0
 11
1614.751561477714
 21
237.8399345552765
 31
0
  0
LINE
  8
1
 62
7
 10
1614.751561477714
 20
237.8399345552765
 30
0
 11
1614.640831564745
 21
237.6092472365915
 31
0
  0
LINE
  8
1
 62
7
 10
1614.640831564745
 20
237.6092472365915
 30
0
 11
1614.585466608261
 21
237.1017351354846
 31
0
  0
LINE
  8
1
 62
7
 10
1614.585466608261
 20
237.1017351354846
 30
0
 11
1614.585466608261
 21
236.5480855706406
 31
0
  0
LINE
  8
1
 62
7
 10
1614.585466608261
 20
236.5480855706406
 30
0
 11
1614.640831564745
 21
236.0405734695337
 31
0
  0
LINE
  8
1
 62
7
 10
1614.640831564745
 20
236.0405734695337
 30
0
 11
1614.751561477714
 21
235.8098861508487
 31
0
  0
LINE
  8
1
 62
7
 10
1614.751561477714
 20
235.8098861508487
 30
0
 11
1614.862291390683
 21
235.6714737596377
 31
0
  0
LINE
  8
1
 62
7
 10
1614.862291390683
 20
235.6714737596377
 30
0
 11
1615.08375121662
 21
235.5330613684268
 31
0
  0
LINE
  8
1
 62
7
 10
1615.08375121662
 20
235.5330613684268
 30
0
 11
1615.305211042558
 21
235.4407864409527
 31
0
  0
LINE
  8
1
 62
7
 10
1616.357145215761
 20
235.2100991222677
 30
0
 11
1616.523240085214
 21
235.3485115134788
 31
0
  0
LINE
  8
1
 62
7
 10
1616.523240085214
 20
235.3485115134788
 30
0
 11
1616.689334954668
 21
235.5330613684268
 31
0
  0
LINE
  8
1
 62
7
 10
1616.689334954668
 20
235.5330613684268
 30
0
 11
1616.800064867637
 21
235.7176112233748
 31
0
  0
LINE
  8
1
 62
7
 10
1616.800064867637
 20
235.7176112233748
 30
0
 11
1616.910794780605
 21
235.9482985420596
 31
0
  0
LINE
  8
1
 62
7
 10
1616.910794780605
 20
235.9482985420596
 30
0
 11
1616.96615973709
 21
236.2251233244816
 31
0
  0
LINE
  8
1
 62
7
 10
1616.96615973709
 20
236.2251233244816
 30
0
 11
1617.021524693574
 21
236.6403604981146
 31
0
  0
LINE
  8
1
 62
7
 10
1617.021524693574
 20
236.6403604981146
 30
0
 11
1617.021524693574
 21
237.0094602080106
 31
0
  0
LINE
  8
1
 62
7
 10
1617.021524693574
 20
237.0094602080106
 30
0
 11
1616.96615973709
 21
237.4246973816435
 31
0
  0
LINE
  8
1
 62
7
 10
1616.96615973709
 20
237.4246973816435
 30
0
 11
1616.910794780605
 21
237.7015221640653
 31
0
  0
LINE
  8
1
 62
7
 10
1616.910794780605
 20
237.7015221640653
 30
0
 11
1616.800064867637
 21
237.9322094827504
 31
0
  0
LINE
  8
1
 62
7
 10
1616.800064867637
 20
237.9322094827504
 30
0
 11
1616.689334954668
 21
238.1167593376984
 31
0
  0
LINE
  8
1
 62
7
 10
1616.689334954668
 20
238.1167593376984
 30
0
 11
1616.523240085214
 21
238.3013091926465
 31
0
  0
LINE
  8
1
 62
7
 10
1616.523240085214
 20
238.3013091926465
 30
0
 11
1616.357145215761
 21
238.4397215838573
 31
0
  0
LINE
  8
1
 62
7
 10
1616.357145215761
 20
238.4397215838573
 30
0
 11
1616.191050346308
 21
238.5319965113314
 31
0
  0
LINE
  8
1
 62
7
 10
1616.191050346308
 20
238.5319965113314
 30
0
 11
1615.914225563885
 21
238.6242714388053
 31
0
  0
LINE
  8
1
 62
7
 10
1615.914225563885
 20
238.6242714388053
 30
0
 11
1615.692765737949
 21
238.6704089025423
 31
0
  0
LINE
  8
1
 62
7
 10
1615.692765737949
 20
238.6704089025423
 30
0
 11
1615.305211042558
 21
238.6704089025423
 31
0
  0
LINE
  8
1
 62
7
 10
1615.305211042558
 20
238.6704089025423
 30
0
 11
1615.08375121662
 21
238.6242714388053
 31
0
  0
LINE
  8
1
 62
7
 10
1615.08375121662
 20
238.6242714388053
 30
0
 11
1614.806926434198
 21
238.5319965113314
 31
0
  0
LINE
  8
1
 62
7
 10
1614.806926434198
 20
238.5319965113314
 30
0
 11
1614.640831564745
 21
238.4397215838573
 31
0
  0
LINE
  8
1
 62
7
 10
1614.640831564745
 20
238.4397215838573
 30
0
 11
1614.474736695292
 21
238.3013091926465
 31
0
  0
LINE
  8
1
 62
7
 10
1614.474736695292
 20
238.3013091926465
 30
0
 11
1614.308641825839
 21
238.1167593376984
 31
0
  0
LINE
  8
1
 62
7
 10
1614.308641825839
 20
238.1167593376984
 30
0
 11
1614.19791191287
 21
237.9322094827504
 31
0
  0
LINE
  8
1
 62
7
 10
1614.19791191287
 20
237.9322094827504
 30
0
 11
1614.087181999901
 21
237.7015221640653
 31
0
  0
LINE
  8
1
 62
7
 10
1614.087181999901
 20
237.7015221640653
 30
0
 11
1614.031817043417
 21
237.4246973816435
 31
0
  0
LINE
  8
1
 62
7
 10
1614.031817043417
 20
237.4246973816435
 30
0
 11
1613.976452086932
 21
237.0094602080106
 31
0
  0
LINE
  8
1
 62
7
 10
1613.976452086932
 20
237.0094602080106
 30
0
 11
1613.976452086932
 21
236.6403604981146
 31
0
  0
LINE
  8
1
 62
7
 10
1613.976452086932
 20
236.6403604981146
 30
0
 11
1614.031817043417
 21
236.2251233244816
 31
0
  0
LINE
  8
1
 62
7
 10
1614.031817043417
 20
236.2251233244816
 30
0
 11
1614.087181999901
 21
235.9482985420596
 31
0
  0
LINE
  8
1
 62
7
 10
1614.087181999901
 20
235.9482985420596
 30
0
 11
1614.19791191287
 21
235.7176112233748
 31
0
  0
LINE
  8
1
 62
7
 10
1614.19791191287
 20
235.7176112233748
 30
0
 11
1614.308641825839
 21
235.5330613684268
 31
0
  0
LINE
  8
1
 62
7
 10
1614.308641825839
 20
235.5330613684268
 30
0
 11
1614.474736695292
 21
235.3485115134788
 31
0
  0
LINE
  8
1
 62
7
 10
1614.474736695292
 20
235.3485115134788
 30
0
 11
1614.640831564745
 21
235.2100991222677
 31
0
  0
LINE
  8
1
 62
7
 10
1614.640831564745
 20
235.2100991222677
 30
0
 11
1614.806926434198
 21
235.1178241947938
 31
0
  0
LINE
  8
1
 62
7
 10
1614.806926434198
 20
235.1178241947938
 30
0
 11
1615.08375121662
 21
235.0255492673198
 31
0
  0
LINE
  8
1
 62
7
 10
1615.08375121662
 20
235.0255492673198
 30
0
 11
1615.305211042558
 21
234.9794118035827
 31
0
  0
LINE
  8
1
 62
7
 10
1615.305211042558
 20
234.9794118035827
 30
0
 11
1615.692765737949
 21
234.9794118035827
 31
0
  0
LINE
  8
1
 62
7
 10
1615.692765737949
 20
234.9794118035827
 30
0
 11
1615.914225563885
 21
235.0255492673198
 31
0
  0
LINE
  8
1
 62
7
 10
1615.914225563885
 20
235.0255492673198
 30
0
 11
1616.191050346308
 21
235.1178241947938
 31
0
  0
LINE
  8
1
 62
7
 10
1616.191050346308
 20
235.1178241947938
 30
0
 11
1616.357145215761
 21
235.2100991222677
 31
0
  0
LINE
  8
1
 62
7
 10
1608.680211042557
 20
235.4407864409527
 30
0
 11
1609.067765737947
 21
235.4407864409527
 31
0
  0
LINE
  8
1
 62
7
 10
1609.067765737947
 20
235.4407864409527
 30
0
 11
1609.289225563885
 21
235.5330613684268
 31
0
  0
LINE
  8
1
 62
7
 10
1609.289225563885
 20
235.5330613684268
 30
0
 11
1609.510685389822
 21
235.6714737596377
 31
0
  0
LINE
  8
1
 62
7
 10
1609.510685389822
 20
235.6714737596377
 30
0
 11
1609.621415302792
 21
235.8098861508487
 31
0
  0
LINE
  8
1
 62
7
 10
1609.621415302792
 20
235.8098861508487
 30
0
 11
1609.732145215761
 21
236.0405734695337
 31
0
  0
LINE
  8
1
 62
7
 10
1609.732145215761
 20
236.0405734695337
 30
0
 11
1609.787510172245
 21
236.5480855706406
 31
0
  0
LINE
  8
1
 62
7
 10
1609.787510172245
 20
236.5480855706406
 30
0
 11
1609.787510172245
 21
237.1017351354846
 31
0
  0
LINE
  8
1
 62
7
 10
1609.787510172245
 20
237.1017351354846
 30
0
 11
1609.732145215761
 21
237.6092472365915
 31
0
  0
LINE
  8
1
 62
7
 10
1609.732145215761
 20
237.6092472365915
 30
0
 11
1609.621415302792
 21
237.8399345552765
 31
0
  0
LINE
  8
1
 62
7
 10
1609.621415302792
 20
237.8399345552765
 30
0
 11
1609.510685389822
 21
237.9783469464875
 31
0
  0
LINE
  8
1
 62
7
 10
1609.510685389822
 20
237.9783469464875
 30
0
 11
1609.289225563885
 21
238.1167593376984
 31
0
  0
LINE
  8
1
 62
7
 10
1609.289225563885
 20
238.1167593376984
 30
0
 11
1609.067765737947
 21
238.2090342651725
 31
0
  0
LINE
  8
1
 62
7
 10
1609.067765737947
 20
238.2090342651725
 30
0
 11
1608.680211042557
 21
238.2090342651725
 31
0
  0
LINE
  8
1
 62
7
 10
1608.680211042557
 20
238.2090342651725
 30
0
 11
1608.45875121662
 21
238.1167593376984
 31
0
  0
LINE
  8
1
 62
7
 10
1608.45875121662
 20
238.1167593376984
 30
0
 11
1608.237291390682
 21
237.9783469464875
 31
0
  0
LINE
  8
1
 62
7
 10
1608.237291390682
 20
237.9783469464875
 30
0
 11
1608.126561477713
 21
237.8399345552765
 31
0
  0
LINE
  8
1
 62
7
 10
1608.126561477713
 20
237.8399345552765
 30
0
 11
1608.015831564745
 21
237.6092472365915
 31
0
  0
LINE
  8
1
 62
7
 10
1608.015831564745
 20
237.6092472365915
 30
0
 11
1607.96046660826
 21
237.1017351354846
 31
0
  0
LINE
  8
1
 62
7
 10
1607.96046660826
 20
237.1017351354846
 30
0
 11
1607.96046660826
 21
236.5480855706406
 31
0
  0
LINE
  8
1
 62
7
 10
1607.96046660826
 20
236.5480855706406
 30
0
 11
1608.015831564745
 21
236.0405734695337
 31
0
  0
LINE
  8
1
 62
7
 10
1608.015831564745
 20
236.0405734695337
 30
0
 11
1608.126561477713
 21
235.8098861508487
 31
0
  0
LINE
  8
1
 62
7
 10
1608.126561477713
 20
235.8098861508487
 30
0
 11
1608.237291390682
 21
235.6714737596377
 31
0
  0
LINE
  8
1
 62
7
 10
1608.237291390682
 20
235.6714737596377
 30
0
 11
1608.45875121662
 21
235.5330613684268
 31
0
  0
LINE
  8
1
 62
7
 10
1608.45875121662
 20
235.5330613684268
 30
0
 11
1608.680211042557
 21
235.4407864409527
 31
0
  0
LINE
  8
1
 62
7
 10
1609.732145215761
 20
235.2100991222677
 30
0
 11
1609.898240085214
 21
235.3485115134788
 31
0
  0
LINE
  8
1
 62
7
 10
1609.898240085214
 20
235.3485115134788
 30
0
 11
1610.064334954667
 21
235.5330613684268
 31
0
  0
LINE
  8
1
 62
7
 10
1610.064334954667
 20
235.5330613684268
 30
0
 11
1610.175064867636
 21
235.7176112233748
 31
0
  0
LINE
  8
1
 62
7
 10
1610.175064867636
 20
235.7176112233748
 30
0
 11
1610.285794780605
 21
235.9482985420596
 31
0
  0
LINE
  8
1
 62
7
 10
1610.285794780605
 20
235.9482985420596
 30
0
 11
1610.341159737089
 21
236.2251233244816
 31
0
  0
LINE
  8
1
 62
7
 10
1610.341159737089
 20
236.2251233244816
 30
0
 11
1610.396524693574
 21
236.6403604981146
 31
0
  0
LINE
  8
1
 62
7
 10
1610.396524693574
 20
236.6403604981146
 30
0
 11
1610.396524693574
 21
237.0094602080106
 31
0
  0
LINE
  8
1
 62
7
 10
1610.396524693574
 20
237.0094602080106
 30
0
 11
1610.341159737089
 21
237.4246973816435
 31
0
  0
LINE
  8
1
 62
7
 10
1610.341159737089
 20
237.4246973816435
 30
0
 11
1610.285794780605
 21
237.7015221640653
 31
0
  0
LINE
  8
1
 62
7
 10
1610.285794780605
 20
237.7015221640653
 30
0
 11
1610.175064867636
 21
237.9322094827504
 31
0
  0
LINE
  8
1
 62
7
 10
1610.175064867636
 20
237.9322094827504
 30
0
 11
1610.064334954667
 21
238.1167593376984
 31
0
  0
LINE
  8
1
 62
7
 10
1610.064334954667
 20
238.1167593376984
 30
0
 11
1609.898240085214
 21
238.3013091926465
 31
0
  0
LINE
  8
1
 62
7
 10
1609.898240085214
 20
238.3013091926465
 30
0
 11
1609.732145215761
 21
238.4397215838573
 31
0
  0
LINE
  8
1
 62
7
 10
1609.732145215761
 20
238.4397215838573
 30
0
 11
1609.566050346308
 21
238.5319965113314
 31
0
  0
LINE
  8
1
 62
7
 10
1609.566050346308
 20
238.5319965113314
 30
0
 11
1609.289225563885
 21
238.6242714388053
 31
0
  0
LINE
  8
1
 62
7
 10
1609.289225563885
 20
238.6242714388053
 30
0
 11
1609.067765737947
 21
238.6704089025423
 31
0
  0
LINE
  8
1
 62
7
 10
1609.067765737947
 20
238.6704089025423
 30
0
 11
1608.680211042557
 21
238.6704089025423
 31
0
  0
LINE
  8
1
 62
7
 10
1608.680211042557
 20
238.6704089025423
 30
0
 11
1608.45875121662
 21
238.6242714388053
 31
0
  0
LINE
  8
1
 62
7
 10
1608.45875121662
 20
238.6242714388053
 30
0
 11
1608.181926434198
 21
238.5319965113314
 31
0
  0
LINE
  8
1
 62
7
 10
1608.181926434198
 20
238.5319965113314
 30
0
 11
1608.015831564745
 21
238.4397215838573
 31
0
  0
LINE
  8
1
 62
7
 10
1608.015831564745
 20
238.4397215838573
 30
0
 11
1607.849736695291
 21
238.3013091926465
 31
0
  0
LINE
  8
1
 62
7
 10
1607.849736695291
 20
238.3013091926465
 30
0
 11
1607.683641825838
 21
238.1167593376984
 31
0
  0
LINE
  8
1
 62
7
 10
1607.683641825838
 20
238.1167593376984
 30
0
 11
1607.57291191287
 21
237.9322094827504
 31
0
  0
LINE
  8
1
 62
7
 10
1607.57291191287
 20
237.9322094827504
 30
0
 11
1607.462181999901
 21
237.7015221640653
 31
0
  0
LINE
  8
1
 62
7
 10
1607.462181999901
 20
237.7015221640653
 30
0
 11
1607.406817043416
 21
237.4246973816435
 31
0
  0
LINE
  8
1
 62
7
 10
1607.406817043416
 20
237.4246973816435
 30
0
 11
1607.351452086932
 21
237.0094602080106
 31
0
  0
LINE
  8
1
 62
7
 10
1607.351452086932
 20
237.0094602080106
 30
0
 11
1607.351452086932
 21
236.6403604981146
 31
0
  0
LINE
  8
1
 62
7
 10
1607.351452086932
 20
236.6403604981146
 30
0
 11
1607.406817043416
 21
236.2251233244816
 31
0
  0
LINE
  8
1
 62
7
 10
1607.406817043416
 20
236.2251233244816
 30
0
 11
1607.462181999901
 21
235.9482985420596
 31
0
  0
LINE
  8
1
 62
7
 10
1607.462181999901
 20
235.9482985420596
 30
0
 11
1607.57291191287
 21
235.7176112233748
 31
0
  0
LINE
  8
1
 62
7
 10
1607.57291191287
 20
235.7176112233748
 30
0
 11
1607.683641825838
 21
235.5330613684268
 31
0
  0
LINE
  8
1
 62
7
 10
1607.683641825838
 20
235.5330613684268
 30
0
 11
1607.849736695291
 21
235.3485115134788
 31
0
  0
LINE
  8
1
 62
7
 10
1607.849736695291
 20
235.3485115134788
 30
0
 11
1608.015831564745
 21
235.2100991222677
 31
0
  0
LINE
  8
1
 62
7
 10
1608.015831564745
 20
235.2100991222677
 30
0
 11
1608.181926434198
 21
235.1178241947938
 31
0
  0
LINE
  8
1
 62
7
 10
1608.181926434198
 20
235.1178241947938
 30
0
 11
1608.45875121662
 21
235.0255492673198
 31
0
  0
LINE
  8
1
 62
7
 10
1608.45875121662
 20
235.0255492673198
 30
0
 11
1608.680211042557
 21
234.9794118035827
 31
0
  0
LINE
  8
1
 62
7
 10
1608.680211042557
 20
234.9794118035827
 30
0
 11
1609.067765737947
 21
234.9794118035827
 31
0
  0
LINE
  8
1
 62
7
 10
1609.067765737947
 20
234.9794118035827
 30
0
 11
1609.289225563885
 21
235.0255492673198
 31
0
  0
LINE
  8
1
 62
7
 10
1609.289225563885
 20
235.0255492673198
 30
0
 11
1609.566050346308
 21
235.1178241947938
 31
0
  0
LINE
  8
1
 62
7
 10
1609.566050346308
 20
235.1178241947938
 30
0
 11
1609.732145215761
 21
235.2100991222677
 31
0
  0
LINE
  8
1
 62
7
 10
1602.055211042557
 20
235.4407864409527
 30
0
 11
1602.442765737947
 21
235.4407864409527
 31
0
  0
LINE
  8
1
 62
7
 10
1602.442765737947
 20
235.4407864409527
 30
0
 11
1602.664225563884
 21
235.5330613684268
 31
0
  0
LINE
  8
1
 62
7
 10
1602.664225563884
 20
235.5330613684268
 30
0
 11
1602.885685389822
 21
235.6714737596377
 31
0
  0
LINE
  8
1
 62
7
 10
1602.885685389822
 20
235.6714737596377
 30
0
 11
1602.996415302792
 21
235.8098861508487
 31
0
  0
LINE
  8
1
 62
7
 10
1602.996415302792
 20
235.8098861508487
 30
0
 11
1603.107145215759
 21
236.0405734695337
 31
0
  0
LINE
  8
1
 62
7
 10
1603.107145215759
 20
236.0405734695337
 30
0
 11
1603.162510172245
 21
236.5480855706406
 31
0
  0
LINE
  8
1
 62
7
 10
1603.162510172245
 20
236.5480855706406
 30
0
 11
1603.162510172245
 21
237.1017351354846
 31
0
  0
LINE
  8
1
 62
7
 10
1603.162510172245
 20
237.1017351354846
 30
0
 11
1603.107145215759
 21
237.6092472365915
 31
0
  0
LINE
  8
1
 62
7
 10
1603.107145215759
 20
237.6092472365915
 30
0
 11
1602.996415302792
 21
237.8399345552765
 31
0
  0
LINE
  8
1
 62
7
 10
1602.996415302792
 20
237.8399345552765
 30
0
 11
1602.885685389822
 21
237.9783469464875
 31
0
  0
LINE
  8
1
 62
7
 10
1602.885685389822
 20
237.9783469464875
 30
0
 11
1602.664225563884
 21
238.1167593376984
 31
0
  0
LINE
  8
1
 62
7
 10
1602.664225563884
 20
238.1167593376984
 30
0
 11
1602.442765737947
 21
238.2090342651725
 31
0
  0
LINE
  8
1
 62
7
 10
1602.442765737947
 20
238.2090342651725
 30
0
 11
1602.055211042557
 21
238.2090342651725
 31
0
  0
LINE
  8
1
 62
7
 10
1602.055211042557
 20
238.2090342651725
 30
0
 11
1601.833751216619
 21
238.1167593376984
 31
0
  0
LINE
  8
1
 62
7
 10
1601.833751216619
 20
238.1167593376984
 30
0
 11
1601.612291390682
 21
237.9783469464875
 31
0
  0
LINE
  8
1
 62
7
 10
1601.612291390682
 20
237.9783469464875
 30
0
 11
1601.501561477713
 21
237.8399345552765
 31
0
  0
LINE
  8
1
 62
7
 10
1601.501561477713
 20
237.8399345552765
 30
0
 11
1601.390831564744
 21
237.6092472365915
 31
0
  0
LINE
  8
1
 62
7
 10
1601.390831564744
 20
237.6092472365915
 30
0
 11
1601.33546660826
 21
237.1017351354846
 31
0
  0
LINE
  8
1
 62
7
 10
1601.33546660826
 20
237.1017351354846
 30
0
 11
1601.33546660826
 21
236.5480855706406
 31
0
  0
LINE
  8
1
 62
7
 10
1601.33546660826
 20
236.5480855706406
 30
0
 11
1601.390831564744
 21
236.0405734695337
 31
0
  0
LINE
  8
1
 62
7
 10
1601.390831564744
 20
236.0405734695337
 30
0
 11
1601.501561477713
 21
235.8098861508487
 31
0
  0
LINE
  8
1
 62
7
 10
1601.501561477713
 20
235.8098861508487
 30
0
 11
1601.612291390682
 21
235.6714737596377
 31
0
  0
LINE
  8
1
 62
7
 10
1601.612291390682
 20
235.6714737596377
 30
0
 11
1601.833751216619
 21
235.5330613684268
 31
0
  0
LINE
  8
1
 62
7
 10
1601.833751216619
 20
235.5330613684268
 30
0
 11
1602.055211042557
 21
235.4407864409527
 31
0
  0
LINE
  8
1
 62
7
 10
1603.107145215759
 20
235.2100991222677
 30
0
 11
1603.273240085213
 21
235.3485115134788
 31
0
  0
LINE
  8
1
 62
7
 10
1603.273240085213
 20
235.3485115134788
 30
0
 11
1603.439334954667
 21
235.5330613684268
 31
0
  0
LINE
  8
1
 62
7
 10
1603.439334954667
 20
235.5330613684268
 30
0
 11
1603.550064867636
 21
235.7176112233748
 31
0
  0
LINE
  8
1
 62
7
 10
1603.550064867636
 20
235.7176112233748
 30
0
 11
1603.660794780604
 21
235.9482985420596
 31
0
  0
LINE
  8
1
 62
7
 10
1603.660794780604
 20
235.9482985420596
 30
0
 11
1603.716159737089
 21
236.2251233244816
 31
0
  0
LINE
  8
1
 62
7
 10
1603.716159737089
 20
236.2251233244816
 30
0
 11
1603.771524693573
 21
236.6403604981146
 31
0
  0
LINE
  8
1
 62
7
 10
1603.771524693573
 20
236.6403604981146
 30
0
 11
1603.771524693573
 21
237.0094602080106
 31
0
  0
LINE
  8
1
 62
7
 10
1603.771524693573
 20
237.0094602080106
 30
0
 11
1603.716159737089
 21
237.4246973816435
 31
0
  0
LINE
  8
1
 62
7
 10
1603.716159737089
 20
237.4246973816435
 30
0
 11
1603.660794780604
 21
237.7015221640653
 31
0
  0
LINE
  8
1
 62
7
 10
1603.660794780604
 20
237.7015221640653
 30
0
 11
1603.550064867636
 21
237.9322094827504
 31
0
  0
LINE
  8
1
 62
7
 10
1603.550064867636
 20
237.9322094827504
 30
0
 11
1603.439334954667
 21
238.1167593376984
 31
0
  0
LINE
  8
1
 62
7
 10
1603.439334954667
 20
238.1167593376984
 30
0
 11
1603.273240085213
 21
238.3013091926465
 31
0
  0
LINE
  8
1
 62
7
 10
1603.273240085213
 20
238.3013091926465
 30
0
 11
1603.107145215759
 21
238.4397215838573
 31
0
  0
LINE
  8
1
 62
7
 10
1603.107145215759
 20
238.4397215838573
 30
0
 11
1602.941050346307
 21
238.5319965113314
 31
0
  0
LINE
  8
1
 62
7
 10
1602.941050346307
 20
238.5319965113314
 30
0
 11
1602.664225563884
 21
238.6242714388053
 31
0
  0
LINE
  8
1
 62
7
 10
1602.664225563884
 20
238.6242714388053
 30
0
 11
1602.442765737947
 21
238.6704089025423
 31
0
  0
LINE
  8
1
 62
7
 10
1602.442765737947
 20
238.6704089025423
 30
0
 11
1602.055211042557
 21
238.6704089025423
 31
0
  0
LINE
  8
1
 62
7
 10
1602.055211042557
 20
238.6704089025423
 30
0
 11
1601.833751216619
 21
238.6242714388053
 31
0
  0
LINE
  8
1
 62
7
 10
1601.833751216619
 20
238.6242714388053
 30
0
 11
1601.556926434197
 21
238.5319965113314
 31
0
  0
LINE
  8
1
 62
7
 10
1601.556926434197
 20
238.5319965113314
 30
0
 11
1601.390831564744
 21
238.4397215838573
 31
0
  0
LINE
  8
1
 62
7
 10
1601.390831564744
 20
238.4397215838573
 30
0
 11
1601.224736695291
 21
238.3013091926465
 31
0
  0
LINE
  8
1
 62
7
 10
1601.224736695291
 20
238.3013091926465
 30
0
 11
1601.058641825838
 21
238.1167593376984
 31
0
  0
LINE
  8
1
 62
7
 10
1601.058641825838
 20
238.1167593376984
 30
0
 11
1600.947911912869
 21
237.9322094827504
 31
0
  0
LINE
  8
1
 62
7
 10
1600.947911912869
 20
237.9322094827504
 30
0
 11
1600.8371819999
 21
237.7015221640653
 31
0
  0
LINE
  8
1
 62
7
 10
1600.8371819999
 20
237.7015221640653
 30
0
 11
1600.781817043416
 21
237.4246973816435
 31
0
  0
LINE
  8
1
 62
7
 10
1600.781817043416
 20
237.4246973816435
 30
0
 11
1600.726452086932
 21
237.0094602080106
 31
0
  0
LINE
  8
1
 62
7
 10
1600.726452086932
 20
237.0094602080106
 30
0
 11
1600.726452086932
 21
236.6403604981146
 31
0
  0
LINE
  8
1
 62
7
 10
1600.726452086932
 20
236.6403604981146
 30
0
 11
1600.781817043416
 21
236.2251233244816
 31
0
  0
LINE
  8
1
 62
7
 10
1600.781817043416
 20
236.2251233244816
 30
0
 11
1600.8371819999
 21
235.9482985420596
 31
0
  0
LINE
  8
1
 62
7
 10
1600.8371819999
 20
235.9482985420596
 30
0
 11
1600.947911912869
 21
235.7176112233748
 31
0
  0
LINE
  8
1
 62
7
 10
1600.947911912869
 20
235.7176112233748
 30
0
 11
1601.058641825838
 21
235.5330613684268
 31
0
  0
LINE
  8
1
 62
7
 10
1601.058641825838
 20
235.5330613684268
 30
0
 11
1601.224736695291
 21
235.3485115134788
 31
0
  0
LINE
  8
1
 62
7
 10
1601.224736695291
 20
235.3485115134788
 30
0
 11
1601.390831564744
 21
235.2100991222677
 31
0
  0
LINE
  8
1
 62
7
 10
1601.390831564744
 20
235.2100991222677
 30
0
 11
1601.556926434197
 21
235.1178241947938
 31
0
  0
LINE
  8
1
 62
7
 10
1601.556926434197
 20
235.1178241947938
 30
0
 11
1601.833751216619
 21
235.0255492673198
 31
0
  0
LINE
  8
1
 62
7
 10
1601.833751216619
 20
235.0255492673198
 30
0
 11
1602.055211042557
 21
234.9794118035827
 31
0
  0
LINE
  8
1
 62
7
 10
1602.055211042557
 20
234.9794118035827
 30
0
 11
1602.442765737947
 21
234.9794118035827
 31
0
  0
LINE
  8
1
 62
7
 10
1602.442765737947
 20
234.9794118035827
 30
0
 11
1602.664225563884
 21
235.0255492673198
 31
0
  0
LINE
  8
1
 62
7
 10
1602.664225563884
 20
235.0255492673198
 30
0
 11
1602.941050346307
 21
235.1178241947938
 31
0
  0
LINE
  8
1
 62
7
 10
1602.941050346307
 20
235.1178241947938
 30
0
 11
1603.107145215759
 21
235.2100991222677
 31
0
  0
LINE
  8
1
 62
7
 10
1637.977484960486
 20
234.9794118035827
 30
0
 11
1637.977484960486
 21
235.2562365860048
 31
0
  0
LINE
  8
1
 62
7
 10
1637.977484960486
 20
235.2562365860048
 30
0
 11
1638.088214873455
 21
235.5791988321638
 31
0
  0
LINE
  8
1
 62
7
 10
1638.088214873455
 20
235.5791988321638
 30
0
 11
1638.309674699392
 21
235.9021610783227
 31
0
  0
LINE
  8
1
 62
7
 10
1638.309674699392
 20
235.9021610783227
 30
0
 11
1638.586499481815
 21
236.1789858607446
 31
0
  0
LINE
  8
1
 62
7
 10
1638.586499481815
 20
236.1789858607446
 30
0
 11
1638.918689220722
 21
236.5019481069037
 31
0
  0
LINE
  8
1
 62
7
 10
1638.918689220722
 20
236.5019481069037
 30
0
 11
1639.250878959628
 21
236.7326354255885
 31
0
  0
LINE
  8
1
 62
7
 10
1639.250878959628
 20
236.7326354255885
 30
0
 11
1639.583068698534
 21
237.0094602080106
 31
0
  0
LINE
  8
1
 62
7
 10
1639.583068698534
 20
237.0094602080106
 30
0
 11
1639.970623393925
 21
237.3324224541696
 31
0
  0
LINE
  8
1
 62
7
 10
1639.970623393925
 20
237.3324224541696
 30
0
 11
1640.081353306894
 21
237.4708348453804
 31
0
  0
LINE
  8
1
 62
7
 10
1640.081353306894
 20
237.4708348453804
 30
0
 11
1640.136718263378
 21
237.6092472365915
 31
0
  0
LINE
  8
1
 62
7
 10
1640.136718263378
 20
237.6092472365915
 30
0
 11
1640.136718263378
 21
237.7937970915395
 31
0
  0
LINE
  8
1
 62
7
 10
1640.136718263378
 20
237.7937970915395
 30
0
 11
1640.081353306894
 21
237.9322094827504
 31
0
  0
LINE
  8
1
 62
7
 10
1640.081353306894
 20
237.9322094827504
 30
0
 11
1639.970623393925
 21
238.0706218739615
 31
0
  0
LINE
  8
1
 62
7
 10
1639.970623393925
 20
238.0706218739615
 30
0
 11
1639.804528524472
 21
238.1628968014353
 31
0
  0
LINE
  8
1
 62
7
 10
1639.804528524472
 20
238.1628968014353
 30
0
 11
1639.583068698534
 21
238.2090342651725
 31
0
  0
LINE
  8
1
 62
7
 10
1639.583068698534
 20
238.2090342651725
 30
0
 11
1639.361608872597
 21
238.2090342651725
 31
0
  0
LINE
  8
1
 62
7
 10
1639.361608872597
 20
238.2090342651725
 30
0
 11
1639.140149046659
 21
238.1628968014353
 31
0
  0
LINE
  8
1
 62
7
 10
1639.140149046659
 20
238.1628968014353
 30
0
 11
1638.974054177206
 21
238.0706218739615
 31
0
  0
LINE
  8
1
 62
7
 10
1638.974054177206
 20
238.0706218739615
 30
0
 11
1638.863324264237
 21
237.9322094827504
 31
0
  0
LINE
  8
1
 62
7
 10
1638.863324264237
 20
237.9322094827504
 30
0
 11
1638.807959307753
 21
237.7937970915395
 31
0
  0
LINE
  8
1
 62
7
 10
1638.807959307753
 20
237.7937970915395
 30
0
 11
1638.807959307753
 21
237.6092472365915
 31
0
  0
LINE
  8
1
 62
7
 10
1638.807959307753
 20
237.6092472365915
 30
0
 11
1638.198944786424
 21
237.6092472365915
 31
0
  0
LINE
  8
1
 62
7
 10
1638.198944786424
 20
237.6092472365915
 30
0
 11
1638.198944786424
 21
237.7937970915395
 31
0
  0
LINE
  8
1
 62
7
 10
1638.198944786424
 20
237.7937970915395
 30
0
 11
1638.254309742909
 21
238.0244844102245
 31
0
  0
LINE
  8
1
 62
7
 10
1638.254309742909
 20
238.0244844102245
 30
0
 11
1638.475769568846
 21
238.3013091926465
 31
0
  0
LINE
  8
1
 62
7
 10
1638.475769568846
 20
238.3013091926465
 30
0
 11
1638.697229394784
 21
238.4858590475942
 31
0
  0
LINE
  8
1
 62
7
 10
1638.697229394784
 20
238.4858590475942
 30
0
 11
1639.02941913369
 21
238.6242714388053
 31
0
  0
LINE
  8
1
 62
7
 10
1639.02941913369
 20
238.6242714388053
 30
0
 11
1639.306243916112
 21
238.6704089025423
 31
0
  0
LINE
  8
1
 62
7
 10
1639.306243916112
 20
238.6704089025423
 30
0
 11
1639.638433655019
 21
238.6704089025423
 31
0
  0
LINE
  8
1
 62
7
 10
1639.638433655019
 20
238.6704089025423
 30
0
 11
1639.91525843744
 21
238.6242714388053
 31
0
  0
LINE
  8
1
 62
7
 10
1639.91525843744
 20
238.6242714388053
 30
0
 11
1640.247448176347
 21
238.4858590475942
 31
0
  0
LINE
  8
1
 62
7
 10
1640.247448176347
 20
238.4858590475942
 30
0
 11
1640.468908002284
 21
238.3013091926465
 31
0
  0
LINE
  8
1
 62
7
 10
1640.468908002284
 20
238.3013091926465
 30
0
 11
1640.690367828222
 21
238.0244844102245
 31
0
  0
LINE
  8
1
 62
7
 10
1640.690367828222
 20
238.0244844102245
 30
0
 11
1640.745732784707
 21
237.7937970915395
 31
0
  0
LINE
  8
1
 62
7
 10
1640.745732784707
 20
237.7937970915395
 30
0
 11
1640.745732784707
 21
237.6092472365915
 31
0
  0
LINE
  8
1
 62
7
 10
1640.745732784707
 20
237.6092472365915
 30
0
 11
1640.690367828222
 21
237.3785599179065
 31
0
  0
LINE
  8
1
 62
7
 10
1640.690367828222
 20
237.3785599179065
 30
0
 11
1640.468908002284
 21
237.1017351354846
 31
0
  0
LINE
  8
1
 62
7
 10
1640.468908002284
 20
237.1017351354846
 30
0
 11
1640.358178089316
 21
237.0094602080106
 31
0
  0
LINE
  8
1
 62
7
 10
1640.358178089316
 20
237.0094602080106
 30
0
 11
1639.91525843744
 21
236.6864979618515
 31
0
  0
LINE
  8
1
 62
7
 10
1639.91525843744
 20
236.6864979618515
 30
0
 11
1639.52770374205
 21
236.4096731794296
 31
0
  0
LINE
  8
1
 62
7
 10
1639.52770374205
 20
236.4096731794296
 30
0
 11
1639.140149046659
 21
236.0405734695337
 31
0
  0
LINE
  8
1
 62
7
 10
1639.140149046659
 20
236.0405734695337
 30
0
 11
1638.863324264237
 21
235.7176112233748
 31
0
  0
LINE
  8
1
 62
7
 10
1638.863324264237
 20
235.7176112233748
 30
0
 11
1638.752594351267
 21
235.4407864409527
 31
0
  0
LINE
  8
1
 62
7
 10
1638.752594351267
 20
235.4407864409527
 30
0
 11
1640.911827654159
 21
235.4407864409527
 31
0
  0
LINE
  8
1
 62
7
 10
1640.911827654159
 20
235.4407864409527
 30
0
 11
1640.911827654159
 21
234.9794118035827
 31
0
  0
LINE
  8
1
 62
7
 10
1640.911827654159
 20
234.9794118035827
 30
0
 11
1637.977484960486
 21
234.9794118035827
 31
0
  0
LINE
  8
1
 62
7
 10
1645.958926394354
 20
236.7787728893256
 30
0
 11
1646.180386220291
 21
236.7787728893256
 31
0
  0
LINE
  8
1
 62
7
 10
1646.180386220291
 20
236.7787728893256
 30
0
 11
1646.457211002714
 21
236.7326354255885
 31
0
  0
LINE
  8
1
 62
7
 10
1646.457211002714
 20
236.7326354255885
 30
0
 11
1646.678670828652
 21
236.5942230343776
 31
0
  0
LINE
  8
1
 62
7
 10
1646.678670828652
 20
236.5942230343776
 30
0
 11
1646.844765698105
 21
236.4096731794296
 31
0
  0
LINE
  8
1
 62
7
 10
1646.844765698105
 20
236.4096731794296
 30
0
 11
1646.900130654589
 21
236.2251233244816
 31
0
  0
LINE
  8
1
 62
7
 10
1646.900130654589
 20
236.2251233244816
 30
0
 11
1646.900130654589
 21
236.0405734695337
 31
0
  0
LINE
  8
1
 62
7
 10
1646.900130654589
 20
236.0405734695337
 30
0
 11
1646.844765698105
 21
235.8560236145857
 31
0
  0
LINE
  8
1
 62
7
 10
1646.844765698105
 20
235.8560236145857
 30
0
 11
1646.678670828652
 21
235.6714737596377
 31
0
  0
LINE
  8
1
 62
7
 10
1646.678670828652
 20
235.6714737596377
 30
0
 11
1646.457211002714
 21
235.5330613684268
 31
0
  0
LINE
  8
1
 62
7
 10
1646.457211002714
 20
235.5330613684268
 30
0
 11
1646.180386220291
 21
235.4869239046898
 31
0
  0
LINE
  8
1
 62
7
 10
1646.180386220291
 20
235.4869239046898
 30
0
 11
1645.958926394354
 21
235.4869239046898
 31
0
  0
LINE
  8
1
 62
7
 10
1645.958926394354
 20
235.4869239046898
 30
0
 11
1645.682101611933
 21
235.5330613684268
 31
0
  0
LINE
  8
1
 62
7
 10
1645.682101611933
 20
235.5330613684268
 30
0
 11
1645.460641785995
 21
235.6714737596377
 31
0
  0
LINE
  8
1
 62
7
 10
1645.460641785995
 20
235.6714737596377
 30
0
 11
1645.294546916542
 21
235.8560236145857
 31
0
  0
LINE
  8
1
 62
7
 10
1645.294546916542
 20
235.8560236145857
 30
0
 11
1645.239181960057
 21
236.0405734695337
 31
0
  0
LINE
  8
1
 62
7
 10
1645.239181960057
 20
236.0405734695337
 30
0
 11
1645.239181960057
 21
236.2251233244816
 31
0
  0
LINE
  8
1
 62
7
 10
1645.239181960057
 20
236.2251233244816
 30
0
 11
1644.574802482245
 21
236.2251233244816
 31
0
  0
LINE
  8
1
 62
7
 10
1644.574802482245
 20
236.2251233244816
 30
0
 11
1644.574802482245
 21
235.9944360057966
 31
0
  0
LINE
  8
1
 62
7
 10
1644.574802482245
 20
235.9944360057966
 30
0
 11
1644.685532395214
 21
235.6714737596377
 31
0
  0
LINE
  8
1
 62
7
 10
1644.685532395214
 20
235.6714737596377
 30
0
 11
1644.851627264667
 21
235.4407864409527
 31
0
  0
LINE
  8
1
 62
7
 10
1644.851627264667
 20
235.4407864409527
 30
0
 11
1645.128452047089
 21
235.2100991222677
 31
0
  0
LINE
  8
1
 62
7
 10
1645.128452047089
 20
235.2100991222677
 30
0
 11
1645.460641785995
 21
235.0716867310568
 31
0
  0
LINE
  8
1
 62
7
 10
1645.460641785995
 20
235.0716867310568
 30
0
 11
1645.90356143787
 21
234.9794118035827
 31
0
  0
LINE
  8
1
 62
7
 10
1645.90356143787
 20
234.9794118035827
 30
0
 11
1646.235751176776
 21
234.9794118035827
 31
0
  0
LINE
  8
1
 62
7
 10
1646.235751176776
 20
234.9794118035827
 30
0
 11
1646.678670828652
 21
235.0716867310568
 31
0
  0
LINE
  8
1
 62
7
 10
1646.678670828652
 20
235.0716867310568
 30
0
 11
1647.010860567558
 21
235.2100991222677
 31
0
  0
LINE
  8
1
 62
7
 10
1647.010860567558
 20
235.2100991222677
 30
0
 11
1647.28768534998
 21
235.4407864409527
 31
0
  0
LINE
  8
1
 62
7
 10
1647.28768534998
 20
235.4407864409527
 30
0
 11
1647.453780219433
 21
235.6714737596377
 31
0
  0
LINE
  8
1
 62
7
 10
1647.453780219433
 20
235.6714737596377
 30
0
 11
1647.564510132402
 21
235.9944360057966
 31
0
  0
LINE
  8
1
 62
7
 10
1647.564510132402
 20
235.9944360057966
 30
0
 11
1647.564510132402
 21
236.2251233244816
 31
0
  0
LINE
  8
1
 62
7
 10
1647.564510132402
 20
236.2251233244816
 30
0
 11
1647.453780219433
 21
236.5480855706406
 31
0
  0
LINE
  8
1
 62
7
 10
1647.453780219433
 20
236.5480855706406
 30
0
 11
1647.232320393496
 21
236.8249103530626
 31
0
  0
LINE
  8
1
 62
7
 10
1647.232320393496
 20
236.8249103530626
 30
0
 11
1646.955495611072
 21
237.0094602080106
 31
0
  0
LINE
  8
1
 62
7
 10
1646.955495611072
 20
237.0094602080106
 30
0
 11
1647.066225524042
 21
237.1017351354846
 31
0
  0
LINE
  8
1
 62
7
 10
1647.066225524042
 20
237.1017351354846
 30
0
 11
1647.28768534998
 21
237.3785599179065
 31
0
  0
LINE
  8
1
 62
7
 10
1647.28768534998
 20
237.3785599179065
 30
0
 11
1647.343050306464
 21
237.6092472365915
 31
0
  0
LINE
  8
1
 62
7
 10
1647.343050306464
 20
237.6092472365915
 30
0
 11
1647.343050306464
 21
237.7937970915395
 31
0
  0
LINE
  8
1
 62
7
 10
1647.343050306464
 20
237.7937970915395
 30
0
 11
1647.28768534998
 21
238.0244844102245
 31
0
  0
LINE
  8
1
 62
7
 10
1647.28768534998
 20
238.0244844102245
 30
0
 11
1647.066225524042
 21
238.3013091926465
 31
0
  0
LINE
  8
1
 62
7
 10
1647.066225524042
 20
238.3013091926465
 30
0
 11
1646.844765698105
 21
238.4858590475942
 31
0
  0
LINE
  8
1
 62
7
 10
1646.844765698105
 20
238.4858590475942
 30
0
 11
1646.512575959197
 21
238.6242714388053
 31
0
  0
LINE
  8
1
 62
7
 10
1646.512575959197
 20
238.6242714388053
 30
0
 11
1646.235751176776
 21
238.6704089025423
 31
0
  0
LINE
  8
1
 62
7
 10
1646.235751176776
 20
238.6704089025423
 30
0
 11
1645.90356143787
 21
238.6704089025423
 31
0
  0
LINE
  8
1
 62
7
 10
1645.90356143787
 20
238.6704089025423
 30
0
 11
1645.626736655448
 21
238.6242714388053
 31
0
  0
LINE
  8
1
 62
7
 10
1645.626736655448
 20
238.6242714388053
 30
0
 11
1645.294546916542
 21
238.4858590475942
 31
0
  0
LINE
  8
1
 62
7
 10
1645.294546916542
 20
238.4858590475942
 30
0
 11
1645.073087090604
 21
238.3013091926465
 31
0
  0
LINE
  8
1
 62
7
 10
1645.073087090604
 20
238.3013091926465
 30
0
 11
1644.851627264667
 21
238.0244844102245
 31
0
  0
LINE
  8
1
 62
7
 10
1644.851627264667
 20
238.0244844102245
 30
0
 11
1644.796262308182
 21
237.7937970915395
 31
0
  0
LINE
  8
1
 62
7
 10
1644.796262308182
 20
237.7937970915395
 30
0
 11
1644.796262308182
 21
237.6092472365915
 31
0
  0
LINE
  8
1
 62
7
 10
1644.796262308182
 20
237.6092472365915
 30
0
 11
1645.40527682951
 21
237.6092472365915
 31
0
  0
LINE
  8
1
 62
7
 10
1645.40527682951
 20
237.6092472365915
 30
0
 11
1645.40527682951
 21
237.7937970915395
 31
0
  0
LINE
  8
1
 62
7
 10
1645.40527682951
 20
237.7937970915395
 30
0
 11
1645.460641785995
 21
237.9322094827504
 31
0
  0
LINE
  8
1
 62
7
 10
1645.460641785995
 20
237.9322094827504
 30
0
 11
1645.571371698964
 21
238.0706218739615
 31
0
  0
LINE
  8
1
 62
7
 10
1645.571371698964
 20
238.0706218739615
 30
0
 11
1645.737466568417
 21
238.1628968014353
 31
0
  0
LINE
  8
1
 62
7
 10
1645.737466568417
 20
238.1628968014353
 30
0
 11
1645.958926394354
 21
238.2090342651725
 31
0
  0
LINE
  8
1
 62
7
 10
1645.958926394354
 20
238.2090342651725
 30
0
 11
1646.180386220291
 21
238.2090342651725
 31
0
  0
LINE
  8
1
 62
7
 10
1646.180386220291
 20
238.2090342651725
 30
0
 11
1646.401846046229
 21
238.1628968014353
 31
0
  0
LINE
  8
1
 62
7
 10
1646.401846046229
 20
238.1628968014353
 30
0
 11
1646.567940915683
 21
238.0706218739615
 31
0
  0
LINE
  8
1
 62
7
 10
1646.567940915683
 20
238.0706218739615
 30
0
 11
1646.678670828652
 21
237.9322094827504
 31
0
  0
LINE
  8
1
 62
7
 10
1646.678670828652
 20
237.9322094827504
 30
0
 11
1646.734035785135
 21
237.7937970915395
 31
0
  0
LINE
  8
1
 62
7
 10
1646.734035785135
 20
237.7937970915395
 30
0
 11
1646.734035785135
 21
237.6092472365915
 31
0
  0
LINE
  8
1
 62
7
 10
1646.734035785135
 20
237.6092472365915
 30
0
 11
1646.678670828652
 21
237.4708348453804
 31
0
  0
LINE
  8
1
 62
7
 10
1646.678670828652
 20
237.4708348453804
 30
0
 11
1646.567940915683
 21
237.3324224541696
 31
0
  0
LINE
  8
1
 62
7
 10
1646.567940915683
 20
237.3324224541696
 30
0
 11
1646.401846046229
 21
237.2401475266954
 31
0
  0
LINE
  8
1
 62
7
 10
1646.401846046229
 20
237.2401475266954
 30
0
 11
1646.180386220291
 21
237.1940100629585
 31
0
  0
LINE
  8
1
 62
7
 10
1646.180386220291
 20
237.1940100629585
 30
0
 11
1645.958926394354
 21
237.1940100629585
 31
0
  0
LINE
  8
1
 62
7
 10
1645.958926394354
 20
237.1940100629585
 30
0
 11
1645.958926394354
 21
236.7787728893256
 31
0
  0
LINE
  8
1
 62
7
 10
1654.274371425284
 20
238.6704089025423
 30
0
 11
1654.883385946613
 21
238.6704089025423
 31
0
  0
LINE
  8
1
 62
7
 10
1654.883385946613
 20
238.6704089025423
 30
0
 11
1654.883385946613
 21
236.2712607882187
 31
0
  0
LINE
  8
1
 62
7
 10
1654.883385946613
 20
236.2712607882187
 30
0
 11
1655.437035511456
 21
236.2712607882187
 31
0
  0
LINE
  8
1
 62
7
 10
1655.437035511456
 20
236.2712607882187
 30
0
 11
1655.437035511456
 21
235.8098861508487
 31
0
  0
LINE
  8
1
 62
7
 10
1655.437035511456
 20
235.8098861508487
 30
0
 11
1654.883385946613
 21
235.8098861508487
 31
0
  0
LINE
  8
1
 62
7
 10
1654.883385946613
 20
235.8098861508487
 30
0
 11
1654.883385946613
 21
234.9794118035827
 31
0
  0
LINE
  8
1
 62
7
 10
1654.883385946613
 20
234.9794118035827
 30
0
 11
1654.274371425284
 21
234.9794118035827
 31
0
  0
LINE
  8
1
 62
7
 10
1654.274371425284
 20
234.9794118035827
 30
0
 11
1654.274371425284
 21
235.8098861508487
 31
0
  0
LINE
  8
1
 62
7
 10
1654.274371425284
 20
235.8098861508487
 30
0
 11
1652.391962904815
 21
235.8098861508487
 31
0
  0
LINE
  8
1
 62
7
 10
1652.391962904815
 20
235.8098861508487
 30
0
 11
1652.391962904815
 21
236.3173982519557
 31
0
  0
LINE
  8
1
 62
7
 10
1652.391962904815
 20
236.3173982519557
 30
0
 11
1654.274371425284
 21
238.6704089025423
 31
0
  0
LINE
  8
1
 62
7
 10
1654.274371425284
 20
237.8399345552765
 30
0
 11
1653.000977426143
 21
236.2712607882187
 31
0
  0
LINE
  8
1
 62
7
 10
1653.000977426143
 20
236.2712607882187
 30
0
 11
1654.274371425284
 21
236.2712607882187
 31
0
  0
LINE
  8
1
 62
7
 10
1654.274371425284
 20
236.2712607882187
 30
0
 11
1654.274371425284
 21
237.8399345552765
 31
0
  0
LINE
  8
1
 62
7
 10
1653.17822136599
 20
240.8862677304557
 30
0
 11
1653.17822136599
 21
243.1362677304557
 31
0
  0
LINE
  8
1
 62
7
 10
1653.17822136599
 20
243.1362677304557
 30
0
 11
1653.58040886599
 21
243.1362677304557
 31
0
  0
LINE
  8
1
 62
7
 10
1653.58040886599
 20
243.1362677304557
 30
0
 11
1653.58040886599
 21
241.1675177304557
 31
0
  0
LINE
  8
1
 62
7
 10
1653.58040886599
 20
241.1675177304557
 30
0
 11
1655.11603386599
 21
241.1675177304557
 31
0
  0
LINE
  8
1
 62
7
 10
1655.11603386599
 20
241.1675177304557
 30
0
 11
1655.11603386599
 21
240.8862677304557
 31
0
  0
LINE
  8
1
 62
7
 10
1655.11603386599
 20
240.8862677304557
 30
0
 11
1653.17822136599
 21
240.8862677304557
 31
0
  0
LINE
  8
1
 62
7
 10
1631.074545051147
 20
242.5392042924445
 30
0
 11
1631.155795051147
 21
242.5392042924445
 31
0
  0
LINE
  8
1
 62
7
 10
1631.155795051147
 20
242.5392042924445
 30
0
 11
1631.257357551147
 21
242.5188917924445
 31
0
  0
LINE
  8
1
 62
7
 10
1631.257357551147
 20
242.5188917924445
 30
0
 11
1631.338607551147
 21
242.4579542924444
 31
0
  0
LINE
  8
1
 62
7
 10
1631.338607551147
 20
242.4579542924444
 30
0
 11
1631.399545051147
 21
242.3767042924444
 31
0
  0
LINE
  8
1
 62
7
 10
1631.399545051147
 20
242.3767042924444
 30
0
 11
1631.419857551146
 21
242.2954542924445
 31
0
  0
LINE
  8
1
 62
7
 10
1631.419857551146
 20
242.2954542924445
 30
0
 11
1631.419857551146
 21
242.2142042924445
 31
0
  0
LINE
  8
1
 62
7
 10
1631.419857551146
 20
242.2142042924445
 30
0
 11
1631.399545051147
 21
242.1329542924445
 31
0
  0
LINE
  8
1
 62
7
 10
1631.399545051147
 20
242.1329542924445
 30
0
 11
1631.338607551147
 21
242.0517042924444
 31
0
  0
LINE
  8
1
 62
7
 10
1631.338607551147
 20
242.0517042924444
 30
0
 11
1631.257357551147
 21
241.9907667924445
 31
0
  0
LINE
  8
1
 62
7
 10
1631.257357551147
 20
241.9907667924445
 30
0
 11
1631.155795051147
 21
241.9704542924444
 31
0
  0
LINE
  8
1
 62
7
 10
1631.155795051147
 20
241.9704542924444
 30
0
 11
1631.074545051147
 21
241.9704542924444
 31
0
  0
LINE
  8
1
 62
7
 10
1631.074545051147
 20
241.9704542924444
 30
0
 11
1630.972982551147
 21
241.9907667924445
 31
0
  0
LINE
  8
1
 62
7
 10
1630.972982551147
 20
241.9907667924445
 30
0
 11
1630.891732551147
 21
242.0517042924444
 31
0
  0
LINE
  8
1
 62
7
 10
1630.891732551147
 20
242.0517042924444
 30
0
 11
1630.830795051147
 21
242.1329542924445
 31
0
  0
LINE
  8
1
 62
7
 10
1630.830795051147
 20
242.1329542924445
 30
0
 11
1630.810482551146
 21
242.2142042924445
 31
0
  0
LINE
  8
1
 62
7
 10
1630.810482551146
 20
242.2142042924445
 30
0
 11
1630.810482551146
 21
242.2954542924445
 31
0
  0
LINE
  8
1
 62
7
 10
1630.810482551146
 20
242.2954542924445
 30
0
 11
1630.566732551147
 21
242.2954542924445
 31
0
  0
LINE
  8
1
 62
7
 10
1630.566732551147
 20
242.2954542924445
 30
0
 11
1630.566732551147
 21
242.1938917924445
 31
0
  0
LINE
  8
1
 62
7
 10
1630.566732551147
 20
242.1938917924445
 30
0
 11
1630.607357551146
 21
242.0517042924444
 31
0
  0
LINE
  8
1
 62
7
 10
1630.607357551146
 20
242.0517042924444
 30
0
 11
1630.668295051147
 21
241.9501417924444
 31
0
  0
LINE
  8
1
 62
7
 10
1630.668295051147
 20
241.9501417924444
 30
0
 11
1630.769857551147
 21
241.8485792924444
 31
0
  0
LINE
  8
1
 62
7
 10
1630.769857551147
 20
241.8485792924444
 30
0
 11
1630.891732551147
 21
241.7876417924445
 31
0
  0
LINE
  8
1
 62
7
 10
1630.891732551147
 20
241.7876417924445
 30
0
 11
1631.054232551147
 21
241.7470167924444
 31
0
  0
LINE
  8
1
 62
7
 10
1631.054232551147
 20
241.7470167924444
 30
0
 11
1631.176107551147
 21
241.7470167924444
 31
0
  0
LINE
  8
1
 62
7
 10
1631.176107551147
 20
241.7470167924444
 30
0
 11
1631.338607551147
 21
241.7876417924445
 31
0
  0
LINE
  8
1
 62
7
 10
1631.338607551147
 20
241.7876417924445
 30
0
 11
1631.460482551147
 21
241.8485792924444
 31
0
  0
LINE
  8
1
 62
7
 10
1631.460482551147
 20
241.8485792924444
 30
0
 11
1631.562045051147
 21
241.9501417924444
 31
0
  0
LINE
  8
1
 62
7
 10
1631.562045051147
 20
241.9501417924444
 30
0
 11
1631.622982551146
 21
242.0517042924444
 31
0
  0
LINE
  8
1
 62
7
 10
1631.622982551146
 20
242.0517042924444
 30
0
 11
1631.663607551147
 21
242.1938917924445
 31
0
  0
LINE
  8
1
 62
7
 10
1631.663607551147
 20
242.1938917924445
 30
0
 11
1631.663607551147
 21
242.2954542924445
 31
0
  0
LINE
  8
1
 62
7
 10
1631.663607551147
 20
242.2954542924445
 30
0
 11
1631.622982551146
 21
242.4376417924445
 31
0
  0
LINE
  8
1
 62
7
 10
1631.622982551146
 20
242.4376417924445
 30
0
 11
1631.541732551147
 21
242.5595167924444
 31
0
  0
LINE
  8
1
 62
7
 10
1631.541732551147
 20
242.5595167924444
 30
0
 11
1631.440170051147
 21
242.6407667924445
 31
0
  0
LINE
  8
1
 62
7
 10
1631.440170051147
 20
242.6407667924445
 30
0
 11
1631.480795051147
 21
242.6813917924444
 31
0
  0
LINE
  8
1
 62
7
 10
1631.480795051147
 20
242.6813917924444
 30
0
 11
1631.562045051147
 21
242.8032667924445
 31
0
  0
LINE
  8
1
 62
7
 10
1631.562045051147
 20
242.8032667924445
 30
0
 11
1631.582357551147
 21
242.9048292924445
 31
0
  0
LINE
  8
1
 62
7
 10
1631.582357551147
 20
242.9048292924445
 30
0
 11
1631.582357551147
 21
242.9860792924444
 31
0
  0
LINE
  8
1
 62
7
 10
1631.582357551147
 20
242.9860792924444
 30
0
 11
1631.562045051147
 21
243.0876417924444
 31
0
  0
LINE
  8
1
 62
7
 10
1631.562045051147
 20
243.0876417924444
 30
0
 11
1631.480795051147
 21
243.2095167924445
 31
0
  0
LINE
  8
1
 62
7
 10
1631.480795051147
 20
243.2095167924445
 30
0
 11
1631.399545051147
 21
243.2907667924444
 31
0
  0
LINE
  8
1
 62
7
 10
1631.399545051147
 20
243.2907667924444
 30
0
 11
1631.277670051147
 21
243.3517042924445
 31
0
  0
LINE
  8
1
 62
7
 10
1631.277670051147
 20
243.3517042924445
 30
0
 11
1631.176107551147
 21
243.3720167924444
 31
0
  0
LINE
  8
1
 62
7
 10
1631.176107551147
 20
243.3720167924444
 30
0
 11
1631.054232551147
 21
243.3720167924444
 31
0
  0
LINE
  8
1
 62
7
 10
1631.054232551147
 20
243.3720167924444
 30
0
 11
1630.952670051147
 21
243.3517042924445
 31
0
  0
LINE
  8
1
 62
7
 10
1630.952670051147
 20
243.3517042924445
 30
0
 11
1630.830795051147
 21
243.2907667924444
 31
0
  0
LINE
  8
1
 62
7
 10
1630.830795051147
 20
243.2907667924444
 30
0
 11
1630.749545051147
 21
243.2095167924445
 31
0
  0
LINE
  8
1
 62
7
 10
1630.749545051147
 20
243.2095167924445
 30
0
 11
1630.668295051147
 21
243.0876417924444
 31
0
  0
LINE
  8
1
 62
7
 10
1630.668295051147
 20
243.0876417924444
 30
0
 11
1630.647982551147
 21
242.9860792924444
 31
0
  0
LINE
  8
1
 62
7
 10
1630.647982551147
 20
242.9860792924444
 30
0
 11
1630.647982551147
 21
242.9048292924445
 31
0
  0
LINE
  8
1
 62
7
 10
1630.647982551147
 20
242.9048292924445
 30
0
 11
1630.871420051147
 21
242.9048292924445
 31
0
  0
LINE
  8
1
 62
7
 10
1630.871420051147
 20
242.9048292924445
 30
0
 11
1630.871420051147
 21
242.9860792924444
 31
0
  0
LINE
  8
1
 62
7
 10
1630.871420051147
 20
242.9860792924444
 30
0
 11
1630.891732551147
 21
243.0470167924445
 31
0
  0
LINE
  8
1
 62
7
 10
1630.891732551147
 20
243.0470167924445
 30
0
 11
1630.932357551147
 21
243.1079542924445
 31
0
  0
LINE
  8
1
 62
7
 10
1630.932357551147
 20
243.1079542924445
 30
0
 11
1630.993295051147
 21
243.1485792924445
 31
0
  0
LINE
  8
1
 62
7
 10
1630.993295051147
 20
243.1485792924445
 30
0
 11
1631.074545051147
 21
243.1688917924444
 31
0
  0
LINE
  8
1
 62
7
 10
1631.074545051147
 20
243.1688917924444
 30
0
 11
1631.155795051147
 21
243.1688917924444
 31
0
  0
LINE
  8
1
 62
7
 10
1631.155795051147
 20
243.1688917924444
 30
0
 11
1631.237045051147
 21
243.1485792924445
 31
0
  0
LINE
  8
1
 62
7
 10
1631.237045051147
 20
243.1485792924445
 30
0
 11
1631.297982551147
 21
243.1079542924445
 31
0
  0
LINE
  8
1
 62
7
 10
1631.297982551147
 20
243.1079542924445
 30
0
 11
1631.338607551147
 21
243.0470167924445
 31
0
  0
LINE
  8
1
 62
7
 10
1631.338607551147
 20
243.0470167924445
 30
0
 11
1631.358920051147
 21
242.9860792924444
 31
0
  0
LINE
  8
1
 62
7
 10
1631.358920051147
 20
242.9860792924444
 30
0
 11
1631.358920051147
 21
242.9048292924445
 31
0
  0
LINE
  8
1
 62
7
 10
1631.358920051147
 20
242.9048292924445
 30
0
 11
1631.338607551147
 21
242.8438917924445
 31
0
  0
LINE
  8
1
 62
7
 10
1631.338607551147
 20
242.8438917924445
 30
0
 11
1631.297982551147
 21
242.7829542924444
 31
0
  0
LINE
  8
1
 62
7
 10
1631.297982551147
 20
242.7829542924444
 30
0
 11
1631.237045051147
 21
242.7423292924445
 31
0
  0
LINE
  8
1
 62
7
 10
1631.237045051147
 20
242.7423292924445
 30
0
 11
1631.155795051147
 21
242.7220167924445
 31
0
  0
LINE
  8
1
 62
7
 10
1631.155795051147
 20
242.7220167924445
 30
0
 11
1631.074545051147
 21
242.7220167924445
 31
0
  0
LINE
  8
1
 62
7
 10
1631.074545051147
 20
242.7220167924445
 30
0
 11
1631.074545051147
 21
242.5392042924445
 31
0
  0
LINE
  8
1
 62
7
 10
1654.274371425285
 20
302.4779426112481
 30
0
 11
1654.274371425285
 21
304.0466163783059
 31
0
  0
LINE
  8
1
 62
7
 10
1653.000977426143
 20
302.4779426112481
 30
0
 11
1654.274371425285
 21
302.4779426112481
 31
0
  0
LINE
  8
1
 62
7
 10
1654.274371425285
 20
304.0466163783059
 30
0
 11
1653.000977426143
 21
302.4779426112481
 31
0
  0
LINE
  8
1
 62
7
 10
1652.391962904816
 20
302.524080074985
 30
0
 11
1654.274371425285
 21
304.8770907255718
 31
0
  0
LINE
  8
1
 62
7
 10
1652.391962904816
 20
302.0165679738781
 30
0
 11
1652.391962904816
 21
302.524080074985
 31
0
  0
LINE
  8
1
 62
7
 10
1654.274371425285
 20
302.0165679738781
 30
0
 11
1652.391962904816
 21
302.0165679738781
 31
0
  0
LINE
  8
1
 62
7
 10
1654.274371425285
 20
301.1860936266122
 30
0
 11
1654.274371425285
 21
302.0165679738781
 31
0
  0
LINE
  8
1
 62
7
 10
1654.883385946614
 20
301.1860936266122
 30
0
 11
1654.274371425285
 21
301.1860936266122
 31
0
  0
LINE
  8
1
 62
7
 10
1654.883385946614
 20
302.0165679738781
 30
0
 11
1654.883385946614
 21
301.1860936266122
 31
0
  0
LINE
  8
1
 62
7
 10
1655.437035511457
 20
302.0165679738781
 30
0
 11
1654.883385946614
 21
302.0165679738781
 31
0
  0
LINE
  8
1
 62
7
 10
1655.437035511457
 20
302.4779426112481
 30
0
 11
1655.437035511457
 21
302.0165679738781
 31
0
  0
LINE
  8
1
 62
7
 10
1654.883385946614
 20
302.4779426112481
 30
0
 11
1655.437035511457
 21
302.4779426112481
 31
0
  0
LINE
  8
1
 62
7
 10
1654.883385946614
 20
304.8770907255718
 30
0
 11
1654.883385946614
 21
302.4779426112481
 31
0
  0
LINE
  8
1
 62
7
 10
1654.274371425285
 20
304.8770907255718
 30
0
 11
1654.883385946614
 21
304.8770907255718
 31
0
  0
LINE
  8
1
 62
7
 10
1645.958926394355
 20
303.4006918859881
 30
0
 11
1645.958926394355
 21
302.985454712355
 31
0
  0
LINE
  8
1
 62
7
 10
1646.180386220292
 20
303.4006918859881
 30
0
 11
1645.958926394355
 21
303.4006918859881
 31
0
  0
LINE
  8
1
 62
7
 10
1646.40184604623
 20
303.4468293497249
 30
0
 11
1646.180386220292
 21
303.4006918859881
 31
0
  0
LINE
  8
1
 62
7
 10
1646.567940915684
 20
303.5391042771988
 30
0
 11
1646.40184604623
 21
303.4468293497249
 31
0
  0
LINE
  8
1
 62
7
 10
1646.678670828653
 20
303.6775166684099
 30
0
 11
1646.567940915684
 21
303.5391042771988
 31
0
  0
LINE
  8
1
 62
7
 10
1646.734035785136
 20
303.8159290596208
 30
0
 11
1646.678670828653
 21
303.6775166684099
 31
0
  0
LINE
  8
1
 62
7
 10
1646.734035785136
 20
304.0004789145688
 30
0
 11
1646.734035785136
 21
303.8159290596208
 31
0
  0
LINE
  8
1
 62
7
 10
1646.678670828653
 20
304.1388913057799
 30
0
 11
1646.734035785136
 21
304.0004789145688
 31
0
  0
LINE
  8
1
 62
7
 10
1646.567940915684
 20
304.2773036969908
 30
0
 11
1646.678670828653
 21
304.1388913057799
 31
0
  0
LINE
  8
1
 62
7
 10
1646.40184604623
 20
304.3695786244647
 30
0
 11
1646.567940915684
 21
304.2773036969908
 31
0
  0
LINE
  8
1
 62
7
 10
1646.180386220292
 20
304.415716088202
 30
0
 11
1646.40184604623
 21
304.3695786244647
 31
0
  0
LINE
  8
1
 62
7
 10
1645.958926394355
 20
304.415716088202
 30
0
 11
1646.180386220292
 21
304.415716088202
 31
0
  0
LINE
  8
1
 62
7
 10
1645.737466568417
 20
304.3695786244647
 30
0
 11
1645.958926394355
 21
304.415716088202
 31
0
  0
LINE
  8
1
 62
7
 10
1645.571371698965
 20
304.2773036969908
 30
0
 11
1645.737466568417
 21
304.3695786244647
 31
0
  0
LINE
  8
1
 62
7
 10
1645.460641785996
 20
304.1388913057799
 30
0
 11
1645.571371698965
 21
304.2773036969908
 31
0
  0
LINE
  8
1
 62
7
 10
1645.405276829511
 20
304.0004789145688
 30
0
 11
1645.460641785996
 21
304.1388913057799
 31
0
  0
LINE
  8
1
 62
7
 10
1645.405276829511
 20
303.8159290596208
 30
0
 11
1645.405276829511
 21
304.0004789145688
 31
0
  0
LINE
  8
1
 62
7
 10
1644.796262308183
 20
303.8159290596208
 30
0
 11
1645.405276829511
 21
303.8159290596208
 31
0
  0
LINE
  8
1
 62
7
 10
1644.796262308183
 20
304.0004789145688
 30
0
 11
1644.796262308183
 21
303.8159290596208
 31
0
  0
LINE
  8
1
 62
7
 10
1644.851627264668
 20
304.2311662332538
 30
0
 11
1644.796262308183
 21
304.0004789145688
 31
0
  0
LINE
  8
1
 62
7
 10
1645.073087090605
 20
304.5079910156758
 30
0
 11
1644.851627264668
 21
304.2311662332538
 31
0
  0
LINE
  8
1
 62
7
 10
1645.294546916543
 20
304.6925408706238
 30
0
 11
1645.073087090605
 21
304.5079910156758
 31
0
  0
LINE
  8
1
 62
7
 10
1645.626736655448
 20
304.8309532618347
 30
0
 11
1645.294546916543
 21
304.6925408706238
 31
0
  0
LINE
  8
1
 62
7
 10
1645.903561437871
 20
304.8770907255718
 30
0
 11
1645.626736655448
 21
304.8309532618347
 31
0
  0
LINE
  8
1
 62
7
 10
1646.235751176777
 20
304.8770907255718
 30
0
 11
1645.903561437871
 21
304.8770907255718
 31
0
  0
LINE
  8
1
 62
7
 10
1646.512575959198
 20
304.8309532618347
 30
0
 11
1646.235751176777
 21
304.8770907255718
 31
0
  0
LINE
  8
1
 62
7
 10
1646.844765698106
 20
304.6925408706238
 30
0
 11
1646.512575959198
 21
304.8309532618347
 31
0
  0
LINE
  8
1
 62
7
 10
1647.066225524043
 20
304.5079910156758
 30
0
 11
1646.844765698106
 21
304.6925408706238
 31
0
  0
LINE
  8
1
 62
7
 10
1647.287685349981
 20
304.2311662332538
 30
0
 11
1647.066225524043
 21
304.5079910156758
 31
0
  0
LINE
  8
1
 62
7
 10
1647.343050306465
 20
304.0004789145688
 30
0
 11
1647.287685349981
 21
304.2311662332538
 31
0
  0
LINE
  8
1
 62
7
 10
1647.343050306465
 20
303.8159290596208
 30
0
 11
1647.343050306465
 21
304.0004789145688
 31
0
  0
LINE
  8
1
 62
7
 10
1647.287685349981
 20
303.5852417409359
 30
0
 11
1647.343050306465
 21
303.8159290596208
 31
0
  0
LINE
  8
1
 62
7
 10
1647.066225524043
 20
303.3084169585139
 30
0
 11
1647.287685349981
 21
303.5852417409359
 31
0
  0
LINE
  8
1
 62
7
 10
1646.955495611075
 20
303.21614203104
 30
0
 11
1647.066225524043
 21
303.3084169585139
 31
0
  0
LINE
  8
1
 62
7
 10
1647.232320393497
 20
303.031592176092
 30
0
 11
1646.955495611075
 21
303.21614203104
 31
0
  0
LINE
  8
1
 62
7
 10
1647.453780219434
 20
302.75476739367
 30
0
 11
1647.232320393497
 21
303.031592176092
 31
0
  0
LINE
  8
1
 62
7
 10
1647.564510132403
 20
302.4318051475111
 30
0
 11
1647.453780219434
 21
302.75476739367
 31
0
  0
LINE
  8
1
 62
7
 10
1647.564510132403
 20
302.2011178288261
 30
0
 11
1647.564510132403
 21
302.4318051475111
 31
0
  0
LINE
  8
1
 62
7
 10
1647.453780219434
 20
301.8781555826672
 30
0
 11
1647.564510132403
 21
302.2011178288261
 31
0
  0
LINE
  8
1
 62
7
 10
1647.287685349981
 20
301.6474682639822
 30
0
 11
1647.453780219434
 21
301.8781555826672
 31
0
  0
LINE
  8
1
 62
7
 10
1647.010860567559
 20
301.4167809452972
 30
0
 11
1647.287685349981
 21
301.6474682639822
 31
0
  0
LINE
  8
1
 62
7
 10
1646.678670828653
 20
301.2783685540861
 30
0
 11
1647.010860567559
 21
301.4167809452972
 31
0
  0
LINE
  8
1
 62
7
 10
1646.235751176777
 20
301.1860936266122
 30
0
 11
1646.678670828653
 21
301.2783685540861
 31
0
  0
LINE
  8
1
 62
7
 10
1645.903561437871
 20
301.1860936266122
 30
0
 11
1646.235751176777
 21
301.1860936266122
 31
0
  0
LINE
  8
1
 62
7
 10
1645.460641785996
 20
301.2783685540861
 30
0
 11
1645.903561437871
 21
301.1860936266122
 31
0
  0
LINE
  8
1
 62
7
 10
1645.12845204709
 20
301.4167809452972
 30
0
 11
1645.460641785996
 21
301.2783685540861
 31
0
  0
LINE
  8
1
 62
7
 10
1644.851627264668
 20
301.6474682639822
 30
0
 11
1645.12845204709
 21
301.4167809452972
 31
0
  0
LINE
  8
1
 62
7
 10
1644.685532395215
 20
301.8781555826672
 30
0
 11
1644.851627264668
 21
301.6474682639822
 31
0
  0
LINE
  8
1
 62
7
 10
1644.574802482246
 20
302.2011178288261
 30
0
 11
1644.685532395215
 21
301.8781555826672
 31
0
  0
LINE
  8
1
 62
7
 10
1644.574802482246
 20
302.4318051475111
 30
0
 11
1644.574802482246
 21
302.2011178288261
 31
0
  0
LINE
  8
1
 62
7
 10
1645.239181960058
 20
302.4318051475111
 30
0
 11
1644.574802482246
 21
302.4318051475111
 31
0
  0
LINE
  8
1
 62
7
 10
1645.239181960058
 20
302.2472552925631
 30
0
 11
1645.239181960058
 21
302.4318051475111
 31
0
  0
LINE
  8
1
 62
7
 10
1645.294546916543
 20
302.0627054376152
 30
0
 11
1645.239181960058
 21
302.2472552925631
 31
0
  0
LINE
  8
1
 62
7
 10
1645.460641785996
 20
301.8781555826672
 30
0
 11
1645.294546916543
 21
302.0627054376152
 31
0
  0
LINE
  8
1
 62
7
 10
1645.682101611934
 20
301.7397431914561
 30
0
 11
1645.460641785996
 21
301.8781555826672
 31
0
  0
LINE
  8
1
 62
7
 10
1645.958926394355
 20
301.6936057277193
 30
0
 11
1645.682101611934
 21
301.7397431914561
 31
0
  0
LINE
  8
1
 62
7
 10
1646.180386220292
 20
301.6936057277193
 30
0
 11
1645.958926394355
 21
301.6936057277193
 31
0
  0
LINE
  8
1
 62
7
 10
1646.457211002715
 20
301.7397431914561
 30
0
 11
1646.180386220292
 21
301.6936057277193
 31
0
  0
LINE
  8
1
 62
7
 10
1646.678670828653
 20
301.8781555826672
 30
0
 11
1646.457211002715
 21
301.7397431914561
 31
0
  0
LINE
  8
1
 62
7
 10
1646.844765698106
 20
302.0627054376152
 30
0
 11
1646.678670828653
 21
301.8781555826672
 31
0
  0
LINE
  8
1
 62
7
 10
1646.90013065459
 20
302.2472552925631
 30
0
 11
1646.844765698106
 21
302.0627054376152
 31
0
  0
LINE
  8
1
 62
7
 10
1646.90013065459
 20
302.4318051475111
 30
0
 11
1646.90013065459
 21
302.2472552925631
 31
0
  0
LINE
  8
1
 62
7
 10
1646.844765698106
 20
302.6163550024591
 30
0
 11
1646.90013065459
 21
302.4318051475111
 31
0
  0
LINE
  8
1
 62
7
 10
1646.678670828653
 20
302.8009048574069
 30
0
 11
1646.844765698106
 21
302.6163550024591
 31
0
  0
LINE
  8
1
 62
7
 10
1646.457211002715
 20
302.9393172486181
 30
0
 11
1646.678670828653
 21
302.8009048574069
 31
0
  0
LINE
  8
1
 62
7
 10
1646.180386220292
 20
302.985454712355
 30
0
 11
1646.457211002715
 21
302.9393172486181
 31
0
  0
LINE
  8
1
 62
7
 10
1645.958926394355
 20
302.985454712355
 30
0
 11
1646.180386220292
 21
302.985454712355
 31
0
  0
LINE
  8
1
 62
7
 10
1640.91182765416
 20
301.1860936266122
 30
0
 11
1637.977484960487
 21
301.1860936266122
 31
0
  0
LINE
  8
1
 62
7
 10
1640.91182765416
 20
301.6474682639822
 30
0
 11
1640.91182765416
 21
301.1860936266122
 31
0
  0
LINE
  8
1
 62
7
 10
1638.752594351268
 20
301.6474682639822
 30
0
 11
1640.91182765416
 21
301.6474682639822
 31
0
  0
LINE
  8
1
 62
7
 10
1638.863324264238
 20
301.9242930464042
 30
0
 11
1638.752594351268
 21
301.6474682639822
 31
0
  0
LINE
  8
1
 62
7
 10
1639.14014904666
 20
302.2472552925631
 30
0
 11
1638.863324264238
 21
301.9242930464042
 31
0
  0
LINE
  8
1
 62
7
 10
1639.527703742051
 20
302.6163550024591
 30
0
 11
1639.14014904666
 21
302.2472552925631
 31
0
  0
LINE
  8
1
 62
7
 10
1639.915258437441
 20
302.8931797848811
 30
0
 11
1639.527703742051
 21
302.6163550024591
 31
0
  0
LINE
  8
1
 62
7
 10
1640.358178089316
 20
303.21614203104
 30
0
 11
1639.915258437441
 21
302.8931797848811
 31
0
  0
LINE
  8
1
 62
7
 10
1640.468908002285
 20
303.3084169585139
 30
0
 11
1640.358178089316
 21
303.21614203104
 31
0
  0
LINE
  8
1
 62
7
 10
1640.690367828222
 20
303.5852417409359
 30
0
 11
1640.468908002285
 21
303.3084169585139
 31
0
  0
LINE
  8
1
 62
7
 10
1640.745732784708
 20
303.8159290596208
 30
0
 11
1640.690367828222
 21
303.5852417409359
 31
0
  0
LINE
  8
1
 62
7
 10
1640.745732784708
 20
304.0004789145688
 30
0
 11
1640.745732784708
 21
303.8159290596208
 31
0
  0
LINE
  8
1
 62
7
 10
1640.690367828222
 20
304.2311662332538
 30
0
 11
1640.745732784708
 21
304.0004789145688
 31
0
  0
LINE
  8
1
 62
7
 10
1640.468908002285
 20
304.5079910156758
 30
0
 11
1640.690367828222
 21
304.2311662332538
 31
0
  0
LINE
  8
1
 62
7
 10
1640.247448176348
 20
304.6925408706238
 30
0
 11
1640.468908002285
 21
304.5079910156758
 31
0
  0
LINE
  8
1
 62
7
 10
1639.915258437441
 20
304.8309532618347
 30
0
 11
1640.247448176348
 21
304.6925408706238
 31
0
  0
LINE
  8
1
 62
7
 10
1639.63843365502
 20
304.8770907255718
 30
0
 11
1639.915258437441
 21
304.8309532618347
 31
0
  0
LINE
  8
1
 62
7
 10
1639.306243916113
 20
304.8770907255718
 30
0
 11
1639.63843365502
 21
304.8770907255718
 31
0
  0
LINE
  8
1
 62
7
 10
1639.029419133691
 20
304.8309532618347
 30
0
 11
1639.306243916113
 21
304.8770907255718
 31
0
  0
LINE
  8
1
 62
7
 10
1638.697229394785
 20
304.6925408706238
 30
0
 11
1639.029419133691
 21
304.8309532618347
 31
0
  0
LINE
  8
1
 62
7
 10
1638.475769568847
 20
304.5079910156758
 30
0
 11
1638.697229394785
 21
304.6925408706238
 31
0
  0
LINE
  8
1
 62
7
 10
1638.25430974291
 20
304.2311662332538
 30
0
 11
1638.475769568847
 21
304.5079910156758
 31
0
  0
LINE
  8
1
 62
7
 10
1638.198944786425
 20
304.0004789145688
 30
0
 11
1638.25430974291
 21
304.2311662332538
 31
0
  0
LINE
  8
1
 62
7
 10
1638.198944786425
 20
303.8159290596208
 30
0
 11
1638.198944786425
 21
304.0004789145688
 31
0
  0
LINE
  8
1
 62
7
 10
1638.807959307754
 20
303.8159290596208
 30
0
 11
1638.198944786425
 21
303.8159290596208
 31
0
  0
LINE
  8
1
 62
7
 10
1638.807959307754
 20
304.0004789145688
 30
0
 11
1638.807959307754
 21
303.8159290596208
 31
0
  0
LINE
  8
1
 62
7
 10
1638.863324264238
 20
304.1388913057799
 30
0
 11
1638.807959307754
 21
304.0004789145688
 31
0
  0
LINE
  8
1
 62
7
 10
1638.974054177207
 20
304.2773036969908
 30
0
 11
1638.863324264238
 21
304.1388913057799
 31
0
  0
LINE
  8
1
 62
7
 10
1639.14014904666
 20
304.3695786244647
 30
0
 11
1638.974054177207
 21
304.2773036969908
 31
0
  0
LINE
  8
1
 62
7
 10
1639.361608872598
 20
304.415716088202
 30
0
 11
1639.14014904666
 21
304.3695786244647
 31
0
  0
LINE
  8
1
 62
7
 10
1639.583068698535
 20
304.415716088202
 30
0
 11
1639.361608872598
 21
304.415716088202
 31
0
  0
LINE
  8
1
 62
7
 10
1639.804528524473
 20
304.3695786244647
 30
0
 11
1639.583068698535
 21
304.415716088202
 31
0
  0
LINE
  8
1
 62
7
 10
1639.970623393926
 20
304.2773036969908
 30
0
 11
1639.804528524473
 21
304.3695786244647
 31
0
  0
LINE
  8
1
 62
7
 10
1640.081353306895
 20
304.1388913057799
 30
0
 11
1639.970623393926
 21
304.2773036969908
 31
0
  0
LINE
  8
1
 62
7
 10
1640.136718263379
 20
304.0004789145688
 30
0
 11
1640.081353306895
 21
304.1388913057799
 31
0
  0
LINE
  8
1
 62
7
 10
1640.136718263379
 20
303.8159290596208
 30
0
 11
1640.136718263379
 21
304.0004789145688
 31
0
  0
LINE
  8
1
 62
7
 10
1640.081353306895
 20
303.6775166684099
 30
0
 11
1640.136718263379
 21
303.8159290596208
 31
0
  0
LINE
  8
1
 62
7
 10
1639.970623393926
 20
303.5391042771988
 30
0
 11
1640.081353306895
 21
303.6775166684099
 31
0
  0
LINE
  8
1
 62
7
 10
1639.583068698535
 20
303.21614203104
 30
0
 11
1639.970623393926
 21
303.5391042771988
 31
0
  0
LINE
  8
1
 62
7
 10
1639.250878959629
 20
302.9393172486181
 30
0
 11
1639.583068698535
 21
303.21614203104
 31
0
  0
LINE
  8
1
 62
7
 10
1638.918689220723
 20
302.7086299299331
 30
0
 11
1639.250878959629
 21
302.9393172486181
 31
0
  0
LINE
  8
1
 62
7
 10
1638.586499481816
 20
302.3856676837742
 30
0
 11
1638.918689220723
 21
302.7086299299331
 31
0
  0
LINE
  8
1
 62
7
 10
1638.309674699393
 20
302.108842901352
 30
0
 11
1638.586499481816
 21
302.3856676837742
 31
0
  0
LINE
  8
1
 62
7
 10
1638.088214873456
 20
301.7858806551931
 30
0
 11
1638.309674699393
 21
302.108842901352
 31
0
  0
LINE
  8
1
 62
7
 10
1637.977484960487
 20
301.4629184090342
 30
0
 11
1638.088214873456
 21
301.7858806551931
 31
0
  0
LINE
  8
1
 62
7
 10
1637.977484960487
 20
301.1860936266122
 30
0
 11
1637.977484960487
 21
301.4629184090342
 31
0
  0
LINE
  8
1
 62
7
 10
1602.941050346308
 20
301.3245060178232
 30
0
 11
1603.10714521576
 21
301.4167809452972
 31
0
  0
LINE
  8
1
 62
7
 10
1602.664225563885
 20
301.2322310903493
 30
0
 11
1602.941050346308
 21
301.3245060178232
 31
0
  0
LINE
  8
1
 62
7
 10
1602.442765737948
 20
301.1860936266122
 30
0
 11
1602.664225563885
 21
301.2322310903493
 31
0
  0
LINE
  8
1
 62
7
 10
1602.055211042558
 20
301.1860936266122
 30
0
 11
1602.442765737948
 21
301.1860936266122
 31
0
  0
LINE
  8
1
 62
7
 10
1601.83375121662
 20
301.2322310903493
 30
0
 11
1602.055211042558
 21
301.1860936266122
 31
0
  0
LINE
  8
1
 62
7
 10
1601.556926434198
 20
301.3245060178232
 30
0
 11
1601.83375121662
 21
301.2322310903493
 31
0
  0
LINE
  8
1
 62
7
 10
1601.390831564745
 20
301.4167809452972
 30
0
 11
1601.556926434198
 21
301.3245060178232
 31
0
  0
LINE
  8
1
 62
7
 10
1601.224736695292
 20
301.5551933365081
 30
0
 11
1601.390831564745
 21
301.4167809452972
 31
0
  0
LINE
  8
1
 62
7
 10
1601.058641825839
 20
301.7397431914561
 30
0
 11
1601.224736695292
 21
301.5551933365081
 31
0
  0
LINE
  8
1
 62
7
 10
1600.94791191287
 20
301.9242930464042
 30
0
 11
1601.058641825839
 21
301.7397431914561
 31
0
  0
LINE
  8
1
 62
7
 10
1600.837181999901
 20
302.1549803650891
 30
0
 11
1600.94791191287
 21
301.9242930464042
 31
0
  0
LINE
  8
1
 62
7
 10
1600.781817043417
 20
302.4318051475111
 30
0
 11
1600.837181999901
 21
302.1549803650891
 31
0
  0
LINE
  8
1
 62
7
 10
1600.726452086933
 20
302.8470423211442
 30
0
 11
1600.781817043417
 21
302.4318051475111
 31
0
  0
LINE
  8
1
 62
7
 10
1600.726452086933
 20
303.21614203104
 30
0
 11
1600.726452086933
 21
302.8470423211442
 31
0
  0
LINE
  8
1
 62
7
 10
1600.781817043417
 20
303.631379204673
 30
0
 11
1600.726452086933
 21
303.21614203104
 31
0
  0
LINE
  8
1
 62
7
 10
1600.837181999901
 20
303.9082039870949
 30
0
 11
1600.781817043417
 21
303.631379204673
 31
0
  0
LINE
  8
1
 62
7
 10
1600.94791191287
 20
304.1388913057799
 30
0
 11
1600.837181999901
 21
303.9082039870949
 31
0
  0
LINE
  8
1
 62
7
 10
1601.058641825839
 20
304.3234411607279
 30
0
 11
1600.94791191287
 21
304.1388913057799
 31
0
  0
LINE
  8
1
 62
7
 10
1601.224736695292
 20
304.5079910156758
 30
0
 11
1601.058641825839
 21
304.3234411607279
 31
0
  0
LINE
  8
1
 62
7
 10
1601.390831564745
 20
304.6464034068869
 30
0
 11
1601.224736695292
 21
304.5079910156758
 31
0
  0
LINE
  8
1
 62
7
 10
1601.556926434198
 20
304.7386783343608
 30
0
 11
1601.390831564745
 21
304.6464034068869
 31
0
  0
LINE
  8
1
 62
7
 10
1601.83375121662
 20
304.8309532618347
 30
0
 11
1601.556926434198
 21
304.7386783343608
 31
0
  0
LINE
  8
1
 62
7
 10
1602.055211042558
 20
304.8770907255718
 30
0
 11
1601.83375121662
 21
304.8309532618347
 31
0
  0
LINE
  8
1
 62
7
 10
1602.442765737948
 20
304.8770907255718
 30
0
 11
1602.055211042558
 21
304.8770907255718
 31
0
  0
LINE
  8
1
 62
7
 10
1602.664225563885
 20
304.8309532618347
 30
0
 11
1602.442765737948
 21
304.8770907255718
 31
0
  0
LINE
  8
1
 62
7
 10
1602.941050346308
 20
304.7386783343608
 30
0
 11
1602.664225563885
 21
304.8309532618347
 31
0
  0
LINE
  8
1
 62
7
 10
1603.10714521576
 20
304.6464034068869
 30
0
 11
1602.941050346308
 21
304.7386783343608
 31
0
  0
LINE
  8
1
 62
7
 10
1603.273240085215
 20
304.5079910156758
 30
0
 11
1603.10714521576
 21
304.6464034068869
 31
0
  0
LINE
  8
1
 62
7
 10
1603.439334954668
 20
304.3234411607279
 30
0
 11
1603.273240085215
 21
304.5079910156758
 31
0
  0
LINE
  8
1
 62
7
 10
1603.550064867637
 20
304.1388913057799
 30
0
 11
1603.439334954668
 21
304.3234411607279
 31
0
  0
LINE
  8
1
 62
7
 10
1603.660794780605
 20
303.9082039870949
 30
0
 11
1603.550064867637
 21
304.1388913057799
 31
0
  0
LINE
  8
1
 62
7
 10
1603.71615973709
 20
303.631379204673
 30
0
 11
1603.660794780605
 21
303.9082039870949
 31
0
  0
LINE
  8
1
 62
7
 10
1603.771524693574
 20
303.21614203104
 30
0
 11
1603.71615973709
 21
303.631379204673
 31
0
  0
LINE
  8
1
 62
7
 10
1603.771524693574
 20
302.8470423211442
 30
0
 11
1603.771524693574
 21
303.21614203104
 31
0
  0
LINE
  8
1
 62
7
 10
1603.71615973709
 20
302.4318051475111
 30
0
 11
1603.771524693574
 21
302.8470423211442
 31
0
  0
LINE
  8
1
 62
7
 10
1603.660794780605
 20
302.1549803650891
 30
0
 11
1603.71615973709
 21
302.4318051475111
 31
0
  0
LINE
  8
1
 62
7
 10
1603.550064867637
 20
301.9242930464042
 30
0
 11
1603.660794780605
 21
302.1549803650891
 31
0
  0
LINE
  8
1
 62
7
 10
1603.439334954668
 20
301.7397431914561
 30
0
 11
1603.550064867637
 21
301.9242930464042
 31
0
  0
LINE
  8
1
 62
7
 10
1603.273240085215
 20
301.5551933365081
 30
0
 11
1603.439334954668
 21
301.7397431914561
 31
0
  0
LINE
  8
1
 62
7
 10
1603.10714521576
 20
301.4167809452972
 30
0
 11
1603.273240085215
 21
301.5551933365081
 31
0
  0
LINE
  8
1
 62
7
 10
1601.83375121662
 20
301.7397431914561
 30
0
 11
1602.055211042558
 21
301.6474682639822
 31
0
  0
LINE
  8
1
 62
7
 10
1601.612291390683
 20
301.8781555826672
 30
0
 11
1601.83375121662
 21
301.7397431914561
 31
0
  0
LINE
  8
1
 62
7
 10
1601.501561477714
 20
302.0165679738781
 30
0
 11
1601.612291390683
 21
301.8781555826672
 31
0
  0
LINE
  8
1
 62
7
 10
1601.390831564745
 20
302.2472552925631
 30
0
 11
1601.501561477714
 21
302.0165679738781
 31
0
  0
LINE
  8
1
 62
7
 10
1601.335466608261
 20
302.75476739367
 30
0
 11
1601.390831564745
 21
302.2472552925631
 31
0
  0
LINE
  8
1
 62
7
 10
1601.335466608261
 20
303.3084169585139
 30
0
 11
1601.335466608261
 21
302.75476739367
 31
0
  0
LINE
  8
1
 62
7
 10
1601.390831564745
 20
303.8159290596208
 30
0
 11
1601.335466608261
 21
303.3084169585139
 31
0
  0
LINE
  8
1
 62
7
 10
1601.501561477714
 20
304.0466163783059
 30
0
 11
1601.390831564745
 21
303.8159290596208
 31
0
  0
LINE
  8
1
 62
7
 10
1601.612291390683
 20
304.1850287695169
 30
0
 11
1601.501561477714
 21
304.0466163783059
 31
0
  0
LINE
  8
1
 62
7
 10
1601.83375121662
 20
304.3234411607279
 30
0
 11
1601.612291390683
 21
304.1850287695169
 31
0
  0
LINE
  8
1
 62
7
 10
1602.055211042558
 20
304.415716088202
 30
0
 11
1601.83375121662
 21
304.3234411607279
 31
0
  0
LINE
  8
1
 62
7
 10
1602.442765737948
 20
304.415716088202
 30
0
 11
1602.055211042558
 21
304.415716088202
 31
0
  0
LINE
  8
1
 62
7
 10
1602.664225563885
 20
304.3234411607279
 30
0
 11
1602.442765737948
 21
304.415716088202
 31
0
  0
LINE
  8
1
 62
7
 10
1602.885685389823
 20
304.1850287695169
 30
0
 11
1602.664225563885
 21
304.3234411607279
 31
0
  0
LINE
  8
1
 62
7
 10
1602.996415302793
 20
304.0466163783059
 30
0
 11
1602.885685389823
 21
304.1850287695169
 31
0
  0
LINE
  8
1
 62
7
 10
1603.10714521576
 20
303.8159290596208
 30
0
 11
1602.996415302793
 21
304.0466163783059
 31
0
  0
LINE
  8
1
 62
7
 10
1603.162510172246
 20
303.3084169585139
 30
0
 11
1603.10714521576
 21
303.8159290596208
 31
0
  0
LINE
  8
1
 62
7
 10
1603.162510172246
 20
302.75476739367
 30
0
 11
1603.162510172246
 21
303.3084169585139
 31
0
  0
LINE
  8
1
 62
7
 10
1603.10714521576
 20
302.2472552925631
 30
0
 11
1603.162510172246
 21
302.75476739367
 31
0
  0
LINE
  8
1
 62
7
 10
1602.996415302793
 20
302.0165679738781
 30
0
 11
1603.10714521576
 21
302.2472552925631
 31
0
  0
LINE
  8
1
 62
7
 10
1602.885685389823
 20
301.8781555826672
 30
0
 11
1602.996415302793
 21
302.0165679738781
 31
0
  0
LINE
  8
1
 62
7
 10
1602.664225563885
 20
301.7397431914561
 30
0
 11
1602.885685389823
 21
301.8781555826672
 31
0
  0
LINE
  8
1
 62
7
 10
1602.442765737948
 20
301.6474682639822
 30
0
 11
1602.664225563885
 21
301.7397431914561
 31
0
  0
LINE
  8
1
 62
7
 10
1602.055211042558
 20
301.6474682639822
 30
0
 11
1602.442765737948
 21
301.6474682639822
 31
0
  0
LINE
  8
1
 62
7
 10
1609.566050346309
 20
301.3245060178232
 30
0
 11
1609.732145215762
 21
301.4167809452972
 31
0
  0
LINE
  8
1
 62
7
 10
1609.289225563886
 20
301.2322310903493
 30
0
 11
1609.566050346309
 21
301.3245060178232
 31
0
  0
LINE
  8
1
 62
7
 10
1609.067765737948
 20
301.1860936266122
 30
0
 11
1609.289225563886
 21
301.2322310903493
 31
0
  0
LINE
  8
1
 62
7
 10
1608.680211042558
 20
301.1860936266122
 30
0
 11
1609.067765737948
 21
301.1860936266122
 31
0
  0
LINE
  8
1
 62
7
 10
1608.458751216621
 20
301.2322310903493
 30
0
 11
1608.680211042558
 21
301.1860936266122
 31
0
  0
LINE
  8
1
 62
7
 10
1608.181926434198
 20
301.3245060178232
 30
0
 11
1608.458751216621
 21
301.2322310903493
 31
0
  0
LINE
  8
1
 62
7
 10
1608.015831564746
 20
301.4167809452972
 30
0
 11
1608.181926434198
 21
301.3245060178232
 31
0
  0
LINE
  8
1
 62
7
 10
1607.849736695292
 20
301.5551933365081
 30
0
 11
1608.015831564746
 21
301.4167809452972
 31
0
  0
LINE
  8
1
 62
7
 10
1607.683641825839
 20
301.7397431914561
 30
0
 11
1607.849736695292
 21
301.5551933365081
 31
0
  0
LINE
  8
1
 62
7
 10
1607.572911912871
 20
301.9242930464042
 30
0
 11
1607.683641825839
 21
301.7397431914561
 31
0
  0
LINE
  8
1
 62
7
 10
1607.462181999902
 20
302.1549803650891
 30
0
 11
1607.572911912871
 21
301.9242930464042
 31
0
  0
LINE
  8
1
 62
7
 10
1607.406817043417
 20
302.4318051475111
 30
0
 11
1607.462181999902
 21
302.1549803650891
 31
0
  0
LINE
  8
1
 62
7
 10
1607.351452086933
 20
302.8470423211442
 30
0
 11
1607.406817043417
 21
302.4318051475111
 31
0
  0
LINE
  8
1
 62
7
 10
1607.351452086933
 20
303.21614203104
 30
0
 11
1607.351452086933
 21
302.8470423211442
 31
0
  0
LINE
  8
1
 62
7
 10
1607.406817043417
 20
303.631379204673
 30
0
 11
1607.351452086933
 21
303.21614203104
 31
0
  0
LINE
  8
1
 62
7
 10
1607.462181999902
 20
303.9082039870949
 30
0
 11
1607.406817043417
 21
303.631379204673
 31
0
  0
LINE
  8
1
 62
7
 10
1607.572911912871
 20
304.1388913057799
 30
0
 11
1607.462181999902
 21
303.9082039870949
 31
0
  0
LINE
  8
1
 62
7
 10
1607.683641825839
 20
304.3234411607279
 30
0
 11
1607.572911912871
 21
304.1388913057799
 31
0
  0
LINE
  8
1
 62
7
 10
1607.849736695292
 20
304.5079910156758
 30
0
 11
1607.683641825839
 21
304.3234411607279
 31
0
  0
LINE
  8
1
 62
7
 10
1608.015831564746
 20
304.6464034068869
 30
0
 11
1607.849736695292
 21
304.5079910156758
 31
0
  0
LINE
  8
1
 62
7
 10
1608.181926434198
 20
304.7386783343608
 30
0
 11
1608.015831564746
 21
304.6464034068869
 31
0
  0
LINE
  8
1
 62
7
 10
1608.458751216621
 20
304.8309532618347
 30
0
 11
1608.181926434198
 21
304.7386783343608
 31
0
  0
LINE
  8
1
 62
7
 10
1608.680211042558
 20
304.8770907255718
 30
0
 11
1608.458751216621
 21
304.8309532618347
 31
0
  0
LINE
  8
1
 62
7
 10
1609.067765737948
 20
304.8770907255718
 30
0
 11
1608.680211042558
 21
304.8770907255718
 31
0
  0
LINE
  8
1
 62
7
 10
1609.289225563886
 20
304.8309532618347
 30
0
 11
1609.067765737948
 21
304.8770907255718
 31
0
  0
LINE
  8
1
 62
7
 10
1609.566050346309
 20
304.7386783343608
 30
0
 11
1609.289225563886
 21
304.8309532618347
 31
0
  0
LINE
  8
1
 62
7
 10
1609.732145215762
 20
304.6464034068869
 30
0
 11
1609.566050346309
 21
304.7386783343608
 31
0
  0
LINE
  8
1
 62
7
 10
1609.898240085215
 20
304.5079910156758
 30
0
 11
1609.732145215762
 21
304.6464034068869
 31
0
  0
LINE
  8
1
 62
7
 10
1610.064334954668
 20
304.3234411607279
 30
0
 11
1609.898240085215
 21
304.5079910156758
 31
0
  0
LINE
  8
1
 62
7
 10
1610.175064867637
 20
304.1388913057799
 30
0
 11
1610.064334954668
 21
304.3234411607279
 31
0
  0
LINE
  8
1
 62
7
 10
1610.285794780606
 20
303.9082039870949
 30
0
 11
1610.175064867637
 21
304.1388913057799
 31
0
  0
LINE
  8
1
 62
7
 10
1610.34115973709
 20
303.631379204673
 30
0
 11
1610.285794780606
 21
303.9082039870949
 31
0
  0
LINE
  8
1
 62
7
 10
1610.396524693575
 20
303.21614203104
 30
0
 11
1610.34115973709
 21
303.631379204673
 31
0
  0
LINE
  8
1
 62
7
 10
1610.396524693575
 20
302.8470423211442
 30
0
 11
1610.396524693575
 21
303.21614203104
 31
0
  0
LINE
  8
1
 62
7
 10
1610.34115973709
 20
302.4318051475111
 30
0
 11
1610.396524693575
 21
302.8470423211442
 31
0
  0
LINE
  8
1
 62
7
 10
1610.285794780606
 20
302.1549803650891
 30
0
 11
1610.34115973709
 21
302.4318051475111
 31
0
  0
LINE
  8
1
 62
7
 10
1610.175064867637
 20
301.9242930464042
 30
0
 11
1610.285794780606
 21
302.1549803650891
 31
0
  0
LINE
  8
1
 62
7
 10
1610.064334954668
 20
301.7397431914561
 30
0
 11
1610.175064867637
 21
301.9242930464042
 31
0
  0
LINE
  8
1
 62
7
 10
1609.898240085215
 20
301.5551933365081
 30
0
 11
1610.064334954668
 21
301.7397431914561
 31
0
  0
LINE
  8
1
 62
7
 10
1609.732145215762
 20
301.4167809452972
 30
0
 11
1609.898240085215
 21
301.5551933365081
 31
0
  0
LINE
  8
1
 62
7
 10
1608.458751216621
 20
301.7397431914561
 30
0
 11
1608.680211042558
 21
301.6474682639822
 31
0
  0
LINE
  8
1
 62
7
 10
1608.237291390683
 20
301.8781555826672
 30
0
 11
1608.458751216621
 21
301.7397431914561
 31
0
  0
LINE
  8
1
 62
7
 10
1608.126561477714
 20
302.0165679738781
 30
0
 11
1608.237291390683
 21
301.8781555826672
 31
0
  0
LINE
  8
1
 62
7
 10
1608.015831564746
 20
302.2472552925631
 30
0
 11
1608.126561477714
 21
302.0165679738781
 31
0
  0
LINE
  8
1
 62
7
 10
1607.960466608261
 20
302.75476739367
 30
0
 11
1608.015831564746
 21
302.2472552925631
 31
0
  0
LINE
  8
1
 62
7
 10
1607.960466608261
 20
303.3084169585139
 30
0
 11
1607.960466608261
 21
302.75476739367
 31
0
  0
LINE
  8
1
 62
7
 10
1608.015831564746
 20
303.8159290596208
 30
0
 11
1607.960466608261
 21
303.3084169585139
 31
0
  0
LINE
  8
1
 62
7
 10
1608.126561477714
 20
304.0466163783059
 30
0
 11
1608.015831564746
 21
303.8159290596208
 31
0
  0
LINE
  8
1
 62
7
 10
1608.237291390683
 20
304.1850287695169
 30
0
 11
1608.126561477714
 21
304.0466163783059
 31
0
  0
LINE
  8
1
 62
7
 10
1608.458751216621
 20
304.3234411607279
 30
0
 11
1608.237291390683
 21
304.1850287695169
 31
0
  0
LINE
  8
1
 62
7
 10
1608.680211042558
 20
304.415716088202
 30
0
 11
1608.458751216621
 21
304.3234411607279
 31
0
  0
LINE
  8
1
 62
7
 10
1609.067765737948
 20
304.415716088202
 30
0
 11
1608.680211042558
 21
304.415716088202
 31
0
  0
LINE
  8
1
 62
7
 10
1609.289225563886
 20
304.3234411607279
 30
0
 11
1609.067765737948
 21
304.415716088202
 31
0
  0
LINE
  8
1
 62
7
 10
1609.510685389823
 20
304.1850287695169
 30
0
 11
1609.289225563886
 21
304.3234411607279
 31
0
  0
LINE
  8
1
 62
7
 10
1609.621415302793
 20
304.0466163783059
 30
0
 11
1609.510685389823
 21
304.1850287695169
 31
0
  0
LINE
  8
1
 62
7
 10
1609.732145215762
 20
303.8159290596208
 30
0
 11
1609.621415302793
 21
304.0466163783059
 31
0
  0
LINE
  8
1
 62
7
 10
1609.787510172246
 20
303.3084169585139
 30
0
 11
1609.732145215762
 21
303.8159290596208
 31
0
  0
LINE
  8
1
 62
7
 10
1609.787510172246
 20
302.75476739367
 30
0
 11
1609.787510172246
 21
303.3084169585139
 31
0
  0
LINE
  8
1
 62
7
 10
1609.732145215762
 20
302.2472552925631
 30
0
 11
1609.787510172246
 21
302.75476739367
 31
0
  0
LINE
  8
1
 62
7
 10
1609.621415302793
 20
302.0165679738781
 30
0
 11
1609.732145215762
 21
302.2472552925631
 31
0
  0
LINE
  8
1
 62
7
 10
1609.510685389823
 20
301.8781555826672
 30
0
 11
1609.621415302793
 21
302.0165679738781
 31
0
  0
LINE
  8
1
 62
7
 10
1609.289225563886
 20
301.7397431914561
 30
0
 11
1609.510685389823
 21
301.8781555826672
 31
0
  0
LINE
  8
1
 62
7
 10
1609.067765737948
 20
301.6474682639822
 30
0
 11
1609.289225563886
 21
301.7397431914561
 31
0
  0
LINE
  8
1
 62
7
 10
1608.680211042558
 20
301.6474682639822
 30
0
 11
1609.067765737948
 21
301.6474682639822
 31
0
  0
LINE
  8
1
 62
7
 10
1616.191050346309
 20
301.3245060178232
 30
0
 11
1616.357145215762
 21
301.4167809452972
 31
0
  0
LINE
  8
1
 62
7
 10
1615.914225563886
 20
301.2322310903493
 30
0
 11
1616.191050346309
 21
301.3245060178232
 31
0
  0
LINE
  8
1
 62
7
 10
1615.69276573795
 20
301.1860936266122
 30
0
 11
1615.914225563886
 21
301.2322310903493
 31
0
  0
LINE
  8
1
 62
7
 10
1615.305211042559
 20
301.1860936266122
 30
0
 11
1615.69276573795
 21
301.1860936266122
 31
0
  0
LINE
  8
1
 62
7
 10
1615.083751216621
 20
301.2322310903493
 30
0
 11
1615.305211042559
 21
301.1860936266122
 31
0
  0
LINE
  8
1
 62
7
 10
1614.806926434198
 20
301.3245060178232
 30
0
 11
1615.083751216621
 21
301.2322310903493
 31
0
  0
LINE
  8
1
 62
7
 10
1614.640831564746
 20
301.4167809452972
 30
0
 11
1614.806926434198
 21
301.3245060178232
 31
0
  0
LINE
  8
1
 62
7
 10
1614.474736695292
 20
301.5551933365081
 30
0
 11
1614.640831564746
 21
301.4167809452972
 31
0
  0
LINE
  8
1
 62
7
 10
1614.30864182584
 20
301.7397431914561
 30
0
 11
1614.474736695292
 21
301.5551933365081
 31
0
  0
LINE
  8
1
 62
7
 10
1614.197911912871
 20
301.9242930464042
 30
0
 11
1614.30864182584
 21
301.7397431914561
 31
0
  0
LINE
  8
1
 62
7
 10
1614.087181999902
 20
302.1549803650891
 30
0
 11
1614.197911912871
 21
301.9242930464042
 31
0
  0
LINE
  8
1
 62
7
 10
1614.031817043418
 20
302.4318051475111
 30
0
 11
1614.087181999902
 21
302.1549803650891
 31
0
  0
LINE
  8
1
 62
7
 10
1613.976452086933
 20
302.8470423211442
 30
0
 11
1614.031817043418
 21
302.4318051475111
 31
0
  0
LINE
  8
1
 62
7
 10
1613.976452086933
 20
303.21614203104
 30
0
 11
1613.976452086933
 21
302.8470423211442
 31
0
  0
LINE
  8
1
 62
7
 10
1614.031817043418
 20
303.631379204673
 30
0
 11
1613.976452086933
 21
303.21614203104
 31
0
  0
LINE
  8
1
 62
7
 10
1614.087181999902
 20
303.9082039870949
 30
0
 11
1614.031817043418
 21
303.631379204673
 31
0
  0
LINE
  8
1
 62
7
 10
1614.197911912871
 20
304.1388913057799
 30
0
 11
1614.087181999902
 21
303.9082039870949
 31
0
  0
LINE
  8
1
 62
7
 10
1614.30864182584
 20
304.3234411607279
 30
0
 11
1614.197911912871
 21
304.1388913057799
 31
0
  0
LINE
  8
1
 62
7
 10
1614.474736695292
 20
304.5079910156758
 30
0
 11
1614.30864182584
 21
304.3234411607279
 31
0
  0
LINE
  8
1
 62
7
 10
1614.640831564746
 20
304.6464034068869
 30
0
 11
1614.474736695292
 21
304.5079910156758
 31
0
  0
LINE
  8
1
 62
7
 10
1614.806926434198
 20
304.7386783343608
 30
0
 11
1614.640831564746
 21
304.6464034068869
 31
0
  0
LINE
  8
1
 62
7
 10
1615.083751216621
 20
304.8309532618347
 30
0
 11
1614.806926434198
 21
304.7386783343608
 31
0
  0
LINE
  8
1
 62
7
 10
1615.305211042559
 20
304.8770907255718
 30
0
 11
1615.083751216621
 21
304.8309532618347
 31
0
  0
LINE
  8
1
 62
7
 10
1615.69276573795
 20
304.8770907255718
 30
0
 11
1615.305211042559
 21
304.8770907255718
 31
0
  0
LINE
  8
1
 62
7
 10
1615.914225563886
 20
304.8309532618347
 30
0
 11
1615.69276573795
 21
304.8770907255718
 31
0
  0
LINE
  8
1
 62
7
 10
1616.191050346309
 20
304.7386783343608
 30
0
 11
1615.914225563886
 21
304.8309532618347
 31
0
  0
LINE
  8
1
 62
7
 10
1616.357145215762
 20
304.6464034068869
 30
0
 11
1616.191050346309
 21
304.7386783343608
 31
0
  0
LINE
  8
1
 62
7
 10
1616.523240085216
 20
304.5079910156758
 30
0
 11
1616.357145215762
 21
304.6464034068869
 31
0
  0
LINE
  8
1
 62
7
 10
1616.689334954669
 20
304.3234411607279
 30
0
 11
1616.523240085216
 21
304.5079910156758
 31
0
  0
LINE
  8
1
 62
7
 10
1616.800064867638
 20
304.1388913057799
 30
0
 11
1616.689334954669
 21
304.3234411607279
 31
0
  0
LINE
  8
1
 62
7
 10
1616.910794780606
 20
303.9082039870949
 30
0
 11
1616.800064867638
 21
304.1388913057799
 31
0
  0
LINE
  8
1
 62
7
 10
1616.966159737091
 20
303.631379204673
 30
0
 11
1616.910794780606
 21
303.9082039870949
 31
0
  0
LINE
  8
1
 62
7
 10
1617.021524693575
 20
303.21614203104
 30
0
 11
1616.966159737091
 21
303.631379204673
 31
0
  0
LINE
  8
1
 62
7
 10
1617.021524693575
 20
302.8470423211442
 30
0
 11
1617.021524693575
 21
303.21614203104
 31
0
  0
LINE
  8
1
 62
7
 10
1616.966159737091
 20
302.4318051475111
 30
0
 11
1617.021524693575
 21
302.8470423211442
 31
0
  0
LINE
  8
1
 62
7
 10
1616.910794780606
 20
302.1549803650891
 30
0
 11
1616.966159737091
 21
302.4318051475111
 31
0
  0
LINE
  8
1
 62
7
 10
1616.800064867638
 20
301.9242930464042
 30
0
 11
1616.910794780606
 21
302.1549803650891
 31
0
  0
LINE
  8
1
 62
7
 10
1616.689334954669
 20
301.7397431914561
 30
0
 11
1616.800064867638
 21
301.9242930464042
 31
0
  0
LINE
  8
1
 62
7
 10
1616.523240085216
 20
301.5551933365081
 30
0
 11
1616.689334954669
 21
301.7397431914561
 31
0
  0
LINE
  8
1
 62
7
 10
1616.357145215762
 20
301.4167809452972
 30
0
 11
1616.523240085216
 21
301.5551933365081
 31
0
  0
LINE
  8
1
 62
7
 10
1615.083751216621
 20
301.7397431914561
 30
0
 11
1615.305211042559
 21
301.6474682639822
 31
0
  0
LINE
  8
1
 62
7
 10
1614.862291390684
 20
301.8781555826672
 30
0
 11
1615.083751216621
 21
301.7397431914561
 31
0
  0
LINE
  8
1
 62
7
 10
1614.751561477715
 20
302.0165679738781
 30
0
 11
1614.862291390684
 21
301.8781555826672
 31
0
  0
LINE
  8
1
 62
7
 10
1614.640831564746
 20
302.2472552925631
 30
0
 11
1614.751561477715
 21
302.0165679738781
 31
0
  0
LINE
  8
1
 62
7
 10
1614.585466608261
 20
302.75476739367
 30
0
 11
1614.640831564746
 21
302.2472552925631
 31
0
  0
LINE
  8
1
 62
7
 10
1614.585466608261
 20
303.3084169585139
 30
0
 11
1614.585466608261
 21
302.75476739367
 31
0
  0
LINE
  8
1
 62
7
 10
1614.640831564746
 20
303.8159290596208
 30
0
 11
1614.585466608261
 21
303.3084169585139
 31
0
  0
LINE
  8
1
 62
7
 10
1614.751561477715
 20
304.0466163783059
 30
0
 11
1614.640831564746
 21
303.8159290596208
 31
0
  0
LINE
  8
1
 62
7
 10
1614.862291390684
 20
304.1850287695169
 30
0
 11
1614.751561477715
 21
304.0466163783059
 31
0
  0
LINE
  8
1
 62
7
 10
1615.083751216621
 20
304.3234411607279
 30
0
 11
1614.862291390684
 21
304.1850287695169
 31
0
  0
LINE
  8
1
 62
7
 10
1615.305211042559
 20
304.415716088202
 30
0
 11
1615.083751216621
 21
304.3234411607279
 31
0
  0
LINE
  8
1
 62
7
 10
1615.69276573795
 20
304.415716088202
 30
0
 11
1615.305211042559
 21
304.415716088202
 31
0
  0
LINE
  8
1
 62
7
 10
1615.914225563886
 20
304.3234411607279
 30
0
 11
1615.69276573795
 21
304.415716088202
 31
0
  0
LINE
  8
1
 62
7
 10
1616.135685389825
 20
304.1850287695169
 30
0
 11
1615.914225563886
 21
304.3234411607279
 31
0
  0
LINE
  8
1
 62
7
 10
1616.246415302794
 20
304.0466163783059
 30
0
 11
1616.135685389825
 21
304.1850287695169
 31
0
  0
LINE
  8
1
 62
7
 10
1616.357145215762
 20
303.8159290596208
 30
0
 11
1616.246415302794
 21
304.0466163783059
 31
0
  0
LINE
  8
1
 62
7
 10
1616.412510172247
 20
303.3084169585139
 30
0
 11
1616.357145215762
 21
303.8159290596208
 31
0
  0
LINE
  8
1
 62
7
 10
1616.412510172247
 20
302.75476739367
 30
0
 11
1616.412510172247
 21
303.3084169585139
 31
0
  0
LINE
  8
1
 62
7
 10
1616.357145215762
 20
302.2472552925631
 30
0
 11
1616.412510172247
 21
302.75476739367
 31
0
  0
LINE
  8
1
 62
7
 10
1616.246415302794
 20
302.0165679738781
 30
0
 11
1616.357145215762
 21
302.2472552925631
 31
0
  0
LINE
  8
1
 62
7
 10
1616.135685389825
 20
301.8781555826672
 30
0
 11
1616.246415302794
 21
302.0165679738781
 31
0
  0
LINE
  8
1
 62
7
 10
1615.914225563886
 20
301.7397431914561
 30
0
 11
1616.135685389825
 21
301.8781555826672
 31
0
  0
LINE
  8
1
 62
7
 10
1615.69276573795
 20
301.6474682639822
 30
0
 11
1615.914225563886
 21
301.7397431914561
 31
0
  0
LINE
  8
1
 62
7
 10
1615.305211042559
 20
301.6474682639822
 30
0
 11
1615.69276573795
 21
301.6474682639822
 31
0
  0
LINE
  8
1
 62
7
 10
1622.81605034631
 20
301.3245060178232
 30
0
 11
1622.982145215763
 21
301.4167809452972
 31
0
  0
LINE
  8
1
 62
7
 10
1622.539225563888
 20
301.2322310903493
 30
0
 11
1622.81605034631
 21
301.3245060178232
 31
0
  0
LINE
  8
1
 62
7
 10
1622.31776573795
 20
301.1860936266122
 30
0
 11
1622.539225563888
 21
301.2322310903493
 31
0
  0
LINE
  8
1
 62
7
 10
1621.930211042559
 20
301.1860936266122
 30
0
 11
1622.31776573795
 21
301.1860936266122
 31
0
  0
LINE
  8
1
 62
7
 10
1621.708751216622
 20
301.2322310903493
 30
0
 11
1621.930211042559
 21
301.1860936266122
 31
0
  0
LINE
  8
1
 62
7
 10
1621.431926434199
 20
301.3245060178232
 30
0
 11
1621.708751216622
 21
301.2322310903493
 31
0
  0
LINE
  8
1
 62
7
 10
1621.265831564747
 20
301.4167809452972
 30
0
 11
1621.431926434199
 21
301.3245060178232
 31
0
  0
LINE
  8
1
 62
7
 10
1621.099736695292
 20
301.5551933365081
 30
0
 11
1621.265831564747
 21
301.4167809452972
 31
0
  0
LINE
  8
1
 62
7
 10
1620.93364182584
 20
301.7397431914561
 30
0
 11
1621.099736695292
 21
301.5551933365081
 31
0
  0
LINE
  8
1
 62
7
 10
1620.822911912871
 20
301.9242930464042
 30
0
 11
1620.93364182584
 21
301.7397431914561
 31
0
  0
LINE
  8
1
 62
7
 10
1620.712181999903
 20
302.1549803650891
 30
0
 11
1620.822911912871
 21
301.9242930464042
 31
0
  0
LINE
  8
1
 62
7
 10
1620.656817043418
 20
302.4318051475111
 30
0
 11
1620.712181999903
 21
302.1549803650891
 31
0
  0
LINE
  8
1
 62
7
 10
1620.601452086934
 20
302.8470423211442
 30
0
 11
1620.656817043418
 21
302.4318051475111
 31
0
  0
LINE
  8
1
 62
7
 10
1620.601452086934
 20
303.21614203104
 30
0
 11
1620.601452086934
 21
302.8470423211442
 31
0
  0
LINE
  8
1
 62
7
 10
1620.656817043418
 20
303.631379204673
 30
0
 11
1620.601452086934
 21
303.21614203104
 31
0
  0
LINE
  8
1
 62
7
 10
1620.712181999903
 20
303.9082039870949
 30
0
 11
1620.656817043418
 21
303.631379204673
 31
0
  0
LINE
  8
1
 62
7
 10
1620.822911912871
 20
304.1388913057799
 30
0
 11
1620.712181999903
 21
303.9082039870949
 31
0
  0
LINE
  8
1
 62
7
 10
1620.93364182584
 20
304.3234411607279
 30
0
 11
1620.822911912871
 21
304.1388913057799
 31
0
  0
LINE
  8
1
 62
7
 10
1621.099736695292
 20
304.5079910156758
 30
0
 11
1620.93364182584
 21
304.3234411607279
 31
0
  0
LINE
  8
1
 62
7
 10
1621.265831564747
 20
304.6464034068869
 30
0
 11
1621.099736695292
 21
304.5079910156758
 31
0
  0
LINE
  8
1
 62
7
 10
1621.431926434199
 20
304.7386783343608
 30
0
 11
1621.265831564747
 21
304.6464034068869
 31
0
  0
LINE
  8
1
 62
7
 10
1621.708751216622
 20
304.8309532618347
 30
0
 11
1621.431926434199
 21
304.7386783343608
 31
0
  0
LINE
  8
1
 62
7
 10
1621.930211042559
 20
304.8770907255718
 30
0
 11
1621.708751216622
 21
304.8309532618347
 31
0
  0
LINE
  8
1
 62
7
 10
1622.31776573795
 20
304.8770907255718
 30
0
 11
1621.930211042559
 21
304.8770907255718
 31
0
  0
LINE
  8
1
 62
7
 10
1622.539225563888
 20
304.8309532618347
 30
0
 11
1622.31776573795
 21
304.8770907255718
 31
0
  0
LINE
  8
1
 62
7
 10
1622.81605034631
 20
304.7386783343608
 30
0
 11
1622.539225563888
 21
304.8309532618347
 31
0
  0
LINE
  8
1
 62
7
 10
1622.982145215763
 20
304.6464034068869
 30
0
 11
1622.81605034631
 21
304.7386783343608
 31
0
  0
LINE
  8
1
 62
7
 10
1623.148240085216
 20
304.5079910156758
 30
0
 11
1622.982145215763
 21
304.6464034068869
 31
0
  0
LINE
  8
1
 62
7
 10
1623.314334954669
 20
304.3234411607279
 30
0
 11
1623.148240085216
 21
304.5079910156758
 31
0
  0
LINE
  8
1
 62
7
 10
1623.425064867638
 20
304.1388913057799
 30
0
 11
1623.314334954669
 21
304.3234411607279
 31
0
  0
LINE
  8
1
 62
7
 10
1623.535794780607
 20
303.9082039870949
 30
0
 11
1623.425064867638
 21
304.1388913057799
 31
0
  0
LINE
  8
1
 62
7
 10
1623.591159737091
 20
303.631379204673
 30
0
 11
1623.535794780607
 21
303.9082039870949
 31
0
  0
LINE
  8
1
 62
7
 10
1623.646524693575
 20
303.21614203104
 30
0
 11
1623.591159737091
 21
303.631379204673
 31
0
  0
LINE
  8
1
 62
7
 10
1623.646524693575
 20
302.8470423211442
 30
0
 11
1623.646524693575
 21
303.21614203104
 31
0
  0
LINE
  8
1
 62
7
 10
1623.591159737091
 20
302.4318051475111
 30
0
 11
1623.646524693575
 21
302.8470423211442
 31
0
  0
LINE
  8
1
 62
7
 10
1623.535794780607
 20
302.1549803650891
 30
0
 11
1623.591159737091
 21
302.4318051475111
 31
0
  0
LINE
  8
1
 62
7
 10
1623.425064867638
 20
301.9242930464042
 30
0
 11
1623.535794780607
 21
302.1549803650891
 31
0
  0
LINE
  8
1
 62
7
 10
1623.314334954669
 20
301.7397431914561
 30
0
 11
1623.425064867638
 21
301.9242930464042
 31
0
  0
LINE
  8
1
 62
7
 10
1623.148240085216
 20
301.5551933365081
 30
0
 11
1623.314334954669
 21
301.7397431914561
 31
0
  0
LINE
  8
1
 62
7
 10
1622.982145215763
 20
301.4167809452972
 30
0
 11
1623.148240085216
 21
301.5551933365081
 31
0
  0
LINE
  8
1
 62
7
 10
1621.708751216622
 20
301.7397431914561
 30
0
 11
1621.930211042559
 21
301.6474682639822
 31
0
  0
LINE
  8
1
 62
7
 10
1621.487291390684
 20
301.8781555826672
 30
0
 11
1621.708751216622
 21
301.7397431914561
 31
0
  0
LINE
  8
1
 62
7
 10
1621.376561477715
 20
302.0165679738781
 30
0
 11
1621.487291390684
 21
301.8781555826672
 31
0
  0
LINE
  8
1
 62
7
 10
1621.265831564747
 20
302.2472552925631
 30
0
 11
1621.376561477715
 21
302.0165679738781
 31
0
  0
LINE
  8
1
 62
7
 10
1621.210466608261
 20
302.75476739367
 30
0
 11
1621.265831564747
 21
302.2472552925631
 31
0
  0
LINE
  8
1
 62
7
 10
1621.210466608261
 20
303.3084169585139
 30
0
 11
1621.210466608261
 21
302.75476739367
 31
0
  0
LINE
  8
1
 62
7
 10
1621.265831564747
 20
303.8159290596208
 30
0
 11
1621.210466608261
 21
303.3084169585139
 31
0
  0
LINE
  8
1
 62
7
 10
1621.376561477715
 20
304.0466163783059
 30
0
 11
1621.265831564747
 21
303.8159290596208
 31
0
  0
LINE
  8
1
 62
7
 10
1621.487291390684
 20
304.1850287695169
 30
0
 11
1621.376561477715
 21
304.0466163783059
 31
0
  0
LINE
  8
1
 62
7
 10
1621.708751216622
 20
304.3234411607279
 30
0
 11
1621.487291390684
 21
304.1850287695169
 31
0
  0
LINE
  8
1
 62
7
 10
1621.930211042559
 20
304.415716088202
 30
0
 11
1621.708751216622
 21
304.3234411607279
 31
0
  0
LINE
  8
1
 62
7
 10
1622.31776573795
 20
304.415716088202
 30
0
 11
1621.930211042559
 21
304.415716088202
 31
0
  0
LINE
  8
1
 62
7
 10
1622.539225563888
 20
304.3234411607279
 30
0
 11
1622.31776573795
 21
304.415716088202
 31
0
  0
LINE
  8
1
 62
7
 10
1622.760685389825
 20
304.1850287695169
 30
0
 11
1622.539225563888
 21
304.3234411607279
 31
0
  0
LINE
  8
1
 62
7
 10
1622.871415302794
 20
304.0466163783059
 30
0
 11
1622.760685389825
 21
304.1850287695169
 31
0
  0
LINE
  8
1
 62
7
 10
1622.982145215763
 20
303.8159290596208
 30
0
 11
1622.871415302794
 21
304.0466163783059
 31
0
  0
LINE
  8
1
 62
7
 10
1623.037510172247
 20
303.3084169585139
 30
0
 11
1622.982145215763
 21
303.8159290596208
 31
0
  0
LINE
  8
1
 62
7
 10
1623.037510172247
 20
302.75476739367
 30
0
 11
1623.037510172247
 21
303.3084169585139
 31
0
  0
LINE
  8
1
 62
7
 10
1622.982145215763
 20
302.2472552925631
 30
0
 11
1623.037510172247
 21
302.75476739367
 31
0
  0
LINE
  8
1
 62
7
 10
1622.871415302794
 20
302.0165679738781
 30
0
 11
1622.982145215763
 21
302.2472552925631
 31
0
  0
LINE
  8
1
 62
7
 10
1622.760685389825
 20
301.8781555826672
 30
0
 11
1622.871415302794
 21
302.0165679738781
 31
0
  0
LINE
  8
1
 62
7
 10
1622.539225563888
 20
301.7397431914561
 30
0
 11
1622.760685389825
 21
301.8781555826672
 31
0
  0
LINE
  8
1
 62
7
 10
1622.31776573795
 20
301.6474682639822
 30
0
 11
1622.539225563888
 21
301.7397431914561
 31
0
  0
LINE
  8
1
 62
7
 10
1621.930211042559
 20
301.6474682639822
 30
0
 11
1622.31776573795
 21
301.6474682639822
 31
0
  0
LINE
  8
1
 62
7
 10
1628.52295498989
 20
301.1860936266124
 30
0
 11
1628.984329627259
 21
301.1860936266124
 31
0
  0
LINE
  8
1
 62
7
 10
1628.52295498989
 20
303.8620665233581
 30
0
 11
1628.52295498989
 21
301.1860936266124
 31
0
  0
LINE
  8
1
 62
7
 10
1627.646343178888
 20
303.8620665233581
 30
0
 11
1628.52295498989
 21
303.8620665233581
 31
0
  0
LINE
  8
1
 62
7
 10
1627.646343178888
 20
304.2311662332542
 30
0
 11
1627.646343178888
 21
303.8620665233581
 31
0
  0
LINE
  8
1
 62
7
 10
1627.73861810636
 20
304.2311662332542
 30
0
 11
1627.646343178888
 21
304.2311662332542
 31
0
  0
LINE
  8
1
 62
7
 10
1627.969305425046
 20
304.2773036969911
 30
0
 11
1627.73861810636
 21
304.2311662332542
 31
0
  0
LINE
  8
1
 62
7
 10
1628.107717816257
 20
304.3234411607281
 30
0
 11
1627.969305425046
 21
304.2773036969911
 31
0
  0
LINE
  8
1
 62
7
 10
1628.292267671205
 20
304.415716088202
 30
0
 11
1628.107717816257
 21
304.3234411607281
 31
0
  0
LINE
  8
1
 62
7
 10
1628.430680062415
 20
304.554128479413
 30
0
 11
1628.292267671205
 21
304.415716088202
 31
0
  0
LINE
  8
1
 62
7
 10
1628.569092453627
 20
304.7386783343611
 30
0
 11
1628.430680062415
 21
304.554128479413
 31
0
  0
LINE
  8
1
 62
7
 10
1628.615229917364
 20
304.877090725572
 30
0
 11
1628.569092453627
 21
304.7386783343611
 31
0
  0
LINE
  8
1
 62
7
 10
1628.984329627259
 20
304.877090725572
 30
0
 11
1628.615229917364
 21
304.877090725572
 31
0
  0
LINE
  8
1
 62
7
 10
1628.984329627259
 20
301.1860936266124
 30
0
 11
1628.984329627259
 21
304.877090725572
 31
0
  0
LINE
  8
1
 62
7
 10
1599.019394857055
 20
306.7439027773223
 30
0
 11
1599.019394857055
 21
303.1320972394805
 31
0
  0
LINE
  8
1
 62
7
 10
1657.565336403074
 20
306.390349386728
 30
0
 11
1657.565336403074
 21
306.7439027773214
 31
0
  0
LINE
  8
1
 62
7
 10
1655.480937828772
 20
297.0211845360062
 30
0
 11
1650.065336403074
 21
297.0211845360062
 31
0
  0
LINE
  8
1
 62
7
 10
1657.065336403074
 20
300.0095982402812
 30
0
 11
1657.065336403074
 21
302.7815921760911
 31
0
  0
LINE
  8
1
 62
7
 10
1657.565336403074
 20
303.2815921760911
 30
0
 11
1657.065336403074
 21
303.2815921760911
 31
0
  0
LINE
  8
1
 62
7
 10
1657.565336403074
 20
306.390349386728
 30
0
 11
1632.913398118004
 21
306.3903493867289
 31
0
  0
LINE
  8
1
 62
7
 10
1599.019394857055
 20
306.7439027773223
 30
0
 11
1657.565336403074
 21
306.7439027773214
 31
0
  0
LINE
  8
1
 62
7
 10
1650.065336403074
 20
297.0211845360062
 30
0
 11
1650.065336403074
 21
299.319281574862
 31
0
  0
LINE
  8
1
 62
7
 10
1650.065336403074
 20
299.319281574862
 30
0
 11
1599.774805265968
 21
299.3192815748628
 31
0
  0
LINE
  8
1
 62
7
 10
1652.065336403074
 20
298.4353980983793
 30
0
 11
1656.393757393148
 21
298.4353980983793
 31
0
  0
LINE
  8
1
 62
7
 10
1657.065336403074
 20
305.3296892149473
 30
0
 11
1634.413398118004
 21
305.3296892149483
 31
0
  0
LINE
  8
1
 62
7
 10
1634.413398118004
 20
305.3296892149483
 30
0
 11
1634.413398118004
 21
300.7334951372361
 31
0
  0
LINE
  8
1
 62
7
 10
1634.413398118004
 20
300.7334951372361
 30
0
 11
1652.065336403074
 21
300.7334951372351
 31
0
  0
LINE
  8
1
 62
7
 10
1652.065336403074
 20
300.7334951372351
 30
0
 11
1652.065336403074
 21
298.4353980983793
 31
0
  0
LINE
  8
1
 62
7
 10
1632.913398118004
 20
299.6728349654567
 30
0
 11
1650.565336403074
 21
299.6728349654558
 31
0
  0
LINE
  8
1
 62
7
 10
1650.565336403074
 20
299.6728349654558
 30
0
 11
1650.565336403074
 21
297.3747379265998
 31
0
  0
LINE
  8
1
 62
7
 10
1650.565336403074
 20
297.3747379265998
 30
0
 11
1655.741693400073
 21
297.3747379265996
 31
0
  0
LINE
  8
1
 62
7
 10
1657.065336403074
 20
303.2815921760911
 30
0
 11
1657.065336403074
 21
305.3296892149473
 31
0
  0
LINE
  8
1
 62
7
 10
1657.065336403074
 20
302.7815921760911
 30
0
 11
1657.559191825309
 21
302.7815921760911
 31
0
  0
LINE
  8
1
 62
7
 10
1657.065336403074
 20
302.7815921760911
 30
0
 11
1657.065336403074
 21
303.2815921760911
 31
0
  0
LINE
  8
1
 62
7
 10
1632.913398118004
 20
306.3903493867289
 30
0
 11
1632.913398118004
 21
299.6728349654567
 31
0
  0
LINE
  8
1
 62
7
 10
1599.565336403074
 20
300.7334951372361
 30
0
 11
1630.913398118004
 21
300.7334951372358
 31
0
  0
LINE
  8
1
 62
7
 10
1599.565336403074
 20
305.3296892149483
 30
0
 11
1599.565336403074
 21
300.7334951372361
 31
0
  0
LINE
  8
1
 62
7
 10
1630.913398118004
 20
300.7334951372358
 30
0
 11
1630.913398118004
 21
305.3296892149483
 31
0
  0
LINE
  8
1
 62
7
 10
1630.913398118004
 20
305.3296892149483
 30
0
 11
1599.565336403074
 21
305.3296892149483
 31
0
  0
LINE
  8
1
 62
7
 10
1656.839952961646
 20
302.8315921760919
 30
0
 11
1656.839952961646
 21
303.231592176092
 31
0
  0
LINE
  8
1
 62
7
 10
1655.579948098087
 20
302.8315921760919
 30
0
 11
1656.839952961646
 21
302.8315921760919
 31
0
  0
LINE
  8
1
 62
7
 10
1655.579948098087
 20
303.231592176092
 30
0
 11
1655.579948098087
 21
302.8315921760919
 31
0
  0
LINE
  8
1
 62
7
 10
1656.839952961646
 20
303.231592176092
 30
0
 11
1655.579948098087
 21
303.231592176092
 31
0
  0
LINE
  8
1
 62
7
 10
1657.565336403074
 20
303.1320972394805
 30
0
 11
1657.565336403074
 21
306.390349386728
 31
0
  0
LINE
  8
1
 62
7
 10
1626.010336403074
 20
309.5009720013108
 30
0
 11
1626.370336403074
 21
309.5009720013108
 31
0
  0
LINE
  8
1
 62
7
 10
1628.800336403074
 20
307.2689720013108
 30
0
 11
1629.160336403073
 21
307.2689720013108
 31
0
  0
LINE
  8
1
 62
7
 10
1627.405336403073
 20
307.2689720013108
 30
0
 11
1627.765336403074
 21
307.2689720013108
 31
0
  0
LINE
  8
1
 62
7
 10
1626.010336403074
 20
307.2689720013108
 30
0
 11
1626.370336403074
 21
307.2689720013108
 31
0
  0
LINE
  8
1
 62
7
 10
1629.160336403073
 20
307.2689720013108
 30
0
 11
1629.160336403073
 21
308.6234720013107
 31
0
  0
LINE
  8
1
 62
7
 10
1628.800336403074
 20
307.2689720013108
 30
0
 11
1628.800336403074
 21
308.6234720013107
 31
0
  0
LINE
  8
1
 62
7
 10
1627.765336403074
 20
307.2689720013108
 30
0
 11
1627.765336403074
 21
308.6234720013107
 31
0
  0
LINE
  8
1
 62
7
 10
1627.405336403073
 20
307.2689720013108
 30
0
 11
1627.405336403073
 21
308.6234720013107
 31
0
  0
LINE
  8
1
 62
7
 10
1626.370336403074
 20
309.3321327099718
 30
0
 11
1626.370336403074
 21
309.5009720013108
 31
0
  0
LINE
  8
1
 62
7
 10
1626.370336403074
 20
307.2689720013108
 30
0
 11
1626.370336403074
 21
308.6234720013107
 31
0
  0
LINE
  8
1
 62
7
 10
1626.010336403074
 20
307.2689720013108
 30
0
 11
1626.010336403074
 21
309.5009720013108
 31
0
  0
LINE
  8
1
 62
7
 10
1628.800336403074
 20
307.2689720013108
 30
0
 11
1629.160336403073
 21
307.2689720013108
 31
0
  0
LINE
  8
1
 62
7
 10
1627.405336403073
 20
307.2689720013108
 30
0
 11
1627.765336403074
 21
307.2689720013108
 31
0
  0
LINE
  8
1
 62
7
 10
1626.010336403074
 20
307.2689720013108
 30
0
 11
1626.370336403074
 21
307.2689720013108
 31
0
  0
LINE
  8
1
 62
7
 10
1599.019394857055
 20
301.9979612313035
 30
0
 11
1599.019394857055
 21
302.3515146218969
 31
0
  0
LINE
  8
1
 62
7
 10
1599.019394857055
 20
302.3515146218969
 30
0
 11
1599.019394857055
 21
308.4685239797806
 31
0
  0
LINE
  8
1
 62
7
 10
1607.519394857055
 20
293.8515146218969
 30
0
 11
1649.065336403074
 21
293.8515146218969
 31
0
  0
LINE
  8
1
 62
7
 10
1657.565336403074
 20
301.9979612313035
 30
0
 11
1657.565336403074
 21
302.3515146218969
 31
0
  0
LINE
  8
1
 62
7
 10
1657.565336403074
 20
302.3515146218969
 30
0
 11
1657.565336403074
 21
308.4685239797806
 31
0
  0
LINE
  8
1
 62
7
 10
1607.519394857055
 20
293.4979612313035
 30
0
 11
1649.065336403074
 21
293.4979612313035
 31
0
  0
LINE
  8
1
 62
7
 10
1664.332832356383
 20
313.543902777322
 30
0
 11
1592.297840449764
 21
313.543902777322
 31
0
  0
LINE
  8
1
 62
7
 10
1601.019394857055
 20
310.4685239797806
 30
0
 11
1655.565336403074
 21
310.4685239797806
 31
0
  0
LINE
  8
1
 62
7
 10
1636.315336403074
 20
334.043902777322
 30
0
 11
1667.604520665413
 21
334.043902777322
 31
0
  0
LINE
  8
1
 62
7
 10
1589.026152140735
 20
334.043902777322
 30
0
 11
1620.315336403074
 21
334.043902777322
 31
0
  0
LINE
  8
1
 62
7
 10
1636.315336403074
 20
333.543902777322
 30
0
 11
1637.315336403074
 21
332.543902777322
 31
0
  0
LINE
  8
1
 62
7
 10
1619.315336403074
 20
332.543902777322
 30
0
 11
1620.315336403074
 21
333.543902777322
 31
0
  0
LINE
  8
1
 62
7
 10
1637.315336403074
 20
332.043902777322
 30
0
 11
1637.315336403074
 21
332.543902777322
 31
0
  0
LINE
  8
1
 62
7
 10
1636.315336403074
 20
333.543902777322
 30
0
 11
1636.315336403074
 21
334.043902777322
 31
0
  0
LINE
  8
1
 62
7
 10
1620.315336403074
 20
333.543902777322
 30
0
 11
1620.315336403074
 21
334.043902777322
 31
0
  0
LINE
  8
1
 62
7
 10
1619.315336403074
 20
332.043902777322
 30
0
 11
1619.315336403074
 21
332.543902777322
 31
0
  0
LINE
  8
1
 62
7
 10
1619.315336403074
 20
332.043902777322
 30
0
 11
1637.315336403074
 21
332.043902777322
 31
0
  0
LINE
  8
1
 62
7
 10
1653.178221365991
 20
307.092949553485
 30
0
 11
1653.178221365991
 21
309.342949553485
 31
0
  0
LINE
  8
1
 62
7
 10
1653.178221365991
 20
309.342949553485
 30
0
 11
1653.580408865991
 21
309.342949553485
 31
0
  0
LINE
  8
1
 62
7
 10
1653.580408865991
 20
309.342949553485
 30
0
 11
1653.580408865991
 21
307.374199553485
 31
0
  0
LINE
  8
1
 62
7
 10
1653.580408865991
 20
307.374199553485
 30
0
 11
1655.116033865991
 21
307.374199553485
 31
0
  0
LINE
  8
1
 62
7
 10
1655.116033865991
 20
307.374199553485
 30
0
 11
1655.116033865991
 21
307.092949553485
 31
0
  0
LINE
  8
1
 62
7
 10
1655.116033865991
 20
307.092949553485
 30
0
 11
1653.178221365991
 21
307.092949553485
 31
0
  0
LINE
  8
1
 62
7
 10
1630.379529414215
 20
309.0059947011827
 30
0
 11
1630.460779414215
 21
309.0059947011827
 31
0
  0
LINE
  8
1
 62
7
 10
1630.460779414215
 20
309.0059947011827
 30
0
 11
1630.562341914215
 21
308.9856822011828
 31
0
  0
LINE
  8
1
 62
7
 10
1630.562341914215
 20
308.9856822011828
 30
0
 11
1630.643591914215
 21
308.9247447011828
 31
0
  0
LINE
  8
1
 62
7
 10
1630.643591914215
 20
308.9247447011828
 30
0
 11
1630.704529414214
 21
308.8434947011828
 31
0
  0
LINE
  8
1
 62
7
 10
1630.704529414214
 20
308.8434947011828
 30
0
 11
1630.724841914214
 21
308.7622447011827
 31
0
  0
LINE
  8
1
 62
7
 10
1630.724841914214
 20
308.7622447011827
 30
0
 11
1630.724841914214
 21
308.6809947011828
 31
0
  0
LINE
  8
1
 62
7
 10
1630.724841914214
 20
308.6809947011828
 30
0
 11
1630.704529414214
 21
308.5997447011827
 31
0
  0
LINE
  8
1
 62
7
 10
1630.704529414214
 20
308.5997447011827
 30
0
 11
1630.643591914215
 21
308.5184947011828
 31
0
  0
LINE
  8
1
 62
7
 10
1630.643591914215
 20
308.5184947011828
 30
0
 11
1630.562341914215
 21
308.4575572011827
 31
0
  0
LINE
  8
1
 62
7
 10
1630.562341914215
 20
308.4575572011827
 30
0
 11
1630.460779414215
 21
308.4372447011828
 31
0
  0
LINE
  8
1
 62
7
 10
1630.460779414215
 20
308.4372447011828
 30
0
 11
1630.379529414215
 21
308.4372447011828
 31
0
  0
LINE
  8
1
 62
7
 10
1630.379529414215
 20
308.4372447011828
 30
0
 11
1630.277966914215
 21
308.4575572011827
 31
0
  0
LINE
  8
1
 62
7
 10
1630.277966914215
 20
308.4575572011827
 30
0
 11
1630.196716914214
 21
308.5184947011828
 31
0
  0
LINE
  8
1
 62
7
 10
1630.196716914214
 20
308.5184947011828
 30
0
 11
1630.135779414215
 21
308.5997447011827
 31
0
  0
LINE
  8
1
 62
7
 10
1630.135779414215
 20
308.5997447011827
 30
0
 11
1630.115466914214
 21
308.6809947011828
 31
0
  0
LINE
  8
1
 62
7
 10
1630.115466914214
 20
308.6809947011828
 30
0
 11
1630.115466914214
 21
308.7622447011827
 31
0
  0
LINE
  8
1
 62
7
 10
1630.115466914214
 20
308.7622447011827
 30
0
 11
1629.871716914215
 21
308.7622447011827
 31
0
  0
LINE
  8
1
 62
7
 10
1629.871716914215
 20
308.7622447011827
 30
0
 11
1629.871716914215
 21
308.6606822011827
 31
0
  0
LINE
  8
1
 62
7
 10
1629.871716914215
 20
308.6606822011827
 30
0
 11
1629.912341914214
 21
308.5184947011828
 31
0
  0
LINE
  8
1
 62
7
 10
1629.912341914214
 20
308.5184947011828
 30
0
 11
1629.973279414215
 21
308.4169322011828
 31
0
  0
LINE
  8
1
 62
7
 10
1629.973279414215
 20
308.4169322011828
 30
0
 11
1630.074841914215
 21
308.3153697011828
 31
0
  0
LINE
  8
1
 62
7
 10
1630.074841914215
 20
308.3153697011828
 30
0
 11
1630.196716914214
 21
308.2544322011827
 31
0
  0
LINE
  8
1
 62
7
 10
1630.196716914214
 20
308.2544322011827
 30
0
 11
1630.359216914215
 21
308.2138072011828
 31
0
  0
LINE
  8
1
 62
7
 10
1630.359216914215
 20
308.2138072011828
 30
0
 11
1630.481091914215
 21
308.2138072011828
 31
0
  0
LINE
  8
1
 62
7
 10
1630.481091914215
 20
308.2138072011828
 30
0
 11
1630.643591914215
 21
308.2544322011827
 31
0
  0
LINE
  8
1
 62
7
 10
1630.643591914215
 20
308.2544322011827
 30
0
 11
1630.765466914215
 21
308.3153697011828
 31
0
  0
LINE
  8
1
 62
7
 10
1630.765466914215
 20
308.3153697011828
 30
0
 11
1630.867029414215
 21
308.4169322011828
 31
0
  0
LINE
  8
1
 62
7
 10
1630.867029414215
 20
308.4169322011828
 30
0
 11
1630.927966914214
 21
308.5184947011828
 31
0
  0
LINE
  8
1
 62
7
 10
1630.927966914214
 20
308.5184947011828
 30
0
 11
1630.968591914215
 21
308.6606822011827
 31
0
  0
LINE
  8
1
 62
7
 10
1630.968591914215
 20
308.6606822011827
 30
0
 11
1630.968591914215
 21
308.7622447011827
 31
0
  0
LINE
  8
1
 62
7
 10
1630.968591914215
 20
308.7622447011827
 30
0
 11
1630.927966914214
 21
308.9044322011827
 31
0
  0
LINE
  8
1
 62
7
 10
1630.927966914214
 20
308.9044322011827
 30
0
 11
1630.846716914215
 21
309.0263072011828
 31
0
  0
LINE
  8
1
 62
7
 10
1630.846716914215
 20
309.0263072011828
 30
0
 11
1630.745154414215
 21
309.1075572011827
 31
0
  0
LINE
  8
1
 62
7
 10
1630.745154414215
 20
309.1075572011827
 30
0
 11
1630.785779414215
 21
309.1481822011828
 31
0
  0
LINE
  8
1
 62
7
 10
1630.785779414215
 20
309.1481822011828
 30
0
 11
1630.867029414215
 21
309.2700572011827
 31
0
  0
LINE
  8
1
 62
7
 10
1630.867029414215
 20
309.2700572011827
 30
0
 11
1630.887341914215
 21
309.3716197011827
 31
0
  0
LINE
  8
1
 62
7
 10
1630.887341914215
 20
309.3716197011827
 30
0
 11
1630.887341914215
 21
309.4528697011828
 31
0
  0
LINE
  8
1
 62
7
 10
1630.887341914215
 20
309.4528697011828
 30
0
 11
1630.867029414215
 21
309.5544322011828
 31
0
  0
LINE
  8
1
 62
7
 10
1630.867029414215
 20
309.5544322011828
 30
0
 11
1630.785779414215
 21
309.6763072011827
 31
0
  0
LINE
  8
1
 62
7
 10
1630.785779414215
 20
309.6763072011827
 30
0
 11
1630.704529414214
 21
309.7575572011828
 31
0
  0
LINE
  8
1
 62
7
 10
1630.704529414214
 20
309.7575572011828
 30
0
 11
1630.582654414215
 21
309.8184947011827
 31
0
  0
LINE
  8
1
 62
7
 10
1630.582654414215
 20
309.8184947011827
 30
0
 11
1630.481091914215
 21
309.8388072011828
 31
0
  0
LINE
  8
1
 62
7
 10
1630.481091914215
 20
309.8388072011828
 30
0
 11
1630.359216914215
 21
309.8388072011828
 31
0
  0
LINE
  8
1
 62
7
 10
1630.359216914215
 20
309.8388072011828
 30
0
 11
1630.257654414215
 21
309.8184947011827
 31
0
  0
LINE
  8
1
 62
7
 10
1630.257654414215
 20
309.8184947011827
 30
0
 11
1630.135779414215
 21
309.7575572011828
 31
0
  0
LINE
  8
1
 62
7
 10
1630.135779414215
 20
309.7575572011828
 30
0
 11
1630.054529414215
 21
309.6763072011827
 31
0
  0
LINE
  8
1
 62
7
 10
1630.054529414215
 20
309.6763072011827
 30
0
 11
1629.973279414215
 21
309.5544322011828
 31
0
  0
LINE
  8
1
 62
7
 10
1629.973279414215
 20
309.5544322011828
 30
0
 11
1629.952966914215
 21
309.4528697011828
 31
0
  0
LINE
  8
1
 62
7
 10
1629.952966914215
 20
309.4528697011828
 30
0
 11
1629.952966914215
 21
309.3716197011827
 31
0
  0
LINE
  8
1
 62
7
 10
1629.952966914215
 20
309.3716197011827
 30
0
 11
1630.176404414215
 21
309.3716197011827
 31
0
  0
LINE
  8
1
 62
7
 10
1630.176404414215
 20
309.3716197011827
 30
0
 11
1630.176404414215
 21
309.4528697011828
 31
0
  0
LINE
  8
1
 62
7
 10
1630.176404414215
 20
309.4528697011828
 30
0
 11
1630.196716914214
 21
309.5138072011827
 31
0
  0
LINE
  8
1
 62
7
 10
1630.196716914214
 20
309.5138072011827
 30
0
 11
1630.237341914215
 21
309.5747447011827
 31
0
  0
LINE
  8
1
 62
7
 10
1630.237341914215
 20
309.5747447011827
 30
0
 11
1630.298279414214
 21
309.6153697011827
 31
0
  0
LINE
  8
1
 62
7
 10
1630.298279414214
 20
309.6153697011827
 30
0
 11
1630.379529414215
 21
309.6356822011828
 31
0
  0
LINE
  8
1
 62
7
 10
1630.379529414215
 20
309.6356822011828
 30
0
 11
1630.460779414215
 21
309.6356822011828
 31
0
  0
LINE
  8
1
 62
7
 10
1630.460779414215
 20
309.6356822011828
 30
0
 11
1630.542029414215
 21
309.6153697011827
 31
0
  0
LINE
  8
1
 62
7
 10
1630.542029414215
 20
309.6153697011827
 30
0
 11
1630.602966914214
 21
309.5747447011827
 31
0
  0
LINE
  8
1
 62
7
 10
1630.602966914214
 20
309.5747447011827
 30
0
 11
1630.643591914215
 21
309.5138072011827
 31
0
  0
LINE
  8
1
 62
7
 10
1630.643591914215
 20
309.5138072011827
 30
0
 11
1630.663904414215
 21
309.4528697011828
 31
0
  0
LINE
  8
1
 62
7
 10
1630.663904414215
 20
309.4528697011828
 30
0
 11
1630.663904414215
 21
309.3716197011827
 31
0
  0
LINE
  8
1
 62
7
 10
1630.663904414215
 20
309.3716197011827
 30
0
 11
1630.643591914215
 21
309.3106822011827
 31
0
  0
LINE
  8
1
 62
7
 10
1630.643591914215
 20
309.3106822011827
 30
0
 11
1630.602966914214
 21
309.2497447011828
 31
0
  0
LINE
  8
1
 62
7
 10
1630.602966914214
 20
309.2497447011828
 30
0
 11
1630.542029414215
 21
309.2091197011827
 31
0
  0
LINE
  8
1
 62
7
 10
1630.542029414215
 20
309.2091197011827
 30
0
 11
1630.460779414215
 21
309.1888072011828
 31
0
  0
LINE
  8
1
 62
7
 10
1630.460779414215
 20
309.1888072011828
 30
0
 11
1630.379529414215
 21
309.1888072011828
 31
0
  0
LINE
  8
1
 62
7
 10
1630.379529414215
 20
309.1888072011828
 30
0
 11
1630.379529414215
 21
309.0059947011827
 31
0
  0
LINE
  8
1
 62
2
  6
DASHDOT
 10
1740.34951386545
 20
323.043902777322
 30
0
 11
1511.58256257212
 21
323.043902777322
 31
0
  0
LINE
  8
1
 62
2
  6
DASHDOT
 10
1628.315336403074
 20
372.543902777322
 30
0
 11
1628.315336403074
 21
273.543902777322
 31
0
  0
LINE
  8
1
 62
2
  6
DASHDOT
 10
1628.315336403073
 20
248.306989288337
 30
0
 11
1628.315336403073
 21
126.3077671429633
 31
0
  0
LINE
  8
1
 62
7
 10
1579.315336403074
 20
319.043902777322
 30
0
 11
1583.493466741044
 21
319.043902777322
 31
0
  0
LINE
  8
1
 62
7
 10
1579.315336403074
 20
327.043902777322
 30
0
 11
1579.315336403074
 21
319.043902777322
 31
0
  0
LINE
  8
1
 62
7
 10
1579.315336403074
 20
327.043902777322
 30
0
 11
1583.493466741044
 21
327.043902777322
 31
0
  0
LINE
  8
1
 62
7
 10
1624.315336403074
 20
278.2220331152921
 30
0
 11
1624.315336403074
 21
274.0439027773219
 31
0
  0
LINE
  8
1
 62
7
 10
1632.315336403074
 20
278.2220331152921
 30
0
 11
1632.315336403074
 21
274.0439027773219
 31
0
  0
LINE
  8
1
 62
7
 10
1624.315336403074
 20
372.043902777322
 30
0
 11
1632.315336403074
 21
372.043902777322
 31
0
  0
LINE
  8
1
 62
7
 10
1624.315336403074
 20
372.043902777322
 30
0
 11
1624.315336403074
 21
367.8657724393519
 31
0
  0
LINE
  8
1
 62
7
 10
1632.315336403074
 20
372.043902777322
 30
0
 11
1632.315336403074
 21
367.8657724393519
 31
0
  0
LINE
  8
1
 62
7
 10
1624.315336403074
 20
274.0439027773219
 30
0
 11
1632.315336403074
 21
274.0439027773219
 31
0
  0
LINE
  8
1
 62
7
 10
1677.315336403074
 20
319.043902777322
 30
0
 11
1677.315336403074
 21
327.043902777322
 31
0
  0
LINE
  8
1
 62
7
 10
1673.137206065103
 20
319.043902777322
 30
0
 11
1677.315336403074
 21
319.043902777322
 31
0
  0
LINE
  8
1
 62
7
 10
1673.137206065103
 20
327.043902777322
 30
0
 11
1677.315336403074
 21
327.043902777322
 31
0
  0
LINE
  8
1
 62
7
 10
1580.315336403073
 20
163.7213555915702
 30
0
 11
1585.815336403073
 21
163.7213555915702
 31
0
  0
LINE
  8
1
 62
7
 10
1579.315336403073
 20
164.7213555915702
 30
0
 11
1579.315336403073
 21
174.7213555915702
 31
0
  0
LINE
  8
1
 62
7
 10
1580.315336403073
 20
175.7213555915702
 30
0
 11
1585.815336403073
 21
175.7213555915702
 31
0
  0
LINE
  8
1
 62
7
 10
1587.815336403073
 20
184.7213555915702
 30
0
 11
1668.815336403073
 21
184.7213555915702
 31
0
  0
LINE
  8
1
 62
7
 10
1670.815336403073
 20
177.7213555915702
 30
0
 11
1585.815336403073
 21
177.7213555915701
 31
0
  0
LINE
  8
1
 62
7
 10
1585.815336403073
 20
160.2213555915701
 30
0
 11
1670.815336403073
 21
160.2213555915701
 31
0
  0
LINE
  8
1
 62
7
 10
1668.815336403073
 20
184.7213555915702
 30
0
 11
1668.815336403073
 21
179.7213555915702
 31
0
  0
LINE
  8
1
 62
7
 10
1670.815336403073
 20
177.7213555915702
 30
0
 11
1670.815336403073
 21
175.7213555915702
 31
0
  0
LINE
  8
1
 62
7
 10
1587.815336403073
 20
184.7213555915702
 30
0
 11
1587.815336403073
 21
179.7213555915702
 31
0
  0
LINE
  8
1
 62
7
 10
1585.815336403073
 20
177.7213555915701
 30
0
 11
1585.815336403073
 21
160.2213555915701
 31
0
  0
LINE
  8
1
 62
7
 10
1677.315336403073
 20
174.7213555915702
 30
0
 11
1677.315336403073
 21
164.7213555915702
 31
0
  0
LINE
  8
1
 62
7
 10
1670.815336403073
 20
175.7213555915702
 30
0
 11
1676.315336403073
 21
175.7213555915702
 31
0
  0
LINE
  8
1
 62
7
 10
1670.815336403073
 20
175.7213555915702
 30
0
 11
1670.815336403073
 21
163.7213555915702
 31
0
  0
LINE
  8
1
 62
7
 10
1670.815336403073
 20
163.7213555915702
 30
0
 11
1676.315336403073
 21
163.7213555915702
 31
0
  0
LINE
  8
1
 62
7
 10
1670.815336403073
 20
163.7213555915702
 30
0
 11
1670.815336403073
 21
160.2213555915701
 31
0
  0
LINE
  8
1
 62
7
 10
1625.315336403073
 20
175.7213555915702
 30
0
 11
1631.315336403073
 21
175.7213555915702
 31
0
  0
LINE
  8
1
 62
7
 10
1632.315336403073
 20
174.7213555915702
 30
0
 11
1632.315336403073
 21
164.7213555915702
 31
0
  0
LINE
  8
1
 62
7
 10
1631.315336403073
 20
163.7213555915702
 30
0
 11
1625.315336403073
 21
163.7213555915702
 31
0
  0
LINE
  8
1
 62
7
 10
1624.315336403073
 20
164.7213555915702
 30
0
 11
1624.315336403073
 21
174.7213555915702
 31
0
  0
LINE
  8
1
 62
2
 10
1520.068855142745
 20
159.3310293018267
 30
0
 11
1518.385941003521
 21
159.3310293018267
 31
0
  0
LINE
  8
1
 62
2
 10
1518.385941003521
 20
159.3310293018267
 30
0
 11
1517.963435589319
 21
159.2320343524605
 31
0
  0
LINE
  8
1
 62
2
 10
1517.963435589319
 20
159.2320343524605
 30
0
 11
1517.613399507746
 21
159.0340444537283
 31
0
  0
LINE
  8
1
 62
2
 10
1517.613399507746
 20
159.0340444537283
 30
0
 11
1517.362358375539
 21
158.8360545549961
 31
0
  0
LINE
  8
1
 62
2
 10
1517.362358375539
 20
158.8360545549961
 30
0
 11
1517.183786575961
 21
158.5390697068977
 31
0
  0
LINE
  8
1
 62
2
 10
1517.183786575961
 20
158.5390697068977
 30
0
 11
1516.978689159645
 21
158.1430899094333
 31
0
  0
LINE
  8
1
 62
2
 10
1516.978689159645
 20
158.1430899094333
 30
0
 11
1516.554279291846
 21
156.5591707195754
 31
0
  0
LINE
  8
1
 62
2
 10
1516.554279291846
 20
156.5591707195754
 30
0
 11
1516.547171774263
 21
156.1631909221109
 31
0
  0
LINE
  8
1
 62
2
 10
1516.547171774263
 20
156.1631909221109
 30
0
 11
1516.566589873416
 21
155.8662060740126
 31
0
  0
LINE
  8
1
 62
2
 10
1516.566589873416
 20
155.8662060740126
 30
0
 11
1516.711528538674
 21
155.6682161752804
 31
0
  0
LINE
  8
1
 62
2
 10
1516.711528538674
 20
155.6682161752804
 30
0
 11
1517.054457102664
 21
155.4702262765481
 31
0
  0
LINE
  8
1
 62
2
 10
1517.054457102664
 20
155.4702262765481
 30
0
 11
1517.324916334025
 21
155.371231327182
 31
0
  0
LINE
  8
1
 62
2
 10
1517.324916334025
 20
155.371231327182
 30
0
 11
1519.007830473249
 21
155.371231327182
 31
0
  0
LINE
  8
1
 62
2
 10
1519.007830473249
 20
155.371231327182
 30
0
 11
1519.591394041472
 21
157.5491202132366
 31
0
  0
LINE
  8
1
 62
2
 10
1519.591394041472
 20
157.5491202132366
 30
0
 11
1518.60144454781
 21
157.5491202132366
 31
0
  0
LINE
  8
1
 62
2
 10
1520.93848713429
 20
158.1430899094333
 30
0
 11
1522.444733927532
 21
159.3310293018267
 31
0
  0
LINE
  8
1
 62
2
 10
1522.444733927532
 20
159.3310293018267
 30
0
 11
1521.383709258035
 21
155.371231327182
 31
0
  0
LINE
  8
1
 62
2
 10
1524.65260574518
 20
156.9798992543814
 30
0
 11
1524.982588909734
 21
156.9798992543814
 31
0
  0
LINE
  8
1
 62
2
 10
1524.982588909734
 20
156.9798992543814
 30
0
 11
1525.082059972499
 21
157.3511303145043
 31
0
  0
LINE
  8
1
 62
2
 10
1525.082059972499
 20
157.3511303145043
 30
0
 11
1524.752076807946
 21
157.3511303145043
 31
0
  0
LINE
  8
1
 62
2
 10
1524.752076807946
 20
157.3511303145043
 30
0
 11
1524.65260574518
 21
156.9798992543814
 31
0
  0
LINE
  8
1
 62
2
 10
1527.274163893721
 20
158.1430899094333
 30
0
 11
1528.780410686963
 21
159.3310293018267
 31
0
  0
LINE
  8
1
 62
2
 10
1528.780410686963
 20
159.3310293018267
 30
0
 11
1527.719386017467
 21
155.371231327182
 31
0
  0
LINE
  8
1
 62
2
 10
1528.90732540986
 20
155.371231327182
 30
0
 11
1531.552269269215
 21
159.3310293018267
 31
0
  0
LINE
  8
1
 62
2
 10
1534.522117750198
 20
159.3310293018267
 30
0
 11
1531.891388926011
 21
156.1631909221109
 31
0
  0
LINE
  8
1
 62
2
 10
1531.891388926011
 20
156.1631909221109
 30
0
 11
1534.267267710797
 21
156.1631909221109
 31
0
  0
LINE
  8
1
 62
2
 10
1533.8855029485
 20
156.9551505170398
 30
0
 11
1533.461093080701
 21
155.371231327182
 31
0
  0
LINE
  8
1
 62
2
 10
1540.0658349147
 20
159.3310293018267
 30
0
 11
1539.457650183337
 21
158.5390697068977
 31
0
  0
LINE
  8
1
 62
2
 10
1539.457650183337
 20
158.5390697068977
 30
0
 11
1539.047455350705
 21
157.7471101119688
 31
0
  0
LINE
  8
1
 62
2
 10
1539.047455350705
 20
157.7471101119688
 30
0
 11
1538.835250416806
 21
156.9551505170398
 31
0
  0
LINE
  8
1
 62
2
 10
1538.835250416806
 20
156.9551505170398
 30
0
 11
1538.821035381639
 21
156.1631909221109
 31
0
  0
LINE
  8
1
 62
2
 10
1538.821035381639
 20
156.1631909221109
 30
0
 11
1539.004810245204
 21
155.371231327182
 31
0
  0
LINE
  8
1
 62
2
 10
1543.035683395684
 20
159.3310293018267
 30
0
 11
1540.404954571497
 21
156.1631909221109
 31
0
  0
LINE
  8
1
 62
2
 10
1540.404954571497
 20
156.1631909221109
 30
0
 11
1542.780833356283
 21
156.1631909221109
 31
0
  0
LINE
  8
1
 62
2
 10
1542.399068593986
 20
156.9551505170398
 30
0
 11
1541.974658726188
 21
155.371231327182
 31
0
  0
LINE
  8
1
 62
2
 10
1544.499285083425
 20
158.1430899094333
 30
0
 11
1546.005531876667
 21
159.3310293018267
 31
0
  0
LINE
  8
1
 62
2
 10
1546.005531876667
 20
159.3310293018267
 30
0
 11
1544.944507207171
 21
155.371231327182
 31
0
  0
LINE
  8
1
 62
2
 10
1546.132446599564
 20
155.371231327182
 30
0
 11
1546.158972216302
 21
155.4702262765481
 31
0
  0
LINE
  8
1
 62
2
 10
1546.158972216302
 20
155.4702262765481
 30
0
 11
1546.257967165668
 21
155.4702262765481
 31
0
  0
LINE
  8
1
 62
2
 10
1546.257967165668
 20
155.4702262765481
 30
0
 11
1546.231441548931
 21
155.371231327182
 31
0
  0
LINE
  8
1
 62
2
 10
1546.231441548931
 20
155.371231327182
 30
0
 11
1546.132446599564
 21
155.371231327182
 31
0
  0
LINE
  8
1
 62
2
 10
1550.173725878018
 20
157.1531404157721
 30
0
 11
1548.787796586892
 21
157.1531404157721
 31
0
  0
LINE
  8
1
 62
2
 10
1548.787796586892
 20
157.1531404157721
 30
0
 11
1548.517337355532
 21
157.2521353651382
 31
0
  0
LINE
  8
1
 62
2
 10
1548.517337355532
 20
157.2521353651382
 30
0
 11
1548.273403740908
 21
157.4501252638704
 31
0
  0
LINE
  8
1
 62
2
 10
1548.273403740908
 20
157.4501252638704
 30
0
 11
1548.154990692388
 21
157.7471101119688
 31
0
  0
LINE
  8
1
 62
2
 10
1548.154990692388
 20
157.7471101119688
 30
0
 11
1548.162098209971
 21
158.1430899094333
 31
0
  0
LINE
  8
1
 62
2
 10
1548.162098209971
 20
158.1430899094333
 30
0
 11
1548.215149443446
 21
158.3410798081655
 31
0
  0
LINE
  8
1
 62
2
 10
1548.215149443446
 20
158.3410798081655
 30
0
 11
1548.420246859762
 21
158.73705960563
 31
0
  0
LINE
  8
1
 62
2
 10
1548.420246859762
 20
158.73705960563
 30
0
 11
1548.697813608706
 21
159.0340444537283
 31
0
  0
LINE
  8
1
 62
2
 10
1548.697813608706
 20
159.0340444537283
 30
0
 11
1549.04784969028
 21
159.2320343524605
 31
0
  0
LINE
  8
1
 62
2
 10
1549.04784969028
 20
159.2320343524605
 30
0
 11
1549.371360155115
 21
159.3310293018267
 31
0
  0
LINE
  8
1
 62
2
 10
1549.371360155115
 20
159.3310293018267
 30
0
 11
1549.965329851312
 21
159.3310293018267
 31
0
  0
LINE
  8
1
 62
2
 10
1549.965329851312
 20
159.3310293018267
 30
0
 11
1550.235789082673
 21
159.2320343524605
 31
0
  0
LINE
  8
1
 62
2
 10
1550.235789082673
 20
159.2320343524605
 30
0
 11
1550.479722697296
 21
159.0340444537283
 31
0
  0
LINE
  8
1
 62
2
 10
1550.479722697296
 20
159.0340444537283
 30
0
 11
1550.598135745817
 21
158.73705960563
 31
0
  0
LINE
  8
1
 62
2
 10
1550.598135745817
 20
158.73705960563
 30
0
 11
1550.591028228233
 21
158.3410798081655
 31
0
  0
LINE
  8
1
 62
2
 10
1550.591028228233
 20
158.3410798081655
 30
0
 11
1550.405348911071
 21
157.6481151626027
 31
0
  0
LINE
  8
1
 62
2
 10
1550.405348911071
 20
157.6481151626027
 30
0
 11
1550.173725878018
 21
157.1531404157721
 31
0
  0
LINE
  8
1
 62
2
 10
1550.173725878018
 20
157.1531404157721
 30
0
 11
1549.968628461702
 21
156.7571606183076
 31
0
  0
LINE
  8
1
 62
2
 10
1549.968628461702
 20
156.7571606183076
 30
0
 11
1549.565541146654
 21
156.3611808208432
 31
0
  0
LINE
  8
1
 62
2
 10
1549.565541146654
 20
156.3611808208432
 30
0
 11
1548.713422800667
 21
155.7672111246465
 31
0
  0
LINE
  8
1
 62
2
 10
1548.713422800667
 20
155.7672111246465
 30
0
 11
1547.716365789422
 21
155.371231327182
 31
0
  0
LINE
  8
1
 62
2
 10
1551.725916387152
 20
158.1430899094333
 30
0
 11
1553.232163180394
 21
159.3310293018267
 31
0
  0
LINE
  8
1
 62
2
 10
1553.232163180394
 20
159.3310293018267
 30
0
 11
1552.171138510898
 21
155.371231327182
 31
0
  0
LINE
  8
1
 62
2
 10
1556.132840939139
 20
156.8561555676737
 30
0
 11
1555.874692289348
 21
156.262185871477
 31
0
  0
LINE
  8
1
 62
2
 10
1555.874692289348
 20
156.262185871477
 30
0
 11
1555.570599923666
 21
155.8662060740126
 31
0
  0
LINE
  8
1
 62
2
 10
1555.570599923666
 20
155.8662060740126
 30
0
 11
1555.319558791459
 21
155.6682161752804
 31
0
  0
LINE
  8
1
 62
2
 10
1555.319558791459
 20
155.6682161752804
 30
0
 11
1554.969522709886
 21
155.4702262765481
 31
0
  0
LINE
  8
1
 62
2
 10
1554.969522709886
 20
155.4702262765481
 30
0
 11
1554.64601224505
 21
155.371231327182
 31
0
  0
LINE
  8
1
 62
2
 10
1554.64601224505
 20
155.371231327182
 30
0
 11
1554.448022346318
 21
155.371231327182
 31
0
  0
LINE
  8
1
 62
2
 10
1554.448022346318
 20
155.371231327182
 30
0
 11
1554.177563114957
 21
155.4702262765481
 31
0
  0
LINE
  8
1
 62
2
 10
1554.177563114957
 20
155.4702262765481
 30
0
 11
1553.933629500334
 21
155.6682161752804
 31
0
  0
LINE
  8
1
 62
2
 10
1553.933629500334
 20
155.6682161752804
 30
0
 11
1553.788690835076
 21
155.8662060740126
 31
0
  0
LINE
  8
1
 62
2
 10
1553.788690835076
 20
155.8662060740126
 30
0
 11
1553.696803403294
 21
156.262185871477
 31
0
  0
LINE
  8
1
 62
2
 10
1553.696803403294
 20
156.262185871477
 30
0
 11
1553.756962154352
 21
156.8561555676737
 31
0
  0
LINE
  8
1
 62
2
 10
1553.756962154352
 20
156.8561555676737
 30
0
 11
1554.022218321726
 21
157.8461050613349
 31
0
  0
LINE
  8
1
 62
2
 10
1554.022218321726
 20
157.8461050613349
 30
0
 11
1554.280366971517
 21
158.4400747575316
 31
0
  0
LINE
  8
1
 62
2
 10
1554.280366971517
 20
158.4400747575316
 30
0
 11
1554.584459337199
 21
158.8360545549961
 31
0
  0
LINE
  8
1
 62
2
 10
1554.584459337199
 20
158.8360545549961
 30
0
 11
1554.835500469406
 21
159.0340444537283
 31
0
  0
LINE
  8
1
 62
2
 10
1554.835500469406
 20
159.0340444537283
 30
0
 11
1555.185536550979
 21
159.2320343524605
 31
0
  0
LINE
  8
1
 62
2
 10
1555.185536550979
 20
159.2320343524605
 30
0
 11
1555.509047015815
 21
159.3310293018267
 31
0
  0
LINE
  8
1
 62
2
 10
1555.509047015815
 20
159.3310293018267
 30
0
 11
1555.707036914547
 21
159.3310293018267
 31
0
  0
LINE
  8
1
 62
2
 10
1555.707036914547
 20
159.3310293018267
 30
0
 11
1555.977496145908
 21
159.2320343524605
 31
0
  0
LINE
  8
1
 62
2
 10
1555.977496145908
 20
159.2320343524605
 30
0
 11
1556.221429760531
 21
159.0340444537283
 31
0
  0
LINE
  8
1
 62
2
 10
1556.221429760531
 20
159.0340444537283
 30
0
 11
1556.366368425789
 21
158.8360545549961
 31
0
  0
LINE
  8
1
 62
2
 10
1556.366368425789
 20
158.8360545549961
 30
0
 11
1556.458255857571
 21
158.4400747575316
 31
0
  0
LINE
  8
1
 62
2
 10
1556.458255857571
 20
158.4400747575316
 30
0
 11
1556.398097106513
 21
157.8461050613349
 31
0
  0
LINE
  8
1
 62
2
 10
1556.398097106513
 20
157.8461050613349
 30
0
 11
1556.132840939139
 21
156.8561555676737
 31
0
  0
LINE
  8
1
 62
2
 10
1558.015490726226
 20
158.2173361214578
 30
0
 11
1557.319193286869
 21
155.6187187005973
 31
0
  0
LINE
  8
1
 62
2
 10
1557.319193286869
 20
155.6187187005973
 30
0
 11
1558.749120333268
 21
155.6187187005973
 31
0
  0
LINE
  8
1
 62
2
 10
1560.179047379667
 20
155.6187187005973
 30
0
 11
1560.875344819024
 21
158.2173361214578
 31
0
  0
LINE
  8
1
 62
2
 10
1559.677516919077
 20
159.0835419284114
 30
0
 11
1558.749120333268
 21
155.6187187005973
 31
0
  0
LINE
  8
1
 62
2
 10
1558.749120333268
 20
155.6187187005973
 30
0
 11
1560.179047379667
 21
155.6187187005973
 31
0
  0
LINE
  8
1
 62
2
 10
1561.625411323763
 20
158.1430899094333
 30
0
 11
1563.131658117006
 21
159.3310293018267
 31
0
  0
LINE
  8
1
 62
2
 10
1563.131658117006
 20
159.3310293018267
 30
0
 11
1562.070633447509
 21
155.371231327182
 31
0
  0
LINE
  8
1
 62
2
 10
1564.00129010855
 20
158.1430899094333
 30
0
 11
1565.507536901793
 21
159.3310293018267
 31
0
  0
LINE
  8
1
 62
2
 10
1565.507536901793
 20
159.3310293018267
 30
0
 11
1564.446512232296
 21
155.371231327182
 31
0
  0
LINE
  8
1
 62
2
 10
1566.695476294186
 20
159.3310293018267
 30
0
 11
1566.879251157751
 21
158.5390697068977
 31
0
  0
LINE
  8
1
 62
2
 10
1566.879251157751
 20
158.5390697068977
 30
0
 11
1566.865036122584
 21
157.7471101119688
 31
0
  0
LINE
  8
1
 62
2
 10
1566.865036122584
 20
157.7471101119688
 30
0
 11
1566.652831188685
 21
156.9551505170398
 31
0
  0
LINE
  8
1
 62
2
 10
1566.652831188685
 20
156.9551505170398
 30
0
 11
1566.242636356053
 21
156.1631909221109
 31
0
  0
LINE
  8
1
 62
2
 10
1566.242636356053
 20
156.1631909221109
 30
0
 11
1565.634451624689
 21
155.371231327182
 31
0
  0
LINE
  8
1
 62
2
 10
1533.717585562318
 20
90.16368141166029
 30
0
 11
1535.013947994494
 21
90.69401149755021
 31
0
  0
LINE
  8
1
 62
2
 10
1534.778245734098
 20
90.82659401902269
 30
0
 11
1534.896096864296
 21
91.48950662638508
 31
0
  0
LINE
  8
1
 62
2
 10
1535.013947994494
 20
91.88725419080251
 30
0
 11
1533.835436692516
 21
91.88725419080251
 31
0
  0
LINE
  8
1
 62
2
 10
1533.953287822714
 20
92.5501667981649
 30
0
 11
1534.424692343505
 21
92.5501667981649
 31
0
  0
LINE
  8
1
 62
2
 10
1535.131799124691
 20
93.21307940552728
 30
0
 11
1534.424692343505
 21
94.00857453436215
 31
0
  0
LINE
  8
1
 62
2
 10
1534.424692343505
 20
94.00857453436215
 30
0
 11
1533.953287822714
 21
93.08049688405481
 31
0
  0
LINE
  8
1
 62
2
 10
1533.953287822714
 20
93.08049688405481
 30
0
 11
1533.481883301923
 21
92.15241923374747
 31
0
  0
LINE
  8
1
 62
2
 10
1533.835436692516
 20
91.48950662638508
 30
0
 11
1534.071138952912
 21
90.82659401902269
 31
0
  0
LINE
  8
1
 62
2
 10
1534.424692343505
 20
90.42884645460525
 30
0
 11
1534.424692343505
 21
92.5501667981649
 31
0
  0
LINE
  8
1
 62
2
 10
1535.131799124691
 20
92.41758427669242
 30
0
 11
1537.253119468251
 21
92.41758427669242
 31
0
  0
LINE
  8
1
 62
2
 10
1537.253119468251
 20
91.62208914785755
 30
0
 11
1535.249650254889
 21
91.62208914785755
 31
0
  0
LINE
  8
1
 62
2
 10
1535.131799124691
 20
90.29626393313278
 30
0
 11
1535.603203645482
 21
91.09175906196764
 31
0
  0
LINE
  8
1
 62
2
 10
1535.603203645482
 20
91.09175906196764
 30
0
 11
1535.956757036076
 21
92.41758427669242
 31
0
  0
LINE
  8
1
 62
2
 10
1535.956757036076
 20
92.41758427669242
 30
0
 11
1536.074608166273
 21
94.00857453436215
 31
0
  0
LINE
  8
1
 62
2
 10
1535.249650254889
 20
93.61082696994473
 30
0
 11
1537.017417207855
 21
93.61082696994473
 31
0
  0
LINE
  8
1
 62
2
 10
1537.017417207855
 20
92.94791436258232
 30
0
 11
1535.367501385087
 21
92.94791436258232
 31
0
  0
LINE
  8
1
 62
2
 10
1536.78171494746
 20
92.15241923374747
 30
0
 11
1536.78171494746
 21
90.03109889018782
 31
0
  0
LINE
  8
1
 62
2
 10
1536.78171494746
 20
90.03109889018782
 30
0
 11
1536.310310426669
 21
90.03109889018782
 31
0
  0
LINE
  8
1
 62
2
 10
1536.310310426669
 20
90.56142897607774
 30
0
 11
1536.074608166273
 21
91.22434158344012
 31
0
  0
LINE
  8
1
 62
2
 10
1534.424692343505
 20
92.5501667981649
 30
0
 11
1535.013947994494
 21
92.5501667981649
 31
0
  0
LINE
  8
1
 62
2
 10
1537.960226249437
 20
90.42884645460525
 30
0
 11
1538.549481900426
 21
90.95917654049516
 31
0
  0
LINE
  8
1
 62
2
 10
1538.549481900426
 20
90.95917654049516
 30
0
 11
1538.549481900426
 21
92.41758427669242
 31
0
  0
LINE
  8
1
 62
2
 10
1538.549481900426
 20
92.41758427669242
 30
0
 11
1537.960226249437
 21
92.41758427669242
 31
0
  0
LINE
  8
1
 62
2
 10
1538.549481900426
 20
90.95917654049516
 30
0
 11
1538.785184160822
 21
90.42884645460525
 31
0
  0
LINE
  8
1
 62
2
 10
1538.785184160822
 20
90.42884645460525
 30
0
 11
1539.020886421217
 21
90.29626393313278
 31
0
  0
LINE
  8
1
 62
2
 10
1539.020886421217
 20
90.29626393313278
 30
0
 11
1541.377909025172
 21
90.29626393313278
 31
0
  0
LINE
  8
1
 62
2
 10
1540.788653374184
 20
90.95917654049516
 30
0
 11
1540.788653374184
 21
92.01983671227498
 31
0
  0
LINE
  8
1
 62
2
 10
1540.788653374184
 20
92.01983671227498
 30
0
 11
1539.492290942008
 21
92.01983671227498
 31
0
  0
LINE
  8
1
 62
2
 10
1539.492290942008
 20
92.01983671227498
 30
0
 11
1539.492290942008
 21
90.95917654049516
 31
0
  0
LINE
  8
1
 62
2
 10
1539.492290942008
 20
90.95917654049516
 30
0
 11
1540.788653374184
 21
90.95917654049516
 31
0
  0
LINE
  8
1
 62
2
 10
1541.260057894974
 20
92.5501667981649
 30
0
 11
1540.081546592997
 21
92.5501667981649
 31
0
  0
LINE
  8
1
 62
2
 10
1540.081546592997
 20
92.5501667981649
 30
0
 11
1540.081546592997
 21
94.27373957730711
 31
0
  0
LINE
  8
1
 62
2
 10
1541.024355634579
 20
93.47824444847224
 30
0
 11
1539.256588681613
 21
93.47824444847224
 31
0
  0
LINE
  8
1
 62
2
 10
1539.492290942008
 20
94.14115705583463
 30
0
 11
1539.256588681613
 21
93.47824444847224
 31
0
  0
LINE
  8
1
 62
2
 10
1539.256588681613
 20
93.47824444847224
 30
0
 11
1539.020886421217
 21
93.08049688405481
 31
0
  0
LINE
  8
1
 62
2
 10
1538.549481900426
 20
93.61082696994473
 30
0
 11
1538.195928509833
 21
94.14115705583463
 31
0
  0
LINE
  8
1
 62
2
 10
1537.960226249437
 20
90.42884645460525
 30
0
 11
1537.84237511924
 21
90.29626393313278
 31
0
  0
LINE
  8
1
 62
2
 10
1537.960226249437
 20
92.41758427669242
 30
0
 11
1537.84237511924
 21
92.41758427669242
 31
0
  0
LINE
  8
1
 62
2
 10
1540.081546592997
 20
92.5501667981649
 30
0
 11
1539.020886421217
 21
92.5501667981649
 31
0
  0
LINE
  8
1
 62
2
 10
1543.145675978139
 20
94.27373957730711
 30
0
 11
1542.909973717743
 21
93.87599201288967
 31
0
  0
LINE
  8
1
 62
2
 10
1542.909973717743
 20
93.87599201288967
 30
0
 11
1542.55642032715
 21
93.34566192699977
 31
0
  0
LINE
  8
1
 62
2
 10
1542.55642032715
 20
93.34566192699977
 30
0
 11
1542.202866936557
 21
92.94791436258232
 31
0
  0
LINE
  8
1
 62
2
 10
1542.792122587545
 20
93.61082696994473
 30
0
 11
1543.852782759325
 21
93.61082696994473
 31
0
  0
LINE
  8
1
 62
2
 10
1543.852782759325
 20
93.61082696994473
 30
0
 11
1543.852782759325
 21
90.03109889018782
 31
0
  0
LINE
  8
1
 62
2
 10
1542.674271457348
 20
92.5501667981649
 30
0
 11
1545.031294061303
 21
92.5501667981649
 31
0
  0
LINE
  8
1
 62
2
 10
1542.674271457348
 20
92.41758427669242
 30
0
 11
1542.674271457348
 21
91.48950662638508
 31
0
  0
LINE
  8
1
 62
2
 10
1541.967164676161
 20
91.48950662638508
 30
0
 11
1542.674271457348
 21
91.48950662638508
 31
0
  0
LINE
  8
1
 62
2
 10
1542.674271457348
 20
91.48950662638508
 30
0
 11
1545.738400842489
 21
91.48950662638508
 31
0
  0
LINE
  8
1
 62
2
 10
1543.852782759325
 20
93.61082696994473
 30
0
 11
1545.149145191501
 21
93.61082696994473
 31
0
  0
LINE
  8
1
 62
2
 10
1555.349488644274
 20
76.88713465887702
 30
0
 11
1555.349488644274
 21
81.12977534599631
 31
0
  0
LINE
  8
1
 62
2
 10
1555.938744295263
 20
79.93653265274401
 30
0
 11
1554.642381863087
 21
79.93653265274401
 31
0
  0
LINE
  8
1
 62
2
 10
1554.524530732889
 20
78.21295987360179
 30
0
 11
1554.995935253681
 21
79.00845500243666
 31
0
  0
LINE
  8
1
 62
2
 10
1554.995935253681
 20
79.00845500243666
 30
0
 11
1555.349488644274
 21
79.80395013127152
 31
0
  0
LINE
  8
1
 62
2
 10
1555.349488644274
 20
79.80395013127152
 30
0
 11
1555.938744295263
 21
78.87587248096418
 31
0
  0
LINE
  8
1
 62
2
 10
1556.05659542546
 20
77.68262978771189
 30
0
 11
1556.763702206647
 21
78.47812491654675
 31
0
  0
LINE
  8
1
 62
2
 10
1556.763702206647
 20
78.47812491654675
 30
0
 11
1557.352957857636
 21
79.67136760979905
 31
0
  0
LINE
  8
1
 62
2
 10
1558.060064638822
 20
79.80395013127152
 30
0
 11
1556.292297685856
 21
79.80395013127152
 31
0
  0
LINE
  8
1
 62
2
 10
1557.352957857636
 20
80.99719282452382
 30
0
 11
1557.470808987833
 21
77.15229970182197
 31
0
  0
LINE
  8
1
 62
2
 10
1557.470808987833
 20
77.15229970182197
 30
0
 11
1557.11725559724
 21
77.15229970182197
 31
0
  0
LINE
  8
1
 62
2
 10
1558.767171420009
 20
77.68262978771189
 30
0
 11
1559.120724810602
 21
78.34554239507428
 31
0
  0
LINE
  8
1
 62
2
 10
1559.120724810602
 20
78.34554239507428
 30
0
 11
1559.592129331393
 21
79.53878508832656
 31
0
  0
LINE
  8
1
 62
2
 10
1560.417087242777
 20
79.53878508832656
 30
0
 11
1558.767171420009
 21
79.53878508832656
 31
0
  0
LINE
  8
1
 62
2
 10
1558.885022550207
 20
80.59944526010639
 30
0
 11
1559.2385759408
 21
80.06911517421648
 31
0
  0
LINE
  8
1
 62
2
 10
1559.945682721986
 20
80.20169769568896
 30
0
 11
1560.181384982382
 21
80.73202778157886
 31
0
  0
LINE
  8
1
 62
2
 10
1559.592129331393
 20
80.99719282452382
 30
0
 11
1559.592129331393
 21
79.53878508832656
 31
0
  0
LINE
  8
1
 62
2
 10
1559.945682721986
 20
79.00845500243666
 30
0
 11
1560.181384982382
 21
78.47812491654675
 31
0
  0
LINE
  8
1
 62
2
 10
1560.417087242777
 20
78.34554239507428
 30
0
 11
1562.420556456139
 21
78.74328995949171
 31
0
  0
LINE
  8
1
 62
2
 10
1561.124194023964
 20
79.27362004538162
 30
0
 11
1560.770640633371
 21
79.80395013127152
 31
0
  0
LINE
  8
1
 62
2
 10
1561.124194023964
 20
80.33428021716144
 30
0
 11
1560.770640633371
 21
80.86461030305135
 31
0
  0
LINE
  8
1
 62
2
 10
1561.713449674953
 20
81.12977534599631
 30
0
 11
1561.713449674953
 21
76.88713465887702
 31
0
  0
LINE
  8
1
 62
2
 10
1559.592129331393
 20
79.53878508832656
 30
0
 11
1559.592129331393
 21
77.01971718034949
 31
0
  0
LINE
  8
1
 62
2
 10
1563.127663237326
 20
77.15229970182197
 30
0
 11
1563.127663237326
 21
78.21295987360179
 31
0
  0
LINE
  8
1
 62
2
 10
1563.127663237326
 20
78.21295987360179
 30
0
 11
1564.070472278908
 21
78.21295987360179
 31
0
  0
LINE
  8
1
 62
2
 10
1564.070472278908
 20
78.21295987360179
 30
0
 11
1564.070472278908
 21
77.15229970182197
 31
0
  0
LINE
  8
1
 62
2
 10
1564.070472278908
 20
77.15229970182197
 30
0
 11
1563.127663237326
 21
77.15229970182197
 31
0
  0
LINE
  8
1
 62
2
 10
1563.127663237326
 20
78.74328995949171
 30
0
 11
1564.070472278908
 21
78.74328995949171
 31
0
  0
LINE
  8
1
 62
2
 10
1564.070472278908
 20
79.40620256685409
 30
0
 11
1563.127663237326
 21
79.40620256685409
 31
0
  0
LINE
  8
1
 62
2
 10
1562.89196097693
 20
79.93653265274401
 30
0
 11
1564.424025669501
 21
79.93653265274401
 31
0
  0
LINE
  8
1
 62
2
 10
1563.009812107128
 20
80.59944526010639
 30
0
 11
1564.070472278908
 21
80.59944526010639
 31
0
  0
LINE
  8
1
 62
2
 10
1564.777579060095
 20
80.46686273863392
 30
0
 11
1566.07394149227
 21
80.46686273863392
 31
0
  0
LINE
  8
1
 62
2
 10
1566.07394149227
 20
80.46686273863392
 30
0
 11
1566.07394149227
 21
79.14103752390913
 31
0
  0
LINE
  8
1
 62
2
 10
1566.07394149227
 20
79.14103752390913
 30
0
 11
1564.777579060095
 21
79.14103752390913
 31
0
  0
LINE
  8
1
 62
2
 10
1564.777579060095
 20
79.14103752390913
 30
0
 11
1564.777579060095
 21
77.15229970182197
 31
0
  0
LINE
  8
1
 62
2
 10
1564.777579060095
 20
77.15229970182197
 30
0
 11
1565.248983580885
 21
77.15229970182197
 31
0
  0
LINE
  8
1
 62
2
 10
1565.248983580885
 20
77.15229970182197
 30
0
 11
1566.427494882863
 21
77.15229970182197
 31
0
  0
LINE
  8
1
 62
2
 10
1566.427494882863
 20
77.15229970182197
 30
0
 11
1566.427494882863
 21
77.5500472662394
 31
0
  0
LINE
  8
1
 62
2
 10
1568.077410705632
 20
80.86461030305135
 30
0
 11
1568.077410705632
 21
79.93653265274401
 31
0
  0
LINE
  8
1
 62
2
 10
1568.077410705632
 20
79.93653265274401
 30
0
 11
1569.963028788796
 21
79.93653265274401
 31
0
  0
LINE
  8
1
 62
2
 10
1569.963028788796
 20
79.93653265274401
 30
0
 11
1569.963028788796
 21
80.86461030305135
 31
0
  0
LINE
  8
1
 62
2
 10
1569.963028788796
 20
80.86461030305135
 30
0
 11
1568.077410705632
 21
80.86461030305135
 31
0
  0
LINE
  8
1
 62
2
 10
1567.252452794247
 20
79.27362004538162
 30
0
 11
1568.548815226423
 21
79.27362004538162
 31
0
  0
LINE
  8
1
 62
2
 10
1568.548815226423
 20
79.27362004538162
 30
0
 11
1568.195261835829
 21
77.94779483065683
 31
0
  0
LINE
  8
1
 62
2
 10
1568.313112966027
 20
78.47812491654675
 30
0
 11
1569.963028788796
 21
78.47812491654675
 31
0
  0
LINE
  8
1
 62
2
 10
1569.963028788796
 20
78.47812491654675
 30
0
 11
1569.7273265284
 21
77.68262978771189
 31
0
  0
LINE
  8
1
 62
2
 10
1569.7273265284
 20
77.68262978771189
 30
0
 11
1569.373773137807
 21
77.01971718034949
 31
0
  0
LINE
  8
1
 62
2
 10
1569.373773137807
 20
77.01971718034949
 30
0
 11
1569.138070877412
 21
76.88713465887702
 31
0
  0
LINE
  8
1
 62
2
 10
1569.138070877412
 20
76.88713465887702
 30
0
 11
1568.666666356621
 21
77.15229970182197
 31
0
  0
LINE
  8
1
 62
2
 10
1568.548815226423
 20
79.27362004538162
 30
0
 11
1570.670135569982
 21
79.27362004538162
 31
0
  0
LINE
  8
1
 62
2
 10
1561.713820481237
 20
72.65989966863278
 30
0
 11
1559.168236068965
 21
72.65989966863278
 31
0
  0
LINE
  8
1
 62
2
 10
1562.138084549949
 20
74.56908797783646
 30
0
 11
1559.168236068965
 21
74.56908797783646
 31
0
  0
LINE
  8
1
 62
2
 10
1559.168236068965
 20
74.56908797783646
 30
0
 11
1559.168236068965
 21
72.65989966863278
 31
0
  0
LINE
  8
1
 62
2
 10
1559.168236068965
 20
72.44776763427682
 30
0
 11
1559.168236068965
 21
70.32644729071717
 31
0
  0
LINE
  8
1
 62
2
 10
1559.168236068965
 20
70.32644729071717
 30
0
 11
1562.138084549949
 21
70.32644729071717
 31
0
  0
LINE
  8
1
 62
2
 10
1559.168236068965
 20
72.65989966863278
 30
0
 11
1559.168236068965
 21
72.44776763427682
 31
0
  0
LINE
  8
1
 62
2
 10
1527.942880182628
 20
87.33004132090153
 30
0
 11
1527.707177922232
 21
86.93229375648409
 31
0
  0
LINE
  8
1
 62
2
 10
1527.707177922232
 20
86.93229375648409
 30
0
 11
1527.471475661837
 21
86.2693811491217
 31
0
  0
LINE
  8
1
 62
2
 10
1527.471475661837
 20
86.2693811491217
 30
0
 11
1527.471475661837
 21
84.14806080556205
 31
0
  0
LINE
  8
1
 62
2
 10
1527.471475661837
 20
84.14806080556205
 30
0
 11
1527.707177922232
 21
83.48514819819967
 31
0
  0
LINE
  8
1
 62
2
 10
1527.707177922232
 20
83.48514819819967
 30
0
 11
1527.942880182628
 21
83.08740063378224
 31
0
  0
LINE
  8
1
 62
2
 10
1530.535605046979
 20
83.3525656767272
 30
0
 11
1530.535605046979
 21
85.87163358470427
 31
0
  0
LINE
  8
1
 62
2
 10
1530.535605046979
 20
85.87163358470427
 30
0
 11
1533.364032171725
 21
85.87163358470427
 31
0
  0
LINE
  8
1
 62
2
 10
1533.364032171725
 20
85.87163358470427
 30
0
 11
1533.364032171725
 21
83.3525656767272
 31
0
  0
LINE
  8
1
 62
2
 10
1533.364032171725
 20
83.3525656767272
 30
0
 11
1530.535605046979
 21
83.3525656767272
 31
0
  0
LINE
  8
1
 62
2
 10
1530.771307307374
 20
84.28064332703454
 30
0
 11
1531.124860697967
 21
84.67839089145197
 31
0
  0
LINE
  8
1
 62
2
 10
1531.124860697967
 20
84.67839089145197
 30
0
 11
1531.478414088561
 21
85.47388602028684
 31
0
  0
LINE
  8
1
 62
2
 10
1531.478414088561
 20
85.47388602028684
 30
0
 11
1531.478414088561
 21
86.93229375648409
 31
0
  0
LINE
  8
1
 62
2
 10
1530.182051656385
 20
86.93229375648409
 30
0
 11
1531.478414088561
 21
86.93229375648409
 31
0
  0
LINE
  8
1
 62
2
 10
1532.303371999945
 20
86.93229375648409
 30
0
 11
1532.303371999945
 21
84.81097341292445
 31
0
  0
LINE
  8
1
 62
2
 10
1532.303371999945
 20
84.81097341292445
 30
0
 11
1532.421223130143
 21
84.5458083699795
 31
0
  0
LINE
  8
1
 62
2
 10
1532.421223130143
 20
84.5458083699795
 30
0
 11
1533.010478781132
 21
84.5458083699795
 31
0
  0
LINE
  8
1
 62
2
 10
1533.010478781132
 20
84.5458083699795
 30
0
 11
1533.128329911329
 21
84.81097341292445
 31
0
  0
LINE
  8
1
 62
2
 10
1532.303371999945
 20
86.93229375648409
 30
0
 11
1533.717585562318
 21
86.93229375648409
 31
0
  0
LINE
  8
1
 62
2
 10
1531.478414088561
 20
86.93229375648409
 30
0
 11
1532.303371999945
 21
86.93229375648409
 31
0
  0
LINE
  8
1
 62
2
 10
1534.306841213307
 20
83.3525656767272
 30
0
 11
1534.424692343505
 21
83.75031324114462
 31
0
  0
LINE
  8
1
 62
2
 10
1534.424692343505
 20
83.75031324114462
 30
0
 11
1534.542543473702
 21
84.94355593439693
 31
0
  0
LINE
  8
1
 62
2
 10
1534.542543473702
 20
84.94355593439693
 30
0
 11
1534.542543473702
 21
87.19745879942904
 31
0
  0
LINE
  8
1
 62
2
 10
1534.542543473702
 20
87.19745879942904
 30
0
 11
1537.84237511924
 21
87.19745879942904
 31
0
  0
LINE
  8
1
 62
2
 10
1537.84237511924
 20
86.2693811491217
 30
0
 11
1537.135268338053
 21
86.2693811491217
 31
0
  0
LINE
  8
1
 62
2
 10
1536.192459296471
 20
86.2693811491217
 30
0
 11
1535.013947994493
 21
86.2693811491217
 31
0
  0
LINE
  8
1
 62
2
 10
1535.603203645482
 20
86.93229375648409
 30
0
 11
1535.603203645482
 21
86.2693811491217
 31
0
  0
LINE
  8
1
 62
2
 10
1534.896096864296
 20
85.20872097734188
 30
0
 11
1535.249650254889
 21
85.60646854175931
 31
0
  0
LINE
  8
1
 62
2
 10
1535.249650254889
 20
85.60646854175931
 30
0
 11
1535.603203645482
 21
86.2693811491217
 31
0
  0
LINE
  8
1
 62
2
 10
1535.838905905878
 20
85.87163358470427
 30
0
 11
1536.192459296471
 21
85.47388602028684
 31
0
  0
LINE
  8
1
 62
2
 10
1536.192459296471
 20
85.0761384558694
 30
0
 11
1536.546012687064
 21
85.34130349881436
 31
0
  0
LINE
  8
1
 62
2
 10
1536.546012687064
 20
85.34130349881436
 30
0
 11
1537.135268338053
 21
86.2693811491217
 31
0
  0
LINE
  8
1
 62
2
 10
1537.135268338053
 20
86.93229375648409
 30
0
 11
1537.135268338053
 21
86.2693811491217
 31
0
  0
LINE
  8
1
 62
2
 10
1537.135268338053
 20
86.2693811491217
 30
0
 11
1537.488821728646
 21
85.73905106323178
 31
0
  0
LINE
  8
1
 62
2
 10
1537.488821728646
 20
85.73905106323178
 30
0
 11
1538.078077379635
 21
85.0761384558694
 31
0
  0
LINE
  8
1
 62
2
 10
1537.370970598449
 20
84.5458083699795
 30
0
 11
1535.485352515284
 21
84.5458083699795
 31
0
  0
LINE
  8
1
 62
2
 10
1535.485352515284
 20
84.5458083699795
 30
0
 11
1535.485352515284
 21
83.88289576261711
 31
0
  0
LINE
  8
1
 62
2
 10
1535.485352515284
 20
83.21998315525471
 30
0
 11
1537.370970598449
 21
83.21998315525471
 31
0
  0
LINE
  8
1
 62
2
 10
1537.370970598449
 20
83.21998315525471
 30
0
 11
1537.370970598449
 21
83.88289576261711
 31
0
  0
LINE
  8
1
 62
2
 10
1535.485352515284
 20
83.88289576261711
 30
0
 11
1537.370970598449
 21
83.88289576261711
 31
0
  0
LINE
  8
1
 62
2
 10
1537.370970598449
 20
83.88289576261711
 30
0
 11
1537.370970598449
 21
84.5458083699795
 31
0
  0
LINE
  8
1
 62
2
 10
1535.485352515284
 20
83.88289576261711
 30
0
 11
1535.485352515284
 21
83.21998315525471
 31
0
  0
LINE
  8
1
 62
2
 10
1537.135268338053
 20
86.2693811491217
 30
0
 11
1537.135268338053
 21
84.94355593439693
 31
0
  0
LINE
  8
1
 62
2
 10
1537.135268338053
 20
86.2693811491217
 30
0
 11
1536.428161556866
 21
86.2693811491217
 31
0
  0
LINE
  8
1
 62
2
 10
1535.603203645482
 20
86.2693811491217
 30
0
 11
1535.603203645482
 21
84.94355593439693
 31
0
  0
LINE
  8
1
 62
2
 10
1540.43509998359
 20
83.08740063378224
 30
0
 11
1540.43509998359
 21
86.79971123501161
 31
0
  0
LINE
  8
1
 62
2
 10
1542.202866936557
 20
86.79971123501161
 30
0
 11
1540.43509998359
 21
86.79971123501161
 31
0
  0
LINE
  8
1
 62
2
 10
1541.024355634579
 20
85.87163358470427
 30
0
 11
1541.731462415766
 21
85.0761384558694
 31
0
  0
LINE
  8
1
 62
2
 10
1540.43509998359
 20
86.79971123501161
 30
0
 11
1538.667333030624
 21
86.79971123501161
 31
0
  0
LINE
  8
1
 62
2
 10
1543.263527108337
 20
85.87163358470427
 30
0
 11
1543.381378238534
 21
86.13679862764923
 31
0
  0
LINE
  8
1
 62
2
 10
1543.381378238534
 20
86.13679862764923
 30
0
 11
1543.852782759325
 21
86.40196367059419
 31
0
  0
LINE
  8
1
 62
2
 10
1543.852782759325
 20
86.40196367059419
 30
0
 11
1544.324187280116
 21
86.53454619206666
 31
0
  0
LINE
  8
1
 62
2
 10
1544.324187280116
 20
86.53454619206666
 30
0
 11
1545.149145191501
 21
86.53454619206666
 31
0
  0
LINE
  8
1
 62
2
 10
1545.149145191501
 20
86.53454619206666
 30
0
 11
1545.620549712292
 21
86.40196367059419
 31
0
  0
LINE
  8
1
 62
2
 10
1545.620549712292
 20
86.40196367059419
 30
0
 11
1546.091954233083
 21
86.13679862764923
 31
0
  0
LINE
  8
1
 62
2
 10
1546.091954233083
 20
86.13679862764923
 30
0
 11
1546.20980536328
 21
85.87163358470427
 31
0
  0
LINE
  8
1
 62
2
 10
1546.20980536328
 20
85.87163358470427
 30
0
 11
1546.20980536328
 21
85.20872097734188
 31
0
  0
LINE
  8
1
 62
2
 10
1546.20980536328
 20
85.20872097734188
 30
0
 11
1546.091954233083
 21
84.94355593439693
 31
0
  0
LINE
  8
1
 62
2
 10
1546.091954233083
 20
84.94355593439693
 30
0
 11
1545.620549712292
 21
84.67839089145197
 31
0
  0
LINE
  8
1
 62
2
 10
1545.620549712292
 20
84.67839089145197
 30
0
 11
1543.734931629128
 21
84.41322584850701
 31
0
  0
LINE
  8
1
 62
2
 10
1543.734931629128
 20
84.41322584850701
 30
0
 11
1543.381378238534
 21
84.14806080556205
 31
0
  0
LINE
  8
1
 62
2
 10
1543.381378238534
 20
84.14806080556205
 30
0
 11
1543.263527108337
 21
83.88289576261711
 31
0
  0
LINE
  8
1
 62
2
 10
1543.263527108337
 20
83.88289576261711
 30
0
 11
1543.145675978139
 21
83.08740063378224
 31
0
  0
LINE
  8
1
 62
2
 10
1543.145675978139
 20
83.08740063378224
 30
0
 11
1546.20980536328
 21
83.08740063378224
 31
0
  0
LINE
  8
1
 62
2
 10
1547.27046553506
 20
86.13679862764923
 30
0
 11
1547.859721186049
 21
86.13679862764923
 31
0
  0
LINE
  8
1
 62
2
 10
1547.859721186049
 20
87.19745879942904
 30
0
 11
1547.859721186049
 21
86.13679862764923
 31
0
  0
LINE
  8
1
 62
2
 10
1547.859721186049
 20
86.13679862764923
 30
0
 11
1547.506167795456
 21
85.0761384558694
 31
0
  0
LINE
  8
1
 62
2
 10
1547.506167795456
 20
85.0761384558694
 30
0
 11
1547.27046553506
 21
84.67839089145197
 31
0
  0
LINE
  8
1
 62
2
 10
1547.27046553506
 20
84.67839089145197
 30
0
 11
1547.152614404862
 21
84.41322584850701
 31
0
  0
LINE
  8
1
 62
2
 10
1547.859721186049
 20
86.13679862764923
 30
0
 11
1548.33112570684
 21
85.0761384558694
 31
0
  0
LINE
  8
1
 62
2
 10
1549.156083618224
 20
87.06487627795657
 30
0
 11
1548.566827967235
 21
86.13679862764923
 31
0
  0
LINE
  8
1
 62
2
 10
1549.39178587862
 20
86.2693811491217
 30
0
 11
1549.038232488027
 21
85.60646854175931
 31
0
  0
LINE
  8
1
 62
2
 10
1549.038232488027
 20
85.60646854175931
 30
0
 11
1548.684679097433
 21
84.94355593439693
 31
0
  0
LINE
  8
1
 62
2
 10
1548.684679097433
 20
84.94355593439693
 30
0
 11
1548.33112570684
 21
84.5458083699795
 31
0
  0
LINE
  8
1
 62
2
 10
1548.920381357829
 20
85.34130349881436
 30
0
 11
1548.920381357829
 21
83.21998315525471
 31
0
  0
LINE
  8
1
 62
2
 10
1549.509637008817
 20
86.79971123501161
 30
0
 11
1550.570297180597
 21
86.79971123501161
 31
0
  0
LINE
  8
1
 62
2
 10
1549.39178587862
 20
85.73905106323178
 30
0
 11
1550.216743790004
 21
85.73905106323178
 31
0
  0
LINE
  8
1
 62
2
 10
1550.216743790004
 20
85.73905106323178
 30
0
 11
1550.216743790004
 21
83.48514819819967
 31
0
  0
LINE
  8
1
 62
2
 10
1550.216743790004
 20
83.48514819819967
 30
0
 11
1550.098892659806
 21
83.21998315525471
 31
0
  0
LINE
  8
1
 62
2
 10
1550.098892659806
 20
83.21998315525471
 30
0
 11
1549.745339269213
 21
83.21998315525471
 31
0
  0
LINE
  8
1
 62
2
 10
1550.216743790004
 20
85.73905106323178
 30
0
 11
1550.805999440993
 21
85.73905106323178
 31
0
  0
LINE
  8
1
 62
2
 10
1547.859721186049
 20
86.13679862764923
 30
0
 11
1547.859721186049
 21
83.21998315525471
 31
0
  0
LINE
  8
1
 62
2
 10
1547.859721186049
 20
86.13679862764923
 30
0
 11
1548.448976837038
 21
86.13679862764923
 31
0
  0
LINE
  8
1
 62
2
 10
1552.927319784553
 20
87.33004132090153
 30
0
 11
1553.163022044948
 21
86.93229375648409
 31
0
  0
LINE
  8
1
 62
2
 10
1553.163022044948
 20
86.93229375648409
 30
0
 11
1553.398724305343
 21
86.2693811491217
 31
0
  0
LINE
  8
1
 62
2
 10
1553.398724305343
 20
86.2693811491217
 30
0
 11
1553.398724305343
 21
84.14806080556205
 31
0
  0
LINE
  8
1
 62
2
 10
1553.398724305343
 20
84.14806080556205
 30
0
 11
1553.163022044948
 21
83.48514819819967
 31
0
  0
LINE
  8
1
 62
2
 10
1553.163022044948
 20
83.48514819819967
 30
0
 11
1552.927319784553
 21
83.08740063378224
 31
0
  0
LINE
  8
1
 62
2
 10
1591.078178502435
 20
383.8207532165743
 30
0
 11
1591.667434153424
 21
384.0859182595192
 31
0
  0
LINE
  8
1
 62
2
 10
1591.667434153424
 20
384.0859182595192
 30
0
 11
1592.37454093461
 21
384.6162483454091
 31
0
  0
LINE
  8
1
 62
2
 10
1592.37454093461
 20
384.6162483454091
 30
0
 11
1592.728094325204
 21
385.146578431299
 31
0
  0
LINE
  8
1
 62
2
 10
1591.078178502435
 20
385.146578431299
 30
0
 11
1592.728094325204
 21
385.146578431299
 31
0
  0
LINE
  8
1
 62
2
 10
1594.142307887577
 20
385.8094910386614
 30
0
 11
1591.667434153424
 21
385.8094910386614
 31
0
  0
LINE
  8
1
 62
2
 10
1591.431731893028
 20
386.4724036460238
 30
0
 11
1594.378010147972
 21
386.4724036460238
 31
0
  0
LINE
  8
1
 62
2
 10
1592.845945455402
 20
387.1353162533862
 30
0
 11
1592.845945455402
 21
385.146578431299
 31
0
  0
LINE
  8
1
 62
2
 10
1592.37454093461
 20
384.6162483454091
 30
0
 11
1592.37454093461
 21
383.2904231306843
 31
0
  0
LINE
  8
1
 62
2
 10
1591.785285283622
 20
383.0252580877394
 30
0
 11
1593.199498845995
 21
383.6881706951018
 31
0
  0
LINE
  8
1
 62
2
 10
1593.43520110639
 20
384.0859182595192
 30
0
 11
1594.260159017775
 21
384.7488308668816
 31
0
  0
LINE
  8
1
 62
2
 10
1592.963796585599
 20
384.881413388354
 30
0
 11
1593.317349976192
 21
384.2185007809916
 31
0
  0
LINE
  8
1
 62
2
 10
1593.317349976192
 20
384.2185007809916
 30
0
 11
1593.43520110639
 21
384.0859182595192
 31
0
  0
LINE
  8
1
 62
2
 10
1594.024456757379
 20
383.4230056521568
 30
0
 11
1594.613712408368
 21
383.1578406092119
 31
0
  0
LINE
  8
1
 62
2
 10
1593.43520110639
 20
384.0859182595192
 30
0
 11
1594.024456757379
 21
383.4230056521568
 31
0
  0
LINE
  8
1
 62
2
 10
1592.845945455402
 20
385.146578431299
 30
0
 11
1594.731563538566
 21
385.146578431299
 31
0
  0
LINE
  8
1
 62
2
 10
1592.728094325204
 20
385.146578431299
 30
0
 11
1592.845945455402
 21
385.146578431299
 31
0
  0
LINE
  8
1
 62
2
 10
1595.910074840543
 20
386.8701512104412
 30
0
 11
1598.502799704894
 21
386.8701512104412
 31
0
  0
LINE
  8
1
 62
2
 10
1599.092055355883
 20
385.8094910386614
 30
0
 11
1597.324288402916
 21
385.8094910386614
 31
0
  0
LINE
  8
1
 62
2
 10
1597.324288402916
 20
385.8094910386614
 30
0
 11
1597.324288402916
 21
383.1578406092119
 31
0
  0
LINE
  8
1
 62
2
 10
1597.324288402916
 20
383.1578406092119
 30
0
 11
1596.852883882125
 21
383.1578406092119
 31
0
  0
LINE
  8
1
 62
2
 10
1595.674372580148
 20
383.5555881736293
 30
0
 11
1596.145777100939
 21
384.0859182595192
 31
0
  0
LINE
  8
1
 62
2
 10
1596.145777100939
 20
384.0859182595192
 30
0
 11
1596.499330491532
 21
384.7488308668816
 31
0
  0
LINE
  8
1
 62
2
 10
1598.031395184103
 20
384.881413388354
 30
0
 11
1598.502799704894
 21
384.2185007809916
 31
0
  0
LINE
  8
1
 62
2
 10
1598.502799704894
 20
384.2185007809916
 30
0
 11
1598.974204225685
 21
383.5555881736293
 31
0
  0
LINE
  8
1
 62
2
 10
1597.324288402916
 20
385.8094910386614
 30
0
 11
1595.55652144995
 21
385.8094910386614
 31
0
  0
LINE
  8
1
 62
2
 10
1600.388417788058
 20
385.6769085171889
 30
0
 11
1601.920482480629
 21
385.6769085171889
 31
0
  0
LINE
  8
1
 62
2
 10
1601.920482480629
 20
385.6769085171889
 30
0
 11
1601.684780220233
 21
383.8207532165743
 31
0
  0
LINE
  8
1
 62
2
 10
1599.799162137069
 20
383.8207532165743
 30
0
 11
1601.684780220233
 21
383.8207532165743
 31
0
  0
LINE
  8
1
 62
2
 10
1601.684780220233
 20
383.8207532165743
 30
0
 11
1603.098993782606
 21
383.8207532165743
 31
0
  0
LINE
  8
1
 62
2
 10
1604.277505084584
 20
384.0859182595192
 30
0
 11
1607.10593220933
 21
384.0859182595192
 31
0
  0
LINE
  8
1
 62
2
 10
1604.748909605375
 20
385.6769085171889
 30
0
 11
1606.752378818737
 21
385.6769085171889
 31
0
  0
LINE
  8
1
 62
2
 10
1609.462954813286
 20
383.1578406092119
 30
0
 11
1610.052210464274
 21
383.5555881736293
 31
0
  0
LINE
  8
1
 62
2
 10
1610.052210464274
 20
383.5555881736293
 30
0
 11
1610.759317245461
 21
384.4836658239366
 31
0
  0
LINE
  8
1
 62
2
 10
1610.759317245461
 20
384.4836658239366
 30
0
 11
1610.995019505856
 21
385.146578431299
 31
0
  0
LINE
  8
1
 62
2
 10
1609.934359334077
 20
385.2791609527715
 30
0
 11
1610.052210464274
 21
384.7488308668816
 31
0
  0
LINE
  8
1
 62
2
 10
1609.109401422692
 20
385.146578431299
 30
0
 11
1609.345103683088
 21
384.6162483454091
 31
0
  0
LINE
  8
1
 62
2
 10
1613.9412977608
 20
386.7375686889687
 30
0
 11
1613.9412977608
 21
383.4230056521568
 31
0
  0
LINE
  8
1
 62
2
 10
1614.412702281591
 20
385.5443259957165
 30
0
 11
1614.766255672185
 21
385.146578431299
 31
0
  0
LINE
  8
1
 62
2
 10
1614.766255672185
 20
385.146578431299
 30
0
 11
1615.00195793258
 21
384.6162483454091
 31
0
  0
LINE
  8
1
 62
2
 10
1617.358980536535
 20
383.4230056521568
 30
0
 11
1617.241129406337
 21
384.3510833024641
 31
0
  0
LINE
  8
1
 62
2
 10
1617.241129406337
 20
384.3510833024641
 30
0
 11
1617.241129406337
 21
385.5443259957165
 31
0
  0
LINE
  8
1
 62
2
 10
1617.241129406337
 20
385.5443259957165
 30
0
 11
1617.476831666733
 21
386.7375686889687
 31
0
  0
LINE
  8
1
 62
2
 10
1618.18393844792
 20
385.8094910386614
 30
0
 11
1619.244598619699
 21
385.9420735601339
 31
0
  0
LINE
  8
1
 62
2
 10
1619.244598619699
 20
385.9420735601339
 30
0
 11
1619.833854270688
 21
386.0746560816064
 31
0
  0
LINE
  8
1
 62
2
 10
1619.126747489502
 20
386.7375686889687
 30
0
 11
1619.244598619699
 21
384.3510833024641
 31
0
  0
LINE
  8
1
 62
2
 10
1619.244598619699
 20
384.3510833024641
 30
0
 11
1619.126747489502
 21
383.8207532165743
 31
0
  0
LINE
  8
1
 62
2
 10
1619.126747489502
 20
383.8207532165743
 30
0
 11
1618.891045229106
 21
383.5555881736293
 31
0
  0
LINE
  8
1
 62
2
 10
1618.891045229106
 20
383.5555881736293
 30
0
 11
1618.419640708315
 21
383.4230056521568
 31
0
  0
LINE
  8
1
 62
2
 10
1618.419640708315
 20
383.4230056521568
 30
0
 11
1618.066087317722
 21
383.6881706951018
 31
0
  0
LINE
  8
1
 62
2
 10
1618.066087317722
 20
383.6881706951018
 30
0
 11
1618.066087317722
 21
383.9533357380467
 31
0
  0
LINE
  8
1
 62
2
 10
1618.066087317722
 20
383.9533357380467
 30
0
 11
1618.655342968711
 21
384.0859182595192
 31
0
  0
LINE
  8
1
 62
2
 10
1618.655342968711
 20
384.0859182595192
 30
0
 11
1619.244598619699
 21
383.9533357380467
 31
0
  0
LINE
  8
1
 62
2
 10
1619.244598619699
 20
383.9533357380467
 30
0
 11
1619.833854270688
 21
383.5555881736293
 31
0
  0
LINE
  8
1
 62
2
 10
1621.483770093457
 20
383.0252580877394
 30
0
 11
1621.483770093457
 21
386.0746560816064
 31
0
  0
LINE
  8
1
 62
2
 10
1620.77666331227
 20
384.881413388354
 30
0
 11
1621.130216702863
 21
385.411743474244
 31
0
  0
LINE
  8
1
 62
2
 10
1621.130216702863
 20
385.411743474244
 30
0
 11
1621.955174614248
 21
387.1353162533862
 31
0
  0
LINE
  8
1
 62
2
 10
1622.308728004841
 20
385.9420735601339
 30
0
 11
1623.015834786027
 21
386.2072386030789
 31
0
  0
LINE
  8
1
 62
2
 10
1623.015834786027
 20
386.2072386030789
 30
0
 11
1624.076494957807
 21
386.7375686889687
 31
0
  0
LINE
  8
1
 62
2
 10
1623.369388176621
 20
386.3398211245513
 30
0
 11
1623.369388176621
 21
383.2904231306843
 31
0
  0
LINE
  8
1
 62
2
 10
1624.547899478598
 20
385.0139959098265
 30
0
 11
1622.073025744445
 21
385.0139959098265
 31
0
  0
LINE
  8
1
 62
2
 10
1622.308728004841
 20
383.2904231306843
 30
0
 11
1623.369388176621
 21
383.2904231306843
 31
0
  0
LINE
  8
1
 62
2
 10
1623.369388176621
 20
383.2904231306843
 30
0
 11
1624.430048348401
 21
383.2904231306843
 31
0
  0
LINE
  8
1
 62
2
 10
1625.255006259785
 20
383.1578406092119
 30
0
 11
1625.490708520181
 21
383.5555881736293
 31
0
  0
LINE
  8
1
 62
2
 10
1625.490708520181
 20
383.5555881736293
 30
0
 11
1625.608559650378
 21
383.9533357380467
 31
0
  0
LINE
  8
1
 62
2
 10
1626.197815301367
 20
383.9533357380467
 30
0
 11
1626.197815301367
 21
383.2904231306843
 31
0
  0
LINE
  8
1
 62
2
 10
1626.197815301367
 20
383.2904231306843
 30
0
 11
1626.315666431565
 21
383.1578406092119
 31
0
  0
LINE
  8
1
 62
2
 10
1626.315666431565
 20
383.1578406092119
 30
0
 11
1627.140624342949
 21
383.0252580877394
 31
0
  0
LINE
  8
1
 62
2
 10
1627.140624342949
 20
383.0252580877394
 30
0
 11
1627.847731124136
 21
383.1578406092119
 31
0
  0
LINE
  8
1
 62
2
 10
1627.847731124136
 20
383.1578406092119
 30
0
 11
1627.965582254333
 21
383.2904231306843
 31
0
  0
LINE
  8
1
 62
2
 10
1627.965582254333
 20
383.2904231306843
 30
0
 11
1627.965582254333
 21
383.5555881736293
 31
0
  0
LINE
  8
1
 62
2
 10
1628.436986775124
 20
383.4230056521568
 30
0
 11
1628.201284514729
 21
383.6881706951018
 31
0
  0
LINE
  8
1
 62
2
 10
1628.201284514729
 20
383.6881706951018
 30
0
 11
1627.965582254333
 21
384.0859182595192
 31
0
  0
LINE
  8
1
 62
2
 10
1627.258475473147
 20
383.6881706951018
 30
0
 11
1627.022773212751
 21
384.0859182595192
 31
0
  0
LINE
  8
1
 62
2
 10
1625.962113040971
 20
384.3510833024641
 30
0
 11
1627.847731124136
 21
384.3510833024641
 31
0
  0
LINE
  8
1
 62
2
 10
1627.847731124136
 20
384.3510833024641
 30
0
 11
1627.847731124136
 21
384.881413388354
 31
0
  0
LINE
  8
1
 62
2
 10
1627.847731124136
 20
385.411743474244
 30
0
 11
1625.962113040971
 21
385.411743474244
 31
0
  0
LINE
  8
1
 62
2
 10
1625.962113040971
 20
385.411743474244
 30
0
 11
1625.962113040971
 21
384.881413388354
 31
0
  0
LINE
  8
1
 62
2
 10
1625.962113040971
 20
384.881413388354
 30
0
 11
1627.847731124136
 21
384.881413388354
 31
0
  0
LINE
  8
1
 62
2
 10
1628.790540165718
 20
385.8094910386614
 30
0
 11
1625.019303999389
 21
385.8094910386614
 31
0
  0
LINE
  8
1
 62
2
 10
1625.372857389983
 20
386.7375686889687
 30
0
 11
1626.904922082554
 21
386.7375686889687
 31
0
  0
LINE
  8
1
 62
2
 10
1626.904922082554
 20
387.2678987748586
 30
0
 11
1626.904922082554
 21
386.7375686889687
 31
0
  0
LINE
  8
1
 62
2
 10
1626.079964171169
 20
386.4724036460238
 30
0
 11
1626.315666431565
 21
385.9420735601339
 31
0
  0
LINE
  8
1
 62
2
 10
1627.61202886374
 20
386.4724036460238
 30
0
 11
1627.376326603345
 21
385.9420735601339
 31
0
  0
LINE
  8
1
 62
2
 10
1626.904922082554
 20
386.7375686889687
 30
0
 11
1628.436986775124
 21
386.7375686889687
 31
0
  0
LINE
  8
1
 62
2
 10
1627.847731124136
 20
384.881413388354
 30
0
 11
1627.847731124136
 21
385.411743474244
 31
0
  0
LINE
  8
1
 62
2
 10
1625.962113040971
 20
384.881413388354
 30
0
 11
1625.962113040971
 21
384.3510833024641
 31
0
  0
LINE
  8
1
 62
2
 10
1631.265413899871
 20
386.3398211245513
 30
0
 11
1630.911860509277
 21
385.0139959098265
 31
0
  0
LINE
  8
1
 62
2
 10
1630.911860509277
 20
385.0139959098265
 30
0
 11
1630.322604858289
 21
383.6881706951018
 31
0
  0
LINE
  8
1
 62
2
 10
1630.322604858289
 20
383.6881706951018
 30
0
 11
1629.851200337498
 21
383.9533357380467
 31
0
  0
LINE
  8
1
 62
2
 10
1629.851200337498
 20
383.9533357380467
 30
0
 11
1629.7333492073
 21
384.6162483454091
 31
0
  0
LINE
  8
1
 62
2
 10
1629.7333492073
 20
384.6162483454091
 30
0
 11
1629.851200337498
 21
385.411743474244
 31
0
  0
LINE
  8
1
 62
2
 10
1629.851200337498
 20
385.411743474244
 30
0
 11
1630.322604858289
 21
386.0746560816064
 31
0
  0
LINE
  8
1
 62
2
 10
1630.322604858289
 20
386.0746560816064
 30
0
 11
1631.029711639475
 21
386.3398211245513
 31
0
  0
LINE
  8
1
 62
2
 10
1631.029711639475
 20
386.3398211245513
 30
0
 11
1631.265413899871
 21
386.3398211245513
 31
0
  0
LINE
  8
1
 62
2
 10
1631.736818420662
 20
386.3398211245513
 30
0
 11
1632.208222941453
 21
386.0746560816064
 31
0
  0
LINE
  8
1
 62
2
 10
1632.208222941453
 20
386.0746560816064
 30
0
 11
1632.561776332046
 21
385.5443259957165
 31
0
  0
LINE
  8
1
 62
2
 10
1632.561776332046
 20
385.5443259957165
 30
0
 11
1632.561776332046
 21
384.6162483454091
 31
0
  0
LINE
  8
1
 62
2
 10
1632.561776332046
 20
384.6162483454091
 30
0
 11
1632.208222941453
 21
383.9533357380467
 31
0
  0
LINE
  8
1
 62
2
 10
1632.208222941453
 20
383.9533357380467
 30
0
 11
1631.618967290464
 21
383.4230056521568
 31
0
  0
LINE
  8
1
 62
2
 10
1631.265413899871
 20
386.3398211245513
 30
0
 11
1631.736818420662
 21
386.3398211245513
 31
0
  0
LINE
  8
1
 62
2
 10
1633.858138764221
 20
383.1578406092119
 30
0
 11
1633.858138764221
 21
386.3398211245513
 31
0
  0
LINE
  8
1
 62
2
 10
1633.858138764221
 20
386.3398211245513
 30
0
 11
1634.44739441521
 21
386.3398211245513
 31
0
  0
LINE
  8
1
 62
2
 10
1636.922268149363
 20
386.3398211245513
 30
0
 11
1636.922268149363
 21
383.1578406092119
 31
0
  0
LINE
  8
1
 62
2
 10
1636.922268149363
 20
383.1578406092119
 30
0
 11
1636.333012498374
 21
383.1578406092119
 31
0
  0
LINE
  8
1
 62
2
 10
1634.918798936001
 20
384.3510833024641
 30
0
 11
1634.918798936001
 21
385.411743474244
 31
0
  0
LINE
  8
1
 62
2
 10
1634.918798936001
 20
385.411743474244
 30
0
 11
1635.861607977583
 21
385.411743474244
 31
0
  0
LINE
  8
1
 62
2
 10
1635.861607977583
 20
385.411743474244
 30
0
 11
1635.861607977583
 21
384.3510833024641
 31
0
  0
LINE
  8
1
 62
2
 10
1635.861607977583
 20
384.3510833024641
 30
0
 11
1634.918798936001
 21
384.3510833024641
 31
0
  0
LINE
  8
1
 62
2
 10
1634.44739441521
 20
386.3398211245513
 30
0
 11
1635.036650066199
 21
387.1353162533862
 31
0
  0
LINE
  8
1
 62
2
 10
1634.44739441521
 20
386.3398211245513
 30
0
 11
1636.922268149363
 21
386.3398211245513
 31
0
  0
LINE
  8
1
 62
2
 10
1638.807886232527
 20
385.2791609527715
 30
0
 11
1639.868546404307
 21
385.5443259957165
 31
0
  0
LINE
  8
1
 62
2
 10
1639.868546404307
 20
385.5443259957165
 30
0
 11
1640.693504315691
 21
385.9420735601339
 31
0
  0
LINE
  8
1
 62
2
 10
1640.104248664703
 20
386.6049861674962
 30
0
 11
1639.632844143912
 21
386.3398211245513
 31
0
  0
LINE
  8
1
 62
2
 10
1639.632844143912
 20
386.3398211245513
 30
0
 11
1638.807886232527
 21
386.0746560816064
 31
0
  0
LINE
  8
1
 62
2
 10
1639.161439623121
 20
387.0027337319137
 30
0
 11
1639.750695274109
 21
386.0746560816064
 31
0
  0
LINE
  8
1
 62
2
 10
1639.750695274109
 20
386.0746560816064
 30
0
 11
1640.575653185494
 21
384.4836658239366
 31
0
  0
LINE
  8
1
 62
2
 10
1640.575653185494
 20
384.4836658239366
 30
0
 11
1640.104248664703
 21
384.6162483454091
 31
0
  0
LINE
  8
1
 62
2
 10
1640.104248664703
 20
384.6162483454091
 30
0
 11
1639.632844143912
 21
384.6162483454091
 31
0
  0
LINE
  8
1
 62
2
 10
1639.632844143912
 20
384.6162483454091
 30
0
 11
1639.161439623121
 21
384.3510833024641
 31
0
  0
LINE
  8
1
 62
2
 10
1639.161439623121
 20
384.3510833024641
 30
0
 11
1638.925737362725
 21
383.8207532165743
 31
0
  0
LINE
  8
1
 62
2
 10
1638.925737362725
 20
383.8207532165743
 30
0
 11
1639.397141883516
 21
383.4230056521568
 31
0
  0
LINE
  8
1
 62
2
 10
1639.397141883516
 20
383.4230056521568
 30
0
 11
1640.2220997949
 21
383.2904231306843
 31
0
  0
LINE
  8
1
 62
2
 10
1642.814824659251
 20
383.4230056521568
 30
0
 11
1642.696973529053
 21
384.3510833024641
 31
0
  0
LINE
  8
1
 62
2
 10
1642.696973529053
 20
384.3510833024641
 30
0
 11
1642.696973529053
 21
385.411743474244
 31
0
  0
LINE
  8
1
 62
2
 10
1642.696973529053
 20
385.411743474244
 30
0
 11
1642.932675789449
 21
386.3398211245513
 31
0
  0
LINE
  8
1
 62
2
 10
1643.875484831031
 20
385.9420735601339
 30
0
 11
1644.346889351822
 21
386.0746560816064
 31
0
  0
LINE
  8
1
 62
2
 10
1644.346889351822
 20
386.0746560816064
 30
0
 11
1645.053996133009
 21
386.0746560816064
 31
0
  0
LINE
  8
1
 62
2
 10
1643.639782570635
 20
384.2185007809916
 30
0
 11
1643.875484831031
 21
383.8207532165743
 31
0
  0
LINE
  8
1
 62
2
 10
1643.875484831031
 20
383.8207532165743
 30
0
 11
1644.46474048202
 21
383.6881706951018
 31
0
  0
LINE
  8
1
 62
2
 10
1644.46474048202
 20
383.6881706951018
 30
0
 11
1645.407549523602
 21
383.6881706951018
 31
0
  0
LINE
  8
1
 62
2
 10
1646.703911955777
 20
383.1578406092119
 30
0
 11
1647.05746534637
 21
383.2904231306843
 31
0
  0
LINE
  8
1
 62
2
 10
1647.05746534637
 20
383.2904231306843
 30
0
 11
1647.528869867161
 21
383.5555881736293
 31
0
  0
LINE
  8
1
 62
2
 10
1647.528869867161
 20
383.5555881736293
 30
0
 11
1648.235976648348
 21
384.0859182595192
 31
0
  0
LINE
  8
1
 62
2
 10
1648.235976648348
 20
384.0859182595192
 30
0
 11
1648.825232299336
 21
384.7488308668816
 31
0
  0
LINE
  8
1
 62
2
 10
1648.825232299336
 20
384.7488308668816
 30
0
 11
1647.293167606766
 21
384.7488308668816
 31
0
  0
LINE
  8
1
 62
2
 10
1647.764572127557
 20
385.2791609527715
 30
0
 11
1647.293167606766
 21
384.7488308668816
 31
0
  0
LINE
  8
1
 62
2
 10
1647.175316476568
 20
384.6162483454091
 30
0
 11
1646.821763085975
 21
384.3510833024641
 31
0
  0
LINE
  8
1
 62
2
 10
1646.821763085975
 20
384.3510833024641
 30
0
 11
1646.468209695381
 21
384.0859182595192
 31
0
  0
LINE
  8
1
 62
2
 10
1647.646720997359
 20
384.6162483454091
 30
0
 11
1648.000274387952
 21
384.2185007809916
 31
0
  0
LINE
  8
1
 62
2
 10
1648.000274387952
 20
384.2185007809916
 30
0
 11
1648.707381169139
 21
383.6881706951018
 31
0
  0
LINE
  8
1
 62
2
 10
1648.707381169139
 20
383.6881706951018
 30
0
 11
1649.296636820128
 21
383.4230056521568
 31
0
  0
LINE
  8
1
 62
2
 10
1649.296636820128
 20
383.4230056521568
 30
0
 11
1649.885892471116
 21
383.1578406092119
 31
0
  0
LINE
  8
1
 62
2
 10
1649.768041340918
 20
385.5443259957165
 30
0
 11
1649.17878568993
 21
386.0746560816064
 31
0
  0
LINE
  8
1
 62
2
 10
1648.11812551815
 20
385.2791609527715
 30
0
 11
1648.353827778545
 21
385.2791609527715
 31
0
  0
LINE
  8
1
 62
2
 10
1648.353827778545
 20
385.2791609527715
 30
0
 11
1648.471678908743
 21
385.5443259957165
 31
0
  0
LINE
  8
1
 62
2
 10
1648.471678908743
 20
385.5443259957165
 30
0
 11
1648.471678908743
 21
386.6049861674962
 31
0
  0
LINE
  8
1
 62
2
 10
1647.764572127557
 20
386.6049861674962
 30
0
 11
1647.646720997359
 21
385.9420735601339
 31
0
  0
LINE
  8
1
 62
2
 10
1647.646720997359
 20
385.9420735601339
 30
0
 11
1647.411018736963
 21
385.411743474244
 31
0
  0
LINE
  8
1
 62
2
 10
1647.411018736963
 20
385.411743474244
 30
0
 11
1647.05746534637
 21
385.146578431299
 31
0
  0
LINE
  8
1
 62
2
 10
1647.05746534637
 20
385.146578431299
 30
0
 11
1646.821763085975
 21
385.0139959098265
 31
0
  0
LINE
  8
1
 62
2
 10
1646.468209695381
 20
385.5443259957165
 30
0
 11
1646.939614216172
 21
386.0746560816064
 31
0
  0
LINE
  8
1
 62
2
 10
1646.468209695381
 20
386.6049861674962
 30
0
 11
1647.764572127557
 21
386.6049861674962
 31
0
  0
LINE
  8
1
 62
2
 10
1648.11812551815
 20
386.7375686889687
 30
0
 11
1648.11812551815
 21
387.1353162533862
 31
0
  0
LINE
  8
1
 62
2
 10
1647.764572127557
 20
386.6049861674962
 30
0
 11
1649.768041340918
 21
386.6049861674962
 31
0
  0
LINE
  8
1
 62
2
 10
1647.293167606766
 20
384.7488308668816
 30
0
 11
1647.175316476568
 21
384.6162483454091
 31
0
  0
LINE
  8
1
 62
2
 10
1651.182254903292
 20
383.4230056521568
 30
0
 11
1653.067872986456
 21
385.6769085171889
 31
0
  0
LINE
  8
1
 62
2
 10
1653.067872986456
 20
385.6769085171889
 30
0
 11
1652.478617335467
 21
385.5443259957165
 31
0
  0
LINE
  8
1
 62
2
 10
1652.478617335467
 20
385.5443259957165
 30
0
 11
1651.535808293885
 21
385.411743474244
 31
0
  0
LINE
  8
1
 62
2
 10
1652.007212814676
 20
386.8701512104412
 30
0
 11
1652.360766205269
 21
386.6049861674962
 31
0
  0
LINE
  8
1
 62
2
 10
1652.360766205269
 20
386.6049861674962
 30
0
 11
1652.83217072606
 21
386.3398211245513
 31
0
  0
LINE
  8
1
 62
2
 10
1652.125063944874
 20
384.4836658239366
 30
0
 11
1652.360766205269
 21
384.6162483454091
 31
0
  0
LINE
  8
1
 62
2
 10
1652.360766205269
 20
384.6162483454091
 30
0
 11
1652.596468465665
 21
384.6162483454091
 31
0
  0
LINE
  8
1
 62
2
 10
1652.596468465665
 20
384.6162483454091
 30
0
 11
1652.596468465665
 21
383.6881706951018
 31
0
  0
LINE
  8
1
 62
2
 10
1652.596468465665
 20
383.6881706951018
 30
0
 11
1652.714319595862
 21
383.2904231306843
 31
0
  0
LINE
  8
1
 62
2
 10
1652.714319595862
 20
383.2904231306843
 30
0
 11
1653.303575246851
 21
383.2904231306843
 31
0
  0
LINE
  8
1
 62
2
 10
1653.303575246851
 20
383.2904231306843
 30
0
 11
1653.774979767642
 21
383.4230056521568
 31
0
  0
LINE
  8
1
 62
2
 10
1656.485555762191
 20
383.2904231306843
 30
0
 11
1657.07481141318
 21
383.4230056521568
 31
0
  0
LINE
  8
1
 62
2
 10
1657.07481141318
 20
383.4230056521568
 30
0
 11
1657.664067064168
 21
383.8207532165743
 31
0
  0
LINE
  8
1
 62
2
 10
1657.664067064168
 20
383.8207532165743
 30
0
 11
1657.899769324564
 21
384.2185007809916
 31
0
  0
LINE
  8
1
 62
2
 10
1657.899769324564
 20
384.2185007809916
 30
0
 11
1657.781918194366
 21
384.7488308668816
 31
0
  0
LINE
  8
1
 62
2
 10
1657.781918194366
 20
384.7488308668816
 30
0
 11
1657.310513673575
 21
385.0139959098265
 31
0
  0
LINE
  8
1
 62
2
 10
1657.310513673575
 20
385.0139959098265
 30
0
 11
1656.839109152784
 21
385.0139959098265
 31
0
  0
LINE
  8
1
 62
2
 10
1656.839109152784
 20
385.0139959098265
 30
0
 11
1656.367704631993
 21
384.7488308668816
 31
0
  0
LINE
  8
1
 62
2
 10
1656.367704631993
 20
384.7488308668816
 30
0
 11
1655.778448981004
 21
384.3510833024641
 31
0
  0
LINE
  8
1
 62
2
 10
1655.778448981004
 20
384.3510833024641
 30
0
 11
1655.896300111202
 21
385.2791609527715
 31
0
  0
LINE
  8
1
 62
2
 10
1655.896300111202
 20
385.2791609527715
 30
0
 11
1656.132002371598
 21
386.0746560816064
 31
0
  0
LINE
  8
1
 62
2
 10
1656.367704631993
 20
386.8701512104412
 30
0
 11
1656.721258022586
 21
386.6049861674962
 31
0
  0
LINE
  8
1
 62
2
 10
1656.721258022586
 20
386.6049861674962
 30
0
 11
1656.956960282982
 21
386.3398211245513
 31
0
  0
LINE
  8
1
 62
2
 10
1660.256791928519
 20
386.7375686889687
 30
0
 11
1660.138940798321
 21
384.881413388354
 31
0
  0
LINE
  8
1
 62
2
 10
1660.138940798321
 20
384.881413388354
 30
0
 11
1660.138940798321
 21
383.2904231306843
 31
0
  0
LINE
  8
1
 62
2
 10
1659.431834017135
 20
385.146578431299
 30
0
 11
1660.374643058717
 21
385.8094910386614
 31
0
  0
LINE
  8
1
 62
2
 10
1660.374643058717
 20
385.8094910386614
 30
0
 11
1660.138940798321
 21
385.0139959098265
 31
0
  0
LINE
  8
1
 62
2
 10
1660.138940798321
 20
385.0139959098265
 30
0
 11
1659.431834017135
 21
383.6881706951018
 31
0
  0
LINE
  8
1
 62
2
 10
1660.021089668124
 20
384.7488308668816
 30
0
 11
1660.72819644931
 21
385.6769085171889
 31
0
  0
LINE
  8
1
 62
2
 10
1660.72819644931
 20
385.6769085171889
 30
0
 11
1661.199600970101
 21
386.0746560816064
 31
0
  0
LINE
  8
1
 62
2
 10
1661.199600970101
 20
386.0746560816064
 30
0
 11
1661.553154360694
 21
386.0746560816064
 31
0
  0
LINE
  8
1
 62
2
 10
1661.553154360694
 20
386.0746560816064
 30
0
 11
1661.671005490892
 21
385.6769085171889
 31
0
  0
LINE
  8
1
 62
2
 10
1661.671005490892
 20
385.6769085171889
 30
0
 11
1661.553154360694
 21
384.0859182595192
 31
0
  0
LINE
  8
1
 62
2
 10
1661.553154360694
 20
384.0859182595192
 30
0
 11
1661.78885662109
 21
383.6881706951018
 31
0
  0
LINE
  8
1
 62
2
 10
1661.78885662109
 20
383.6881706951018
 30
0
 11
1662.142410011683
 21
383.6881706951018
 31
0
  0
LINE
  8
1
 62
2
 10
1662.142410011683
 20
383.6881706951018
 30
0
 11
1662.378112272079
 21
383.9533357380467
 31
0
  0
LINE
  8
1
 62
2
 10
1664.028028094847
 20
385.2791609527715
 30
0
 11
1665.088688266627
 21
385.2791609527715
 31
0
  0
LINE
  8
1
 62
2
 10
1665.088688266627
 20
385.2791609527715
 30
0
 11
1666.031497308209
 21
385.5443259957165
 31
0
  0
LINE
  8
1
 62
2
 10
1665.913646178012
 20
386.3398211245513
 30
0
 11
1665.088688266627
 21
386.2072386030789
 31
0
  0
LINE
  8
1
 62
2
 10
1665.088688266627
 20
386.2072386030789
 30
0
 11
1664.381581485441
 21
386.2072386030789
 31
0
  0
LINE
  8
1
 62
2
 10
1665.206539396825
 20
387.0027337319137
 30
0
 11
1665.206539396825
 21
385.9420735601339
 31
0
  0
LINE
  8
1
 62
2
 10
1665.206539396825
 20
385.9420735601339
 30
0
 11
1665.324390527023
 21
384.0859182595192
 31
0
  0
LINE
  8
1
 62
2
 10
1665.324390527023
 20
384.0859182595192
 30
0
 11
1665.088688266627
 21
383.5555881736293
 31
0
  0
LINE
  8
1
 62
2
 10
1665.088688266627
 20
383.5555881736293
 30
0
 11
1664.617283745836
 21
383.2904231306843
 31
0
  0
LINE
  8
1
 62
2
 10
1664.617283745836
 20
383.2904231306843
 30
0
 11
1664.145879225045
 21
383.4230056521568
 31
0
  0
LINE
  8
1
 62
2
 10
1664.145879225045
 20
383.4230056521568
 30
0
 11
1664.028028094847
 21
383.6881706951018
 31
0
  0
LINE
  8
1
 62
2
 10
1664.028028094847
 20
383.6881706951018
 30
0
 11
1664.263730355243
 21
383.9533357380467
 31
0
  0
LINE
  8
1
 62
2
 10
1664.263730355243
 20
383.9533357380467
 30
0
 11
1664.852986006232
 21
384.0859182595192
 31
0
  0
LINE
  8
1
 62
2
 10
1664.852986006232
 20
384.0859182595192
 30
0
 11
1665.44224165722
 21
383.8207532165743
 31
0
  0
LINE
  8
1
 62
2
 10
1665.44224165722
 20
383.8207532165743
 30
0
 11
1665.913646178012
 21
383.4230056521568
 31
0
  0
LINE
  8
1
 62
2
 10
1669.095626693351
 20
383.1578406092119
 30
0
 11
1669.449180083944
 21
383.8207532165743
 31
0
  0
LINE
  8
1
 62
2
 10
1669.449180083944
 20
383.8207532165743
 30
0
 11
1669.68488234434
 21
384.3510833024641
 31
0
  0
LINE
  8
1
 62
2
 10
1669.68488234434
 20
384.3510833024641
 30
0
 11
1669.68488234434
 21
385.146578431299
 31
0
  0
LINE
  8
1
 62
2
 10
1669.68488234434
 20
385.146578431299
 30
0
 11
1669.449180083944
 21
385.411743474244
 31
0
  0
LINE
  8
1
 62
2
 10
1669.449180083944
 20
385.411743474244
 30
0
 11
1669.095626693351
 21
385.2791609527715
 31
0
  0
LINE
  8
1
 62
2
 10
1669.095626693351
 20
385.2791609527715
 30
0
 11
1668.977775563153
 21
384.881413388354
 31
0
  0
LINE
  8
1
 62
2
 10
1668.977775563153
 20
384.881413388354
 30
0
 11
1669.331328953747
 21
384.3510833024641
 31
0
  0
LINE
  8
1
 62
2
 10
1669.331328953747
 20
384.3510833024641
 30
0
 11
1669.68488234434
 21
384.6162483454091
 31
0
  0
LINE
  8
1
 62
2
 10
1669.68488234434
 20
384.6162483454091
 30
0
 11
1669.68488234434
 21
387.0027337319137
 31
0
  0
LINE
  8
1
 62
2
 10
1667.917115391374
 20
385.8094910386614
 30
0
 11
1669.213477823549
 21
386.0746560816064
 31
0
  0
LINE
  8
1
 62
2
 10
1669.213477823549
 20
386.0746560816064
 30
0
 11
1670.981244776515
 21
386.0746560816064
 31
0
  0
LINE
  8
1
 62
2
 10
1672.749011729482
 20
383.6881706951018
 30
0
 11
1673.220416250273
 21
383.6881706951018
 31
0
  0
LINE
  8
1
 62
2
 10
1673.220416250273
 20
383.6881706951018
 30
0
 11
1673.220416250273
 21
384.2185007809916
 31
0
  0
LINE
  8
1
 62
2
 10
1673.220416250273
 20
384.2185007809916
 30
0
 11
1672.749011729482
 21
384.2185007809916
 31
0
  0
LINE
  8
1
 62
2
 10
1672.749011729482
 20
384.2185007809916
 30
0
 11
1672.749011729482
 21
383.6881706951018
 31
0
  0
LINE
  8
1
 62
2
 10
1604.50738652394
 20
45.12241560133305
 30
0
 11
1604.50738652394
 21
49.36505628845233
 31
0
  0
LINE
  8
1
 62
2
 10
1604.50738652394
 20
49.36505628845233
 30
0
 11
1607.477235004923
 21
45.12241560133305
 31
0
  0
LINE
  8
1
 62
2
 10
1607.477235004923
 20
45.12241560133305
 30
0
 11
1607.477235004923
 21
49.36505628845233
 31
0
  0
LINE
  8
1
 62
2
 10
1609.598555348483
 20
47.24373594489269
 30
0
 11
1608.750027211059
 21
46.39520780746883
 31
0
  0
LINE
  8
1
 62
2
 10
1611.719875692043
 20
49.36505628845233
 30
0
 11
1609.598555348483
 21
47.24373594489269
 31
0
  0
LINE
  8
1
 62
2
 10
1609.598555348483
 20
47.24373594489269
 30
0
 11
1611.719875692043
 21
45.12241560133305
 31
0
  0
LINE
  8
1
 62
2
 10
1608.750027211059
 20
45.12241560133305
 30
0
 11
1608.750027211059
 21
46.39520780746883
 31
0
  0
LINE
  8
1
 62
2
 10
1608.750027211059
 20
46.39520780746883
 30
0
 11
1608.750027211059
 21
49.36505628845233
 31
0
  0
LINE
  8
1
 62
2
 10
1615.962516379162
 20
49.36505628845233
 30
0
 11
1615.962516379162
 21
47.45586797924865
 31
0
  0
LINE
  8
1
 62
2
 10
1612.992667898179
 20
47.45586797924865
 30
0
 11
1615.962516379162
 21
47.45586797924865
 31
0
  0
LINE
  8
1
 62
2
 10
1612.992667898179
 20
49.36505628845233
 30
0
 11
1612.992667898179
 21
47.45586797924865
 31
0
  0
LINE
  8
1
 62
2
 10
1612.992667898179
 20
47.24373594489269
 30
0
 11
1612.992667898179
 21
45.12241560133305
 31
0
  0
LINE
  8
1
 62
2
 10
1615.962516379162
 20
47.45586797924865
 30
0
 11
1615.962516379162
 21
45.12241560133305
 31
0
  0
LINE
  8
1
 62
2
 10
1612.992667898179
 20
47.45586797924865
 30
0
 11
1612.992667898179
 21
47.24373594489269
 31
0
  0
LINE
  8
1
 62
2
 10
1619.78089299757
 20
45.12241560133305
 30
0
 11
1617.235308585298
 21
45.12241560133305
 31
0
  0
LINE
  8
1
 62
2
 10
1617.235308585298
 20
45.12241560133305
 30
0
 11
1617.235308585298
 21
49.36505628845233
 31
0
  0
LINE
  8
1
 62
2
 10
1621.289387464101
 20
45.25499812280552
 30
0
 11
1623.057154417067
 21
45.25499812280552
 31
0
  0
LINE
  8
1
 62
2
 10
1624.235665719045
 20
46.18307577311287
 30
0
 11
1621.642940854694
 21
46.18307577311287
 31
0
  0
LINE
  8
1
 62
2
 10
1621.289387464101
 20
46.71340585900278
 30
0
 11
1621.642940854694
 21
47.24373594489269
 31
0
  0
LINE
  8
1
 62
2
 10
1621.642940854694
 20
47.24373594489269
 30
0
 11
1621.878643115089
 21
48.17181359520004
 31
0
  0
LINE
  8
1
 62
2
 10
1621.878643115089
 20
48.17181359520004
 30
0
 11
1621.878643115089
 21
49.09989124550738
 31
0
  0
LINE
  8
1
 62
2
 10
1623.057154417067
 20
49.09989124550738
 30
0
 11
1622.467898766078
 21
49.09989124550738
 31
0
  0
LINE
  8
1
 62
2
 10
1621.171536333903
 20
48.17181359520004
 30
0
 11
1623.175005547265
 21
48.17181359520004
 31
0
  0
LINE
  8
1
 62
2
 10
1622.467898766078
 20
49.09989124550738
 30
0
 11
1622.467898766078
 21
46.84598838047526
 31
0
  0
LINE
  8
1
 62
2
 10
1623.646410068056
 20
47.37631846636516
 30
0
 11
1623.646410068056
 21
49.09989124550738
 31
0
  0
LINE
  8
1
 62
2
 10
1624.47136797944
 20
49.23247376697985
 30
0
 11
1624.47136797944
 21
46.84598838047526
 31
0
  0
LINE
  8
1
 62
2
 10
1624.47136797944
 20
46.84598838047526
 30
0
 11
1624.117814588847
 21
46.84598838047526
 31
0
  0
LINE
  8
1
 62
2
 10
1623.057154417067
 20
46.84598838047526
 30
0
 11
1623.057154417067
 21
45.25499812280552
 31
0
  0
LINE
  8
1
 62
2
 10
1623.057154417067
 20
45.25499812280552
 30
0
 11
1624.707070239836
 21
45.25499812280552
 31
0
  0
LINE
  8
1
 62
2
 10
1622.467898766078
 20
49.09989124550738
 30
0
 11
1621.289387464101
 21
49.09989124550738
 31
0
  0
LINE
  8
1
 62
2
 10
1625.296325890824
 20
48.72866018538444
 30
0
 11
1625.50845792518
 21
49.04685823691838
 31
0
  0
LINE
  8
1
 62
2
 10
1625.50845792518
 20
49.04685823691838
 30
0
 11
1625.826655976714
 21
49.25899027127435
 31
0
  0
LINE
  8
1
 62
2
 10
1625.826655976714
 20
49.25899027127435
 30
0
 11
1626.250920045426
 21
49.36505628845233
 31
0
  0
LINE
  8
1
 62
2
 10
1626.250920045426
 20
49.36505628845233
 30
0
 11
1626.887316148494
 21
49.36505628845233
 31
0
  0
LINE
  8
1
 62
2
 10
1626.887316148494
 20
49.36505628845233
 30
0
 11
1627.311580217206
 21
49.25899027127435
 31
0
  0
LINE
  8
1
 62
2
 10
1627.311580217206
 20
49.25899027127435
 30
0
 11
1627.62977826874
 21
49.04685823691838
 31
0
  0
LINE
  8
1
 62
2
 10
1627.62977826874
 20
49.04685823691838
 30
0
 11
1627.841910303096
 21
48.72866018538444
 31
0
  0
LINE
  8
1
 62
2
 10
1627.841910303096
 20
48.72866018538444
 30
0
 11
1627.841910303096
 21
48.30439611667251
 31
0
  0
LINE
  8
1
 62
2
 10
1627.841910303096
 20
48.30439611667251
 30
0
 11
1627.62977826874
 21
47.88013204796058
 31
0
  0
LINE
  8
1
 62
2
 10
1627.62977826874
 20
47.88013204796058
 30
0
 11
1625.296325890824
 21
45.12241560133305
 31
0
  0
LINE
  8
1
 62
2
 10
1625.296325890824
 20
45.12241560133305
 30
0
 11
1627.841910303096
 21
45.12241560133305
 31
0
  0
LINE
  8
1
 62
2
 10
1631.448154887147
 20
49.36505628845233
 30
0
 11
1629.114702509232
 21
49.36505628845233
 31
0
  0
LINE
  8
1
 62
2
 10
1629.114702509232
 20
49.36505628845233
 30
0
 11
1629.114702509232
 21
47.66800001360462
 31
0
  0
LINE
  8
1
 62
2
 10
1629.114702509232
 20
47.66800001360462
 30
0
 11
1630.705692766902
 21
47.66800001360462
 31
0
  0
LINE
  8
1
 62
2
 10
1630.705692766902
 20
47.66800001360462
 30
0
 11
1631.236022852791
 21
47.56193399642663
 31
0
  0
LINE
  8
1
 62
2
 10
1631.236022852791
 20
47.56193399642663
 30
0
 11
1631.554220904325
 21
47.24373594489269
 31
0
  0
LINE
  8
1
 62
2
 10
1631.554220904325
 20
47.24373594489269
 30
0
 11
1631.660286921504
 21
46.81947187618076
 31
0
  0
LINE
  8
1
 62
2
 10
1631.660286921504
 20
46.81947187618076
 30
0
 11
1631.660286921504
 21
46.18307577311287
 31
0
  0
LINE
  8
1
 62
2
 10
1631.660286921504
 20
46.18307577311287
 30
0
 11
1631.554220904325
 21
45.75881170440094
 31
0
  0
LINE
  8
1
 62
2
 10
1631.554220904325
 20
45.75881170440094
 30
0
 11
1631.34208886997
 21
45.44061365286699
 31
0
  0
LINE
  8
1
 62
2
 10
1631.34208886997
 20
45.44061365286699
 30
0
 11
1631.023890818436
 21
45.22848161851103
 31
0
  0
LINE
  8
1
 62
2
 10
1631.023890818436
 20
45.22848161851103
 30
0
 11
1630.705692766902
 21
45.12241560133305
 31
0
  0
LINE
  8
1
 62
2
 10
1630.705692766902
 20
45.12241560133305
 30
0
 11
1629.114702509232
 21
45.12241560133305
 31
0
  0
LINE
  8
1
 62
2
 10
1632.933079127639
 20
45.12241560133305
 30
0
 11
1632.933079127639
 21
48.09226408231655
 31
0
  0
LINE
  8
1
 62
2
 10
1632.933079127639
 20
48.09226408231655
 30
0
 11
1634.418003368131
 21
48.09226408231655
 31
0
  0
LINE
  8
1
 62
2
 10
1635.266531505555
 20
48.09226408231655
 30
0
 11
1635.584729557089
 21
47.98619806513857
 31
0
  0
LINE
  8
1
 62
2
 10
1635.584729557089
 20
47.98619806513857
 30
0
 11
1635.796861591445
 21
47.7740660307826
 31
0
  0
LINE
  8
1
 62
2
 10
1635.796861591445
 20
47.7740660307826
 30
0
 11
1635.902927608623
 21
47.56193399642663
 31
0
  0
LINE
  8
1
 62
2
 10
1635.902927608623
 20
47.56193399642663
 30
0
 11
1635.902927608623
 21
45.12241560133305
 31
0
  0
LINE
  8
1
 62
2
 10
1634.418003368131
 20
48.09226408231655
 30
0
 11
1634.418003368131
 21
45.12241560133305
 31
0
  0
LINE
  8
1
 62
2
 10
1634.418003368131
 20
48.09226408231655
 30
0
 11
1635.266531505555
 21
48.09226408231655
 31
0
  0
LINE
  8
1
 62
2
 10
1637.175719814758
 20
45.12241560133305
 30
0
 11
1637.175719814758
 21
48.09226408231655
 31
0
  0
LINE
  8
1
 62
2
 10
1637.175719814758
 20
48.09226408231655
 30
0
 11
1638.66064405525
 21
48.09226408231655
 31
0
  0
LINE
  8
1
 62
2
 10
1639.509172192674
 20
48.09226408231655
 30
0
 11
1639.827370244208
 21
47.98619806513857
 31
0
  0
LINE
  8
1
 62
2
 10
1639.827370244208
 20
47.98619806513857
 30
0
 11
1640.039502278564
 21
47.7740660307826
 31
0
  0
LINE
  8
1
 62
2
 10
1640.039502278564
 20
47.7740660307826
 30
0
 11
1640.145568295742
 21
47.56193399642663
 31
0
  0
LINE
  8
1
 62
2
 10
1640.145568295742
 20
47.56193399642663
 30
0
 11
1640.145568295742
 21
45.12241560133305
 31
0
  0
LINE
  8
1
 62
2
 10
1638.66064405525
 20
48.09226408231655
 30
0
 11
1638.66064405525
 21
45.12241560133305
 31
0
  0
LINE
  8
1
 62
2
 10
1638.66064405525
 20
48.09226408231655
 30
0
 11
1639.509172192674
 21
48.09226408231655
 31
0
  0
LINE
  8
1
 62
2
 10
1641.536211632076
 20
45.25499812280552
 30
0
 11
1642.125467283064
 21
46.84598838047526
 31
0
  0
LINE
  8
1
 62
2
 10
1641.889765022669
 20
47.37631846636516
 30
0
 11
1641.418360501878
 21
47.7740660307826
 31
0
  0
LINE
  8
1
 62
2
 10
1642.125467283064
 20
48.56956115961746
 30
0
 11
1641.654062762273
 21
48.9673087240349
 31
0
  0
LINE
  8
1
 62
2
 10
1642.950425194449
 20
48.9673087240349
 30
0
 11
1642.950425194449
 21
48.17181359520004
 31
0
  0
LINE
  8
1
 62
2
 10
1642.950425194449
 20
47.37631846636516
 30
0
 11
1644.364638756822
 21
47.37631846636516
 31
0
  0
LINE
  8
1
 62
2
 10
1644.364638756822
 20
47.37631846636516
 30
0
 11
1644.364638756822
 21
48.17181359520004
 31
0
  0
LINE
  8
1
 62
2
 10
1644.364638756822
 20
48.9673087240349
 30
0
 11
1642.950425194449
 21
48.9673087240349
 31
0
  0
LINE
  8
1
 62
2
 10
1642.950425194449
 20
48.17181359520004
 30
0
 11
1644.364638756822
 21
48.17181359520004
 31
0
  0
LINE
  8
1
 62
2
 10
1642.832574064251
 20
45.25499812280552
 30
0
 11
1642.832574064251
 21
46.71340585900278
 31
0
  0
LINE
  8
1
 62
2
 10
1642.832574064251
 20
46.71340585900278
 30
0
 11
1643.42182971524
 21
46.71340585900278
 31
0
  0
LINE
  8
1
 62
2
 10
1644.600341017217
 20
46.71340585900278
 30
0
 11
1644.600341017217
 21
45.25499812280552
 31
0
  0
LINE
  8
1
 62
2
 10
1644.011085366228
 20
45.25499812280552
 30
0
 11
1644.011085366228
 21
46.71340585900278
 31
0
  0
LINE
  8
1
 62
2
 10
1643.42182971524
 20
46.71340585900278
 30
0
 11
1643.42182971524
 21
45.25499812280552
 31
0
  0
LINE
  8
1
 62
2
 10
1642.243318413262
 20
45.25499812280552
 30
0
 11
1642.832574064251
 21
45.25499812280552
 31
0
  0
LINE
  8
1
 62
2
 10
1643.42182971524
 20
45.25499812280552
 30
0
 11
1645.189596668206
 21
45.25499812280552
 31
0
  0
LINE
  8
1
 62
2
 10
1643.42182971524
 20
46.71340585900278
 30
0
 11
1644.600341017217
 21
46.71340585900278
 31
0
  0
LINE
  8
1
 62
2
 10
1642.832574064251
 20
45.25499812280552
 30
0
 11
1643.42182971524
 21
45.25499812280552
 31
0
  0
LINE
  8
1
 62
2
 10
1644.364638756822
 20
48.17181359520004
 30
0
 11
1644.364638756822
 21
48.9673087240349
 31
0
  0
LINE
  8
1
 62
2
 10
1642.950425194449
 20
48.17181359520004
 30
0
 11
1642.950425194449
 21
47.37631846636516
 31
0
  0
LINE
  8
1
 62
2
 10
1645.896703449393
 20
45.78532820869543
 30
0
 11
1646.368107970184
 21
46.31565829458535
 31
0
  0
LINE
  8
1
 62
2
 10
1646.368107970184
 20
46.31565829458535
 30
0
 11
1646.839512490975
 21
47.11115342342021
 31
0
  0
LINE
  8
1
 62
2
 10
1646.839512490975
 20
47.11115342342021
 30
0
 11
1647.07521475137
 21
47.90664855225508
 31
0
  0
LINE
  8
1
 62
2
 10
1647.07521475137
 20
47.90664855225508
 30
0
 11
1645.896703449393
 21
47.90664855225508
 31
0
  0
LINE
  8
1
 62
2
 10
1647.664470402359
 20
49.23247376697985
 30
0
 11
1647.664470402359
 21
45.12241560133305
 31
0
  0
LINE
  8
1
 62
2
 10
1647.664470402359
 20
45.12241560133305
 30
0
 11
1647.310917011766
 21
45.25499812280552
 31
0
  0
LINE
  8
1
 62
2
 10
1649.078683964732
 20
48.30439611667251
 30
0
 11
1648.253726053348
 21
47.64148350931012
 31
0
  0
LINE
  8
1
 62
2
 10
1648.018023792952
 20
48.17181359520004
 30
0
 11
1648.371577183546
 21
47.24373594489269
 31
0
  0
LINE
  8
1
 62
2
 10
1648.371577183546
 20
47.24373594489269
 30
0
 11
1648.842981704337
 21
46.44824081605782
 31
0
  0
LINE
  8
1
 62
2
 10
1648.842981704337
 20
46.44824081605782
 30
0
 11
1649.432237355325
 21
45.78532820869543
 31
0
  0
LINE
  8
1
 62
2
 10
1650.610748657303
 20
45.65274568722295
 30
0
 11
1651.435706568687
 21
46.31565829458535
 31
0
  0
LINE
  8
1
 62
2
 10
1651.435706568687
 20
46.31565829458535
 30
0
 11
1652.378515610269
 21
47.50890098783764
 31
0
  0
LINE
  8
1
 62
2
 10
1652.378515610269
 20
47.50890098783764
 30
0
 11
1652.967771261258
 21
48.70214368108994
 31
0
  0
LINE
  8
1
 62
2
 10
1651.553557698885
 20
47.90664855225508
 30
0
 11
1652.142813349874
 21
47.24373594489269
 31
0
  0
LINE
  8
1
 62
2
 10
1652.142813349874
 20
47.24373594489269
 30
0
 11
1652.732069000863
 21
46.31565829458535
 31
0
  0
LINE
  8
1
 62
2
 10
1654.735538214224
 20
47.37631846636516
 30
0
 11
1654.97124047462
 21
47.24373594489269
 31
0
  0
LINE
  8
1
 62
2
 10
1654.97124047462
 20
47.24373594489269
 30
0
 11
1657.092560818179
 21
47.24373594489269
 31
0
  0
LINE
  8
1
 62
2
 10
1657.092560818179
 20
47.24373594489269
 30
0
 11
1657.328263078575
 21
47.11115342342021
 31
0
  0
LINE
  8
1
 62
2
 10
1659.096030031541
 20
45.65274568722295
 30
0
 11
1660.156690203321
 21
46.44824081605782
 31
0
  0
LINE
  8
1
 62
2
 10
1660.156690203321
 20
46.44824081605782
 30
0
 11
1661.099499244903
 21
47.50890098783764
 31
0
  0
LINE
  8
1
 62
2
 10
1661.099499244903
 20
47.50890098783764
 30
0
 11
1661.570903765694
 21
48.43697863814499
 31
0
  0
LINE
  8
1
 62
2
 10
1661.570903765694
 20
48.43697863814499
 30
0
 11
1660.038839073123
 21
48.43697863814499
 31
0
  0
LINE
  8
1
 62
2
 10
1660.392392463717
 20
48.9673087240349
 30
0
 11
1659.803136812728
 21
48.17181359520004
 31
0
  0
LINE
  8
1
 62
2
 10
1659.803136812728
 20
48.17181359520004
 30
0
 11
1659.213881161739
 21
47.50890098783764
 31
0
  0
LINE
  8
1
 62
2
 10
1660.156690203321
 20
47.64148350931012
 30
0
 11
1661.099499244903
 21
46.5808233375303
 31
0
  0
LINE
  8
1
 62
2
 10
1663.220819588463
 20
47.37631846636516
 30
0
 11
1663.456521848858
 21
47.24373594489269
 31
0
  0
LINE
  8
1
 62
2
 10
1663.456521848858
 20
47.24373594489269
 30
0
 11
1665.577842192418
 21
47.24373594489269
 31
0
  0
LINE
  8
1
 62
2
 10
1665.577842192418
 20
47.24373594489269
 30
0
 11
1665.813544452814
 21
47.11115342342021
 31
0
  0
ARC
  8
1
 62
7
 10
1640.565336403073
 20
225.1840493908872
 30
0
 40
0.5
 50
0
 51
90
  0
ARC
  8
1
 62
7
 10
1640.565336403073
 20
219.1129815790219
 30
0
 40
0.5
 50
270
 51
0
  0
ARC
  8
1
 62
7
 10
1616.065336403073
 20
219.1129815790219
 30
0
 40
0.5
 50
180
 51
270
  0
ARC
  8
1
 62
7
 10
1616.065336403073
 20
225.1840493908872
 30
0
 40
0.5
 50
90
 51
180
  0
ARC
  8
1
 62
7
 10
1640.565336403074
 20
291.75890835868
 30
0
 40
0.5
 50
0
 51
90
  0
ARC
  8
1
 62
7
 10
1640.565336403074
 20
285.6878405468145
 30
0
 40
0.5
 50
270
 51
0
  0
ARC
  8
1
 62
7
 10
1616.065336403074
 20
285.6878405468145
 30
0
 40
0.5
 50
180
 51
270
  0
ARC
  8
1
 62
7
 10
1616.065336403074
 20
291.75890835868
 30
0
 40
0.5
 50
90
 51
180
  0
ARC
  8
1
 62
7
 10
1720.233174661113
 20
101.2396582386871
 30
0
 40
3.000000000000098
 50
3.47297781464175
 51
89.94514293428911
  0
ARC
  8
1
 62
7
 10
1588.315336403073
 20
155.9213561945642
 30
0
 40
2
 50
0
 51
90
  0
ARC
  8
1
 62
7
 10
1668.315336403073
 20
155.9213561945642
 30
0
 40
2.00000000000002
 50
123.3670129692282
 51
180
  0
ARC
  8
1
 62
7
 10
1668.315336403073
 20
155.9213561945642
 30
0
 40
2
 50
90
 51
123.3670129692282
  0
ARC
  8
1
 62
7
 10
1673.908394769502
 20
96.78290201410111
 30
0
 40
5.000000000000127
 50
93.02693579188899
 51
154.2751389910138
  0
ARC
  8
1
 62
7
 10
1673.315336403073
 20
148.4213561945642
 30
0
 40
3
 50
0
 51
90
  0
ARC
  8
1
 62
7
 10
1663.730092538169
 20
188.9750451261628
 30
0
 40
1.500818181818165
 50
274.9999999999818
 51
351.8290845893109
  0
ARC
  8
1
 62
7
 10
1663.730092538169
 20
191.3925132426233
 30
0
 40
1.50081818181806
 50
8.170915410685931
 51
85.00000000001825
  0
ARC
  8
1
 62
7
 10
1671.815336403073
 20
201.2213569624693
 30
0
 40
1.5
 50
0
 51
90
  0
ARC
  8
1
 62
7
 10
1584.815336403073
 20
201.2213569624693
 30
0
 40
1.5
 50
90
 51
180
  0
ARC
  8
1
 62
7
 10
1671.315336403073
 20
204.2213569624693
 30
0
 40
1.5
 50
180
 51
270
  0
ARC
  8
1
 62
7
 10
1585.315336403073
 20
204.2213569624693
 30
0
 40
1.5
 50
270
 51
0
  0
ARC
  8
1
 62
7
 10
1662.713450197987
 20
243.7213569624696
 30
0
 40
2.999999999999739
 50
57.33037977071708
 51
90
  0
ARC
  8
1
 62
7
 10
1593.917222608158
 20
243.7213569624693
 30
0
 40
3.000000000000003
 50
122.6696202292797
 51
171.8698976458438
  0
ARC
  8
1
 62
7
 10
1593.917222608158
 20
243.7213569624693
 30
0
 40
3
 50
90
 51
122.6696202292797
  0
ARC
  8
1
 62
7
 10
1662.713450197988
 20
243.7213569624693
 30
0
 40
2.999999999999337
 50
8.130102354159281
 51
57.33037977073858
  0
ARC
  8
1
 62
7
 10
1647.565336403073
 20
236.9254154164509
 30
0
 40
9.999999999999996
 50
357.9913424883852
 51
0
  0
ARC
  8
1
 62
7
 10
1609.019394857054
 20
236.9254154164509
 30
0
 40
9.99999999999944
 50
202.4130884470932
 51
270
  0
ARC
  8
1
 62
7
 10
1655.565336403073
 20
241.8959781649279
 30
0
 40
2
 50
0
 51
90
  0
ARC
  8
1
 62
7
 10
1601.019394857054
 20
241.8959781649279
 30
0
 40
2
 50
90
 51
180
  0
ARC
  8
1
 62
7
 10
1601.019394857054
 20
242.6030849461147
 30
0
 40
2
 50
90
 51
180
  0
ARC
  8
1
 62
7
 10
1655.565336403073
 20
242.6030849461147
 30
0
 40
2
 50
0
 51
90
  0
ARC
  8
1
 62
7
 10
1593.815336403073
 20
192.7213569624693
 30
0
 40
1
 50
0
 51
90
  0
ARC
  8
1
 62
7
 10
1662.815336403073
 20
192.7213569624693
 30
0
 40
1
 50
90
 51
180
  0
ARC
  8
1
 62
7
 10
1660.815336403073
 20
187.7213569624693
 30
0
 40
1
 50
270
 51
0
  0
ARC
  8
1
 62
7
 10
1595.815336403073
 20
187.7213569624693
 30
0
 40
1
 50
180
 51
270
  0
ARC
  8
1
 62
7
 10
1647.565336403073
 20
236.9254154164509
 30
0
 40
10.00000000000001
 50
331.987127919319
 51
341.8051276612333
  0
ARC
  8
1
 62
7
 10
1647.565336403073
 20
236.9254154164509
 30
0
 40
9.999999999999996
 50
341.8051276612333
 51
357.9913424883852
  0
ARC
  8
1
 62
7
 10
1647.565336403075
 20
236.9254154164534
 30
0
 40
9.999999999999396
 50
324.8488137824209
 51
331.9871279193008
  0
ARC
  8
1
 62
7
 10
1647.565336403074
 20
236.9254154164522
 30
0
 40
9.999999999999456
 50
322.3315491906158
 51
324.8488137824295
  0
ARC
  8
1
 62
7
 10
1647.565336403073
 20
236.9254154164509
 30
0
 40
10
 50
270
 51
322.3315491906257
  0
ARC
  8
1
 62
7
 10
1609.019394857054
 20
236.9254154164522
 30
0
 40
10
 50
180.0000000000075
 51
202.4130884471001
  0
ARC
  8
1
 62
7
 10
1609.019394857055
 20
303.1320972394794
 30
0
 40
10
 50
180
 51
202.4130884470879
  0
ARC
  8
1
 62
7
 10
1647.56533640307
 20
303.1320972394752
 30
0
 40
9.999999999999774
 50
322.3315491906624
 51
324.8488137824766
  0
ARC
  8
1
 62
7
 10
1647.565336403076
 20
303.1320972394835
 30
0
 40
9.999999999999755
 50
324.848813782418
 51
331.9871279192968
  0
ARC
  8
1
 62
7
 10
1647.565336403074
 20
303.1320972394805
 30
0
 40
10.00000000000004
 50
341.8051276612326
 51
357.991342488384
  0
ARC
  8
1
 62
7
 10
1647.565336403074
 20
303.1320972394805
 30
0
 40
9.999999999999938
 50
331.987127919317
 51
341.8051276612326
  0
ARC
  8
1
 62
7
 10
1647.565336403074
 20
303.1320972394869
 30
0
 40
10
 50
357.9913424883475
 51
359.9999999999635
  0
ARC
  8
1
 62
7
 10
1607.519394857055
 20
301.9979612313035
 30
0
 40
8.5
 50
180
 51
270
  0
ARC
  8
1
 62
7
 10
1607.519394857055
 20
302.3515146218969
 30
0
 40
8.5
 50
180
 51
270
  0
ARC
  8
1
 62
7
 10
1649.065336403074
 20
301.9979612313035
 30
0
 40
8.5
 50
270
 51
0
  0
ARC
  8
1
 62
7
 10
1649.065336403074
 20
302.3515146218969
 30
0
 40
8.5
 50
270
 51
0
  0
ARC
  8
1
 62
7
 10
1655.565336403074
 20
308.4685239797806
 30
0
 40
2
 50
0
 51
90
  0
ARC
  8
1
 62
7
 10
1601.019394857055
 20
308.4685239797806
 30
0
 40
2
 50
90
 51
180
  0
ARC
  8
1
 62
7
 10
1625.315336403073
 20
164.7213555915702
 30
0
 40
1
 50
180
 51
270
  0
ARC
  8
1
 62
7
 10
1631.315336403073
 20
164.7213555915702
 30
0
 40
1
 50
270
 51
0
  0
ARC
  8
1
 62
7
 10
1631.315336403073
 20
174.7213555915702
 30
0
 40
1
 50
0
 51
90
  0
ARC
  8
1
 62
7
 10
1625.315336403073
 20
174.7213555915702
 30
0
 40
1
 50
90
 51
180
  0
ARC
  8
1
 62
7
 10
1676.315336403073
 20
174.7213555915702
 30
0
 40
1
 50
0
 51
90
  0
ARC
  8
1
 62
7
 10
1676.315336403073
 20
164.7213555915702
 30
0
 40
1
 50
270
 51
0
  0
ARC
  8
1
 62
7
 10
1580.315336403073
 20
164.7213555915702
 30
0
 40
1
 50
180
 51
270
  0
ARC
  8
1
 62
7
 10
1580.315336403073
 20
174.7213555915702
 30
0
 40
1
 50
90
 51
180
  0
ARC
  8
1
 62
7
 10
1670.815336403073
 20
179.7213555915701
 30
0
 40
2
 50
180
 51
270
  0
ARC
  8
1
 62
7
 10
1585.815336403073
 20
179.7213555915701
 30
0
 40
2
 50
270
 51
0
  0
ARC
  8
0
 62
7
 10
1632.384468342867
 20
223.9448686876798
 30
0
 40
1.718802892878569
 50
266.6750457458411
 51
275.4218690389098
  0
ARC
  8
0
 62
7
 10
1632.340736144354
 20
224.2902494122388
 30
0
 40
2.066799309328658
 50
275.7240983540117
 51
286.202180111127
  0
ARC
  8
0
 62
7
 10
1632.218283521944
 20
224.6630547499451
 30
0
 40
2.459003052389194
 50
286.5182793796807
 51
298.9539196960703
  0
ARC
  8
0
 62
7
 10
1582.018242722494
 20
263.8262045510467
 30
0
 40
61.75271225771409
 50
316.4626075601015
 51
316.663994901502
  0
ARC
  8
0
 62
7
 10
1618.806126955779
 20
228.8455021163304
 30
0
 40
10.9885893435933
 50
315.2272455761475
 51
316.5557673689509
  0
ARC
  8
0
 62
7
 10
1622.137487231594
 20
225.5404608580321
 30
0
 40
6.295907913288666
 50
309.9909255903997
 51
315.2272604206978
  0
ARC
  8
0
 62
7
 10
1650.641696777051
 20
197.1593277776949
 30
0
 40
34.81081623098614
 50
135.6943451355276
 51
136.1047651243284
  0
ARC
  8
0
 62
7
 10
1634.440101282629
 20
212.9729819712047
 30
0
 40
12.17095413971052
 50
134.973149349457
 51
135.6945381182556
  0
ARC
  8
0
 62
7
 10
1631.543354852307
 20
215.8723601371395
 30
0
 40
8.072474711276284
 50
133.5926032835521
 51
134.9727251818592
  0
ARC
  8
0
 62
7
 10
1632.205353610569
 20
215.13681102645
 30
0
 40
9.061711948052514
 50
130.5243367854424
 51
133.4173308559343
  0
ARC
  8
0
 62
7
 10
1629.434789923302
 20
221.9712254786961
 30
0
 40
1.242646409920493
 50
318.6813280025646
 51
329.879596718272
  0
ARC
  8
0
 62
7
 10
1629.707149256012
 20
221.8217669559549
 30
0
 40
0.9320912622330366
 50
329.4248679773993
 51
340.6009138201535
  0
ARC
  8
0
 62
7
 10
1629.953476237413
 20
221.7404090641493
 30
0
 40
0.6727452230275033
 50
340.1684731595776
 51
351.2936691955135
  0
ARC
  8
0
 62
7
 10
1630.121240788985
 20
221.7171804638719
 30
0
 40
0.503403562439765
 50
351.0166851486748
 51
1.201556572064571
  0
ARC
  8
0
 62
7
 10
1630.239699511212
 20
221.7223349343622
 30
0
 40
0.3848720572171352
 50
0.8041744663417408
 51
14.19886403260112
  0
ARC
  8
0
 62
7
 10
1630.319267146262
 20
221.745623992632
 30
0
 40
0.3020381730737516
 50
13.6182701799035
 51
39.70484417424198
  0
ARC
  8
0
 62
7
 10
1630.309203695108
 20
221.7306697019688
 30
0
 40
0.3193740796729241
 50
40.61554558058052
 51
66.46428072274077
  0
ARC
  8
0
 62
7
 10
1630.266090193994
 20
221.6161060915278
 30
0
 40
0.4416672167126646
 50
67.27129166757472
 51
82.7924565119968
  0
ARC
  8
0
 62
7
 10
1630.247886029764
 20
221.4273444269491
 30
0
 40
0.631246327134146
 50
83.30279098553883
 51
94.63330600912622
  0
ARC
  8
0
 62
7
 10
1630.272082112194
 20
221.1932007390036
 30
0
 40
0.8665949950891779
 50
94.9773276419497
 51
104.1072484951348
  0
ARC
  8
0
 62
7
 10
1630.360145000226
 20
220.886314240504
 30
0
 40
1.185737852983829
 50
104.6198037179226
 51
115.7787876143248
  0
ARC
  8
0
 62
7
 10
1630.503046573127
 20
220.6123280584315
 30
0
 40
1.494634804062211
 50
116.1438864370815
 51
129.8179120069958
  0
ARC
  8
0
 62
7
 10
1630.49279837486
 20
220.6190787956935
 30
0
 40
1.482891488820842
 50
129.6808000715839
 51
139.0437663057772
  0
ARC
  8
0
 62
7
 10
1630.306786949148
 20
220.7703340583405
 30
0
 40
1.243292382763688
 50
138.6890265670996
 51
149.8826782971778
  0
ARC
  8
0
 62
7
 10
1630.034363943973
 20
220.9198310968754
 30
0
 40
0.9326622736996241
 50
149.4293381748884
 51
160.5997014658705
  0
ARC
  8
0
 62
7
 10
1629.787451086522
 20
221.0013989457532
 30
0
 40
0.6726940078418718
 50
160.1670523943011
 51
171.2937153164162
  0
ARC
  8
0
 62
7
 10
1629.620020247457
 20
221.0245817290659
 30
0
 40
0.5036891186000323
 50
171.0174981455364
 51
181.196896638545
  0
ARC
  8
0
 62
7
 10
1629.501309351861
 20
221.0194576330536
 30
0
 40
0.3849061667726499
 50
180.803419255504
 51
194.1961976251429
  0
ARC
  8
0
 62
7
 10
1629.421469723444
 20
220.9960935408749
 30
0
 40
0.3017904497079677
 50
193.6132487491649
 51
219.7172885492417
  0
ARC
  8
0
 62
7
 10
1629.431862010619
 20
221.011341734325
 30
0
 40
0.319568374521045
 50
220.629621898717
 51
246.4697174738277
  0
ARC
  8
0
 62
7
 10
1629.475078252566
 20
221.1262078975533
 30
0
 40
0.4421806744660309
 50
247.2777339516256
 51
262.7843541093401
  0
ARC
  8
0
 62
7
 10
1629.493180893305
 20
221.3143418892103
 30
0
 40
0.6311239745827521
 50
263.2992076499815
 51
274.63332300844
  0
ARC
  8
0
 62
7
 10
1629.46918149695
 20
221.5473300927004
 30
0
 40
0.8653044590231599
 50
274.9710524254895
 51
284.114855655245
  0
ARC
  8
0
 62
7
 10
1629.381534246184
 20
221.8535052196839
 30
0
 40
1.183655145419039
 50
284.6151470679595
 51
295.7933475218743
  0
ARC
  8
0
 62
7
 10
1629.238430675365
 20
222.1280510621703
 30
0
 40
1.493145445414392
 50
296.1534329118337
 51
309.8402035232124
  0
ARC
  8
0
 62
7
 10
1629.249354056277
 20
222.1218831819172
 30
0
 40
1.481418128439265
 50
309.6686389999865
 51
319.0403260000194
  0
ARC
  8
0
 62
7
 10
1630.480650572885
 20
220.9510288056987
 30
0
 40
2.052169342365054
 50
99.56229361215387
 51
106.1118571840456
  0
ARC
  8
0
 62
7
 10
1630.439078054761
 20
221.2468910449246
 30
0
 40
1.753530876509954
 50
89.55297322844361
 51
99.82871253914357
  0
ARC
  8
0
 62
7
 10
1630.449750106483
 20
221.5646705101779
 30
0
 40
1.435701193764792
 50
78.07240234269897
 51
89.87991658823253
  0
ARC
  8
0
 62
7
 10
1630.509501518152
 20
221.8137965414911
 30
0
 40
1.179625364310032
 50
64.78121738912896
 51
78.41109638416837
  0
ARC
  8
0
 62
7
 10
1630.58981920614
 20
221.9691078399378
 30
0
 40
1.004916699688754
 50
39.85527632884018
 51
65.15113638200468
  0
ARC
  8
0
 62
7
 10
1630.596930530309
 20
221.97693533014
 30
0
 40
0.9944423882453357
 50
26.63004200769102
 51
39.77164100769265
  0
ARC
  8
0
 62
7
 10
1630.479762600076
 20
221.9302879447906
 30
0
 40
1.12014197349039
 50
8.053801308465483
 51
26.07664009823569
  0
ARC
  8
0
 62
7
 10
1630.198909171674
 20
221.9032466069461
 30
0
 40
1.402070281666549
 50
353.906414592552
 51
7.539966323250016
  0
ARC
  8
0
 62
7
 10
1629.811505431482
 20
221.9604620428879
 30
0
 40
1.793428022427697
 50
340.6705988787215
 51
353.4026518460179
  0
ARC
  8
0
 62
7
 10
1629.38141963096
 20
222.1305310722211
 30
0
 40
2.255635852823986
 50
326.9880507263022
 51
340.2102073503127
  0
ARC
  8
0
 62
7
 10
1629.024133004873
 20
222.3860554478713
 30
0
 40
2.694525690599512
 50
309.8083257403609
 51
326.5709153524433
  0
ARC
  8
0
 62
7
 10
1629.025064925485
 20
222.3778049371599
 30
0
 40
2.687594970265375
 50
300.0173698478102
 51
309.9056720958245
  0
ARC
  8
0
 62
7
 10
1629.180065154959
 20
222.0787338331444
 30
0
 40
2.351146794140018
 50
286.0012452984117
 51
300.3927431872878
  0
ARC
  8
0
 62
7
 10
1629.286719372714
 20
221.6615987820955
 30
0
 40
1.920813675949966
 50
273.9104758042701
 51
286.3730575903527
  0
ARC
  8
0
 62
7
 10
1629.302068632447
 20
221.2712173717028
 30
0
 40
1.530336147994334
 50
261.2671872515178
 51
274.3339107266639
  0
ARC
  8
0
 62
7
 10
1629.244311718866
 20
220.9616947571906
 30
0
 40
1.215674648289339
 50
246.3214825403935
 51
261.7429072665061
  0
ARC
  8
0
 62
7
 10
1629.153869367739
 20
220.7755243870133
 30
0
 40
1.00888751822852
 50
219.8875068774524
 51
246.7793060060371
  0
ARC
  8
0
 62
7
 10
1629.180990703811
 20
220.7856217265191
 30
0
 40
1.036217985892882
 50
195.6498705970957
 51
219.3542134098134
  0
ARC
  8
0
 62
7
 10
1629.403929313216
 20
220.8346044047196
 30
0
 40
1.264171880384911
 50
179.6512415986164
 51
195.0619020303203
  0
ARC
  8
0
 62
7
 10
1629.722535625981
 20
220.8224291929501
 30
0
 40
1.582879495226539
 50
167.4930455576927
 51
179.2807374176731
  0
ARC
  8
0
 62
7
 10
1627.470203325021
 20
222.6086541015905
 30
0
 40
2.023158304382501
 50
347.4100174323361
 51
349.0341789673286
  0
ARC
  8
0
 62
7
 10
1622.111611503878
 20
223.8056478400432
 30
0
 40
7.513814030817727
 50
346.3901430210781
 51
347.40860189378
  0
ARC
  8
0
 62
7
 10
1621.945678138403
 20
221.9716490960921
 30
0
 40
1.243329913602956
 50
318.683690508257
 51
329.8771477117722
  0
ARC
  8
0
 62
7
 10
1622.218583456051
 20
221.8217854321203
 30
0
 40
0.9320990102615896
 50
329.4263044566378
 51
340.6034046201972
  0
ARC
  8
0
 62
7
 10
1622.465163177391
 20
221.7403361676441
 30
0
 40
0.6724839156700664
 50
340.1719483446597
 51
351.3017710467672
  0
ARC
  8
0
 62
7
 10
1622.632824722177
 20
221.7171271259525
 30
0
 40
0.5032465971683537
 50
351.0269993736089
 51
1.214663622514967
  0
ARC
  8
0
 62
7
 10
1622.751538221298
 20
221.7223047925557
 30
0
 40
0.3844592183427804
 50
0.8182449050011034
 51
14.22638281540047
  0
ARC
  8
0
 62
7
 10
1622.830989186084
 20
221.7456068534768
 30
0
 40
0.3017338012784951
 50
13.64492152427186
 51
39.75710586026855
  0
ARC
  8
0
 62
7
 10
1622.82065157574
 20
221.7308327792112
 30
0
 40
0.319164792663943
 50
40.6092183648987
 51
66.47136353248972
  0
ARC
  8
0
 62
7
 10
1622.777427193378
 20
221.6161168218879
 30
0
 40
0.4416418610443978
 50
67.27116060160965
 51
82.7917773025938
  0
ARC
  8
0
 62
7
 10
1622.759232630381
 20
221.4274378690853
 30
0
 40
0.6311376587330871
 50
83.30232621078734
 51
94.63371819162121
  0
ARC
  8
0
 62
7
 10
1622.783134242665
 20
221.1950288978748
 30
0
 40
0.8647326428618597
 50
94.96820649518729
 51
104.1167374817171
  0
ARC
  8
0
 62
7
 10
1622.871202691512
 20
220.8872876707697
 30
0
 40
1.184705303379808
 50
104.6173618860109
 51
115.7843637295374
  0
ARC
  8
0
 62
7
 10
1623.013934921363
 20
220.6134822705678
 30
0
 40
1.493366102081435
 50
116.1457861477438
 51
129.8286798459899
  0
ARC
  8
0
 62
7
 10
1623.005685604499
 20
220.6175678492786
 30
0
 40
1.484949544719688
 50
129.685208472465
 51
139.0367132111242
  0
ARC
  8
0
 62
7
 10
1622.818818255783
 20
220.769772853701
 30
0
 40
1.244081636064847
 50
138.6880272627948
 51
149.8755017774281
  0
ARC
  8
0
 62
7
 10
1622.545404714793
 20
220.9199116419514
 30
0
 40
0.9322734827390139
 50
149.4231422425658
 51
160.5982301664488
  0
ARC
  8
0
 62
7
 10
1622.298752395496
 20
221.0013830118427
 30
0
 40
0.6725832268991907
 50
160.164561823409
 51
171.2923908491192
  0
ARC
  8
0
 62
7
 10
1622.131064051725
 20
221.0246057103407
 30
0
 40
0.5033178352441401
 50
171.0155787770783
 51
181.2017439945883
  0
ARC
  8
0
 62
7
 10
1622.012497843963
 20
221.0194600683876
 30
0
 40
0.3846789697920188
 50
180.8058706522055
 51
194.2058027628072
  0
ARC
  8
0
 62
7
 10
1621.932882769404
 20
220.9961397432258
 30
0
 40
0.3017911541031637
 50
193.6230941251884
 51
219.7285802381103
  0
ARC
  8
0
 62
7
 10
1621.943300457132
 20
221.0113213470259
 30
0
 40
0.3195459364719767
 50
220.6282556551483
 51
246.4698107107323
  0
ARC
  8
0
 62
7
 10
1621.986512817171
 20
221.1261497457028
 30
0
 40
0.4421219130833431
 50
247.276415978763
 51
262.7844841077582
  0
ARC
  8
0
 62
7
 10
1622.004620877353
 20
221.314270526422
 30
0
 40
0.6310527362785536
 50
263.2987180137374
 51
274.6335288138913
  0
ARC
  8
0
 62
7
 10
1621.980626776511
 20
221.5472138276669
 30
0
 40
0.8651880430953447
 50
274.9711386416145
 51
284.1157486437018
  0
ARC
  8
0
 62
7
 10
1621.893004377089
 20
221.8533390538934
 30
0
 40
1.18348429485642
 50
284.6152944584075
 51
295.7947196417095
  0
ARC
  8
0
 62
7
 10
1621.749788113594
 20
222.1281227100472
 30
0
 40
1.49323791407548
 50
296.1544208457446
 51
309.8401654848235
  0
ARC
  8
0
 62
7
 10
1621.760930136772
 20
222.1217860844272
 30
0
 40
1.481241139787872
 50
309.6662680094294
 51
319.039912009439
  0
ARC
  8
0
 62
7
 10
1621.771844333754
 20
221.7897923124037
 30
0
 40
2.051192838085722
 50
279.5637989054572
 51
286.1150326431497
  0
ARC
  8
0
 62
7
 10
1621.813499525847
 20
221.4934818436184
 30
0
 40
1.752098870096727
 50
269.5477841659603
 51
279.8304615113535
  0
ARC
  8
0
 62
7
 10
1621.802797267299
 20
221.1776276645293
 30
0
 40
1.436193521346292
 50
258.0723414310974
 51
269.8752782835836
  0
ARC
  8
0
 62
7
 10
1621.743394105206
 20
220.9293830891217
 30
0
 40
1.181051132215781
 50
244.7890520893103
 51
258.4029213813167
  0
ARC
  8
0
 62
7
 10
1621.662606731667
 20
220.7729164409247
 30
0
 40
1.005097712874122
 50
219.8640191529679
 51
245.1564369361842
  0
ARC
  8
0
 62
7
 10
1621.655267456456
 20
220.7645427887638
 30
0
 40
0.994098573877839
 50
206.6203896219623
 51
219.7647062389488
  0
ARC
  8
0
 62
7
 10
1621.773309559359
 20
220.811560328543
 30
0
 40
1.120747698475187
 50
188.0534115960314
 51
206.0652615781339
  0
ARC
  8
0
 62
7
 10
1622.053722604067
 20
220.8384532466554
 30
0
 40
1.402220002369155
 50
173.9042005076339
 51
187.5362258922314
  0
ARC
  8
0
 62
7
 10
1622.440777310032
 20
220.7813418205158
 30
0
 40
1.793219539982653
 50
160.6691240868491
 51
173.402982621643
  0
ARC
  8
0
 62
7
 10
1622.871860058223
 20
220.6109033141447
 30
0
 40
2.256490911132368
 50
146.9910805581391
 51
160.2087359000467
  0
ARC
  8
0
 62
7
 10
1623.228442109054
 20
220.3558105463813
 30
0
 40
2.694554065243894
 50
129.8092228613643
 51
146.5729906533423
  0
ARC
  8
0
 62
7
 10
1623.226529018177
 20
220.3653769277746
 30
0
 40
2.685984567160237
 50
120.0153578154212
 51
129.908523028637
  0
ARC
  8
0
 62
7
 10
1623.072381084149
 20
220.6630960292377
 30
0
 40
2.351133210703814
 50
106.001222665034
 51
120.391948494042
  0
ARC
  8
0
 62
7
 10
1622.965753079927
 20
221.0798855699259
 30
0
 40
1.921138976256949
 50
93.91075382839304
 51
106.370877879686
  0
ARC
  8
0
 62
7
 10
1622.950333055261
 20
221.470323535073
 30
0
 40
1.530599768771536
 50
81.26721903974099
 51
94.33168826280054
  0
ARC
  8
0
 62
7
 10
1623.008215999506
 20
221.7805668150535
 30
0
 40
1.215206972509211
 50
66.31622934563482
 51
81.74384487557444
  0
ARC
  8
0
 62
7
 10
1623.09850708933
 20
221.9662641952708
 30
0
 40
1.008913276634259
 50
39.88386297060442
 51
66.77588744928951
  0
ARC
  8
0
 62
7
 10
1623.080489319481
 20
221.9609920877996
 30
0
 40
1.026147256179143
 50
17.32803600315247
 51
39.46464000316789
  0
ARC
  8
0
 62
7
 10
1622.864985486689
 20
221.908536360319
 30
0
 40
1.247573811190104
 50
0.2586513336031003
 51
16.679960797896
  0
ARC
  8
0
 62
7
 10
1622.547409306718
 20
221.9169493340221
 30
0
 40
1.565139749772852
 50
348.2748028406348
 51
359.8981928379321
  0
ARC
  8
0
 62
7
 10
1622.430041620818
 20
221.9374112444071
 30
0
 40
1.684238487386903
 50
343.3758325417751
 51
347.9824194735837
  0
ARC
  8
0
 62
7
 10
1626.854506696133
 20
219.7077341884052
 30
0
 40
4.140673525547048
 50
172.0422530220885
 51
178.5102310640886
  0
ARC
  8
0
 62
7
 10
1626.32753582117
 20
219.7954518412337
 30
0
 40
3.606660128928702
 50
165.4054527325567
 51
172.263350874858
  0
ARC
  8
0
 62
7
 10
1637.474187262569
 20
217.7963567916506
 30
0
 40
13.91987366734412
 50
164.7591934710329
 51
165.2789240548322
  0
ARC
  8
0
 62
7
 10
1629.498019831049
 20
219.8819632373587
 30
0
 40
5.675556232523308
 50
165.1809136621536
 51
168.0850487026505
  0
ARC
  8
0
 62
7
 10
1627.036179972957
 20
220.4124958066242
 30
0
 40
3.157241444528315
 50
168.2816227575041
 51
170.2378023406059
  0
ARC
  8
0
 62
7
 10
1629.882125534625
 20
219.9331536214217
 30
0
 40
6.043263133884148
 50
170.3340838832903
 51
172.0658069806899
  0
ARC
  8
0
 62
7
 10
1635.163211973962
 20
219.2250455045311
 30
0
 40
11.37157288764742
 50
172.2051146282163
 51
175.9637585386157
  0
ARC
  8
0
 62
7
 10
1630.662601209376
 20
219.5317647406486
 30
0
 40
6.86054422397959
 50
175.8733282607273
 51
177.6306701433273
  0
ARC
  8
0
 62
7
 10
1632.384468342869
 20
290.5197276554725
 30
0
 40
1.718802892878593
 50
266.6750457458107
 51
275.4218690389098
  0
ARC
  8
0
 62
7
 10
1632.340736144356
 20
290.8651083800317
 30
0
 40
2.066799309328856
 50
275.7240983540111
 51
286.2021801110943
  0
ARC
  8
0
 62
7
 10
1632.218283521947
 20
291.2379137177381
 30
0
 40
2.459003052388994
 50
286.5182793796324
 51
298.9539196960473
  0
ARC
  8
0
 62
7
 10
1582.018242722377
 20
330.4010635187159
 30
0
 40
61.75271225771531
 50
316.4626075602608
 51
316.6639949016607
  0
ARC
  8
0
 62
7
 10
1618.806126955778
 20
295.4203610841218
 30
0
 40
10.98858934359464
 50
315.2272455761641
 51
316.5557673689676
  0
ARC
  8
0
 62
7
 10
1622.137487231596
 20
292.1153198258248
 30
0
 40
6.295907913288688
 50
309.9909255903995
 51
315.2272604206975
  0
ARC
  8
0
 62
7
 10
1650.641696777107
 20
263.7341867455453
 30
0
 40
34.81081623098516
 50
135.694345135659
 51
136.1047651244586
  0
ARC
  8
0
 62
7
 10
1634.440101282644
 20
279.5478409390105
 30
0
 40
12.1709541397114
 50
134.9731493495451
 51
135.6945381183463
  0
ARC
  8
0
 62
7
 10
1631.54335485231
 20
282.4472191049356
 30
0
 40
8.072474711275522
 50
133.5926032835862
 51
134.9727251818829
  0
ARC
  8
0
 62
7
 10
1632.205353610566
 20
281.7116699942386
 30
0
 40
9.061711948052986
 50
130.5243367854058
 51
133.417330855904
  0
ARC
  8
0
 62
7
 10
1629.434789923301
 20
288.5460844464863
 30
0
 40
1.24264640992096
 50
318.681328002683
 51
329.8795967184203
  0
ARC
  8
0
 62
7
 10
1629.707149256017
 20
288.3966259237521
 30
0
 40
0.9320912622317826
 50
329.4248679770352
 51
340.6009138198344
  0
ARC
  8
0
 62
7
 10
1629.953476237414
 20
288.3152680319422
 30
0
 40
0.6727452230286306
 50
340.1684731595967
 51
351.2936691955018
  0
ARC
  8
0
 62
7
 10
1630.121240788987
 20
288.2920394316645
 30
0
 40
0.5034035624386243
 50
351.0166851486674
 51
1.201556572076987
  0
ARC
  8
0
 62
7
 10
1630.239699511214
 20
288.2971939021549
 30
0
 40
0.384872057215998
 50
0.8041744663398853
 51
14.19886403264264
  0
ARC
  8
0
 62
7
 10
1630.319267146263
 20
288.3204829604263
 30
0
 40
0.3020381730733702
 50
13.61827017960483
 51
39.70484417387192
  0
ARC
  8
0
 62
7
 10
1630.309203695109
 20
288.3055286697614
 30
0
 40
0.319374079673707
 50
40.61554558049365
 51
66.46428072259931
  0
ARC
  8
0
 62
7
 10
1630.266090193995
 20
288.1909650593202
 30
0
 40
0.4416672167132781
 50
67.27129166748014
 51
82.79245651200188
  0
ARC
  8
0
 62
7
 10
1630.247886029765
 20
288.0022033947419
 30
0
 40
0.6312463271340878
 50
83.30279098551743
 51
94.63330600902421
  0
ARC
  8
0
 62
7
 10
1630.272082112194
 20
287.7680597067962
 30
0
 40
0.8665949950891139
 50
94.97732764181424
 51
104.1072484950606
  0
ARC
  8
0
 62
7
 10
1630.360145000227
 20
287.4611732082967
 30
0
 40
1.185737852983717
 50
104.6198037179127
 51
115.7787876143155
  0
ARC
  8
0
 62
7
 10
1630.503046573129
 20
287.1871870262242
 30
0
 40
1.494634804062612
 50
116.1438864371128
 51
129.8179120070226
  0
ARC
  8
0
 62
7
 10
1630.492798374858
 20
287.1939377634844
 30
0
 40
1.482891488820165
 50
129.6808000714458
 51
139.043766305636
  0
ARC
  8
0
 62
7
 10
1630.306786949149
 20
287.3451930261332
 30
0
 40
1.243292382762834
 50
138.689026567065
 51
149.8826782971568
  0
ARC
  8
0
 62
7
 10
1630.034363943972
 20
287.4946900646647
 30
0
 40
0.9326622736989951
 50
149.4293381746243
 51
160.5997014656358
  0
ARC
  8
0
 62
7
 10
1629.787451086523
 20
287.5762579135474
 30
0
 40
0.6726940078415843
 50
160.1670523944261
 51
171.293715316543
  0
ARC
  8
0
 62
7
 10
1629.620020247458
 20
287.5994406968532
 30
0
 40
0.5036891186006465
 50
171.0174981449288
 51
181.196896637919
  0
ARC
  8
0
 62
7
 10
1629.501309351861
 20
287.594316600849
 30
0
 40
0.3849061667726866
 50
180.8034192558932
 51
194.1961976256068
  0
ARC
  8
0
 62
7
 10
1629.421469723446
 20
287.5709525086676
 30
0
 40
0.3017904497079543
 50
193.6132487491544
 51
219.7172885492209
  0
ARC
  8
0
 62
7
 10
1629.431862010621
 20
287.5862007021177
 30
0
 40
0.3195683745209895
 50
220.6296218987054
 51
246.4697174738359
  0
ARC
  8
0
 62
7
 10
1629.475078252567
 20
287.701066865346
 30
0
 40
0.4421806744657583
 50
247.2777339517386
 51
262.7843541094259
  0
ARC
  8
0
 62
7
 10
1629.493180893307
 20
287.8892008570031
 30
0
 40
0.6311239745827785
 50
263.299207649961
 51
274.6333230083359
  0
ARC
  8
0
 62
7
 10
1629.469181496952
 20
288.1221890604932
 30
0
 40
0.8653044590232313
 50
274.9710524254136
 51
284.1148556552413
  0
ARC
  8
0
 62
7
 10
1629.381534246184
 20
288.4283641874757
 30
0
 40
1.183655145418813
 50
284.6151470680647
 51
295.7933475219425
  0
ARC
  8
0
 62
7
 10
1629.238430675368
 20
288.7029100299641
 30
0
 40
1.493145445414559
 50
296.1534329117528
 51
309.8402035231619
  0
ARC
  8
0
 62
7
 10
1629.249354056278
 20
288.6967421497086
 30
0
 40
1.481418128438897
 50
309.6686390000554
 51
319.0403260000319
  0
ARC
  8
0
 62
7
 10
1630.480650572888
 20
287.5258877734918
 30
0
 40
2.052169342365065
 50
99.56229361217959
 51
106.1118571840727
  0
ARC
  8
0
 62
7
 10
1630.439078054762
 20
287.8217500127173
 30
0
 40
1.753530876510076
 50
89.55297322840649
 51
99.8287125391057
  0
ARC
  8
0
 62
7
 10
1630.449750106484
 20
288.1395294779705
 30
0
 40
1.435701193764987
 50
78.0724023427006
 51
89.87991658819627
  0
ARC
  8
0
 62
7
 10
1630.509501518153
 20
288.388655509284
 30
0
 40
1.179625364309899
 50
64.78121738906488
 51
78.41109638415644
  0
ARC
  8
0
 62
7
 10
1630.589819206141
 20
288.5439668077304
 30
0
 40
1.00491669968879
 50
39.85527632884266
 51
65.15113638194877
  0
ARC
  8
0
 62
7
 10
1630.596930530311
 20
288.5517942979326
 30
0
 40
0.99444238824465
 50
26.63004200772914
 51
39.77164100772869
  0
ARC
  8
0
 62
7
 10
1630.479762600078
 20
288.5051469125845
 30
0
 40
1.120141973489306
 50
8.053801308405786
 51
26.07664009820782
  0
ARC
  8
0
 62
7
 10
1630.198909171676
 20
288.4781055747363
 30
0
 40
1.402070281666054
 50
353.9064145926538
 51
7.539966323353917
  0
ARC
  8
0
 62
7
 10
1629.811505431484
 20
288.5353210106788
 30
0
 40
1.793428022427104
 50
340.6705988787754
 51
353.4026518460748
  0
ARC
  8
0
 62
7
 10
1629.381419630962
 20
288.7053900400152
 30
0
 40
2.255635852824512
 50
326.9880507262816
 51
340.2102073502788
  0
ARC
  8
0
 62
7
 10
1629.024133004875
 20
288.960914415664
 30
0
 40
2.694525690599213
 50
309.8083257403411
 51
326.5709153524514
  0
ARC
  8
0
 62
7
 10
1629.025064925486
 20
288.9526639049525
 30
0
 40
2.687594970265387
 50
300.0173698478325
 51
309.9056720958207
  0
ARC
  8
0
 62
7
 10
1629.18006515496
 20
288.6535928009371
 30
0
 40
2.35114679413999
 50
286.001245298412
 51
300.3927431873169
  0
ARC
  8
0
 62
7
 10
1629.286719372715
 20
288.2364577498881
 30
0
 40
1.920813675949876
 50
273.9104758042431
 51
286.3730575903536
  0
ARC
  8
0
 62
7
 10
1629.30206863245
 20
287.8460763394955
 30
0
 40
1.53033614799431
 50
261.2671872514746
 51
274.3339107265448
  0
ARC
  8
0
 62
7
 10
1629.244311718865
 20
287.5365537249836
 30
0
 40
1.215674648289194
 50
246.3214825404958
 51
261.7429072666448
  0
ARC
  8
0
 62
7
 10
1629.153869367741
 20
287.350383354806
 30
0
 40
1.008887518229309
 50
219.8875068774255
 51
246.7793060059998
  0
ARC
  8
0
 62
7
 10
1629.180990703812
 20
287.3604806943118
 30
0
 40
1.036217985892935
 50
195.6498705971063
 51
219.354213409817
  0
ARC
  8
0
 62
7
 10
1629.403929313218
 20
287.4094633725098
 30
0
 40
1.264171880385154
 50
179.6512415985018
 51
195.0619020302089
  0
ARC
  8
0
 62
7
 10
1629.722535625981
 20
287.3972881607473
 30
0
 40
1.582879495223575
 50
167.4930455578344
 51
179.2807374178343
  0
ARC
  8
0
 62
7
 10
1627.470203325022
 20
289.1835130693811
 30
0
 40
2.023158304381858
 50
347.4100174323881
 51
349.034178967389
  0
ARC
  8
0
 62
7
 10
1622.11161150388
 20
290.3805068078391
 30
0
 40
7.513814030818482
 50
346.3901430210543
 51
347.4086018937542
  0
ARC
  8
0
 62
7
 10
1621.9456781384
 20
288.5465080638776
 30
0
 40
1.243329913602099
 50
318.6836905086669
 51
329.8771477121325
  0
ARC
  8
0
 62
7
 10
1622.218583456057
 20
288.3966443999211
 30
0
 40
0.9320990102604532
 50
329.4263044560141
 51
340.6034046196439
  0
ARC
  8
0
 62
7
 10
1622.465163177391
 20
288.3151951354325
 30
0
 40
0.6724839156705165
 50
340.1719483450673
 51
351.3017710471456
  0
ARC
  8
0
 62
7
 10
1622.632824722178
 20
288.2919860937504
 30
0
 40
0.5032465971693896
 50
351.0269993730281
 51
1.214663621923426
  0
ARC
  8
0
 62
7
 10
1622.7515382213
 20
288.2971637603437
 30
0
 40
0.3844592183428474
 50
0.8182449056999184
 51
14.22638281611122
  0
ARC
  8
0
 62
7
 10
1622.830989186084
 20
288.3204658212708
 30
0
 40
0.301733801279305
 50
13.64492152399017
 51
39.75710585984992
  0
ARC
  8
0
 62
7
 10
1622.820651575741
 20
288.3056917470039
 30
0
 40
0.3191647926647075
 50
40.60921836480791
 51
66.47136353233596
  0
ARC
  8
0
 62
7
 10
1622.77742719338
 20
288.1909757896798
 30
0
 40
0.4416418610451056
 50
67.27116060164813
 51
82.79177730260628
  0
ARC
  8
0
 62
7
 10
1622.759232630383
 20
288.0022968368778
 30
0
 40
0.6311376587332283
 50
83.30232621078885
 51
94.63371819162057
  0
ARC
  8
0
 62
7
 10
1622.783134242667
 20
287.7698878656675
 30
0
 40
0.8647326428617463
 50
94.96820649518794
 51
104.1167374817167
  0
ARC
  8
0
 62
7
 10
1622.87120269151
 20
287.4621466385615
 30
0
 40
1.184705303379682
 50
104.6173618858079
 51
115.7843637294286
  0
ARC
  8
0
 62
7
 10
1623.013934921368
 20
287.1883412383631
 30
0
 40
1.493366102081343
 50
116.1457861479593
 51
129.8286798461405
  0
ARC
  8
0
 62
7
 10
1623.005685604495
 20
287.1924268170654
 30
0
 40
1.484949544720462
 50
129.6852084721438
 51
139.0367132108574
  0
ARC
  8
0
 62
7
 10
1622.818818255785
 20
287.3446318214952
 30
0
 40
1.244081636065125
 50
138.6880272629071
 51
149.8755017774944
  0
ARC
  8
0
 62
7
 10
1622.545404714794
 20
287.494770609741
 30
0
 40
0.9322734827395967
 50
149.4231422423679
 51
160.5982301662712
  0
ARC
  8
0
 62
7
 10
1622.298752395498
 20
287.5762419796354
 30
0
 40
0.6725832269000077
 50
160.1645618234444
 51
171.2923908491309
  0
ARC
  8
0
 62
7
 10
1622.131064051726
 20
287.5994646781334
 30
0
 40
0.5033178352441401
 50
171.0155787770783
 51
181.201743994591
  0
ARC
  8
0
 62
7
 10
1622.012497843966
 20
287.5943190361764
 30
0
 40
0.3846789697928734
 50
180.8058706516237
 51
194.2058027621785
  0
ARC
  8
0
 62
7
 10
1621.932882769406
 20
287.5709987110168
 30
0
 40
0.3017911541036459
 50
193.6230941248331
 51
219.728580237696
  0
ARC
  8
0
 62
7
 10
1621.943300457133
 20
287.5861803148187
 30
0
 40
0.3195459364720322
 50
220.6282556551599
 51
246.4698107107465
  0
ARC
  8
0
 62
7
 10
1621.986512817171
 20
287.7010087134959
 30
0
 40
0.4421219130833759
 50
247.2764159789246
 51
262.7844841079108
  0
ARC
  8
0
 62
7
 10
1622.004620877354
 20
287.8891294942146
 30
0
 40
0.6310527362784141
 50
263.2987180137567
 51
274.6335288138104
  0
ARC
  8
0
 62
7
 10
1621.980626776513
 20
288.1220727954596
 30
0
 40
0.8651880430950542
 50
274.9711386414801
 51
284.1157486436438
  0
ARC
  8
0
 62
7
 10
1621.89300437709
 20
288.4281980216861
 30
0
 40
1.183484294856478
 50
284.6152944584181
 51
295.7947196417089
  0
ARC
  8
0
 62
7
 10
1621.749788113598
 20
288.702981677841
 30
0
 40
1.493237914075097
 50
296.1544208456157
 51
309.8401654847325
  0
ARC
  8
0
 62
7
 10
1621.760930136773
 20
288.6966450522199
 30
0
 40
1.481241139788664
 50
309.6662680094611
 51
319.0399120094695
  0
ARC
  8
0
 62
7
 10
1621.77184433376
 20
288.3646512801975
 30
0
 40
2.051192838085715
 50
279.5637989053413
 51
286.1150326430306
  0
ARC
  8
0
 62
7
 10
1621.813499525847
 20
288.0683408114111
 30
0
 40
1.752098870096511
 50
269.5477841660271
 51
279.8304615114219
  0
ARC
  8
0
 62
7
 10
1621.802797267297
 20
287.7524866323222
 30
0
 40
1.43619352134607
 50
258.072341431216
 51
269.8752782837469
  0
ARC
  8
0
 62
7
 10
1621.74339410521
 20
287.5042420569139
 30
0
 40
1.181051132216172
 50
244.789052089173
 51
258.4029213811732
  0
ARC
  8
0
 62
7
 10
1621.662606731667
 20
287.3477754087174
 30
0
 40
1.005097712873358
 50
219.8640191530169
 51
245.1564369362348
  0
ARC
  8
0
 62
7
 10
1621.655267456459
 20
287.3394017565536
 30
0
 40
0.99409857387734
 50
206.6203896217587
 51
219.7647062387621
  0
ARC
  8
0
 62
7
 10
1621.77330955936
 20
287.3864192963345
 30
0
 40
1.120747698474127
 50
188.0534115959804
 51
206.0652615780709
  0
ARC
  8
0
 62
7
 10
1622.053722604069
 20
287.4133122144481
 30
0
 40
1.402220002369378
 50
173.904200507636
 51
187.5362258922349
  0
ARC
  8
0
 62
7
 10
1622.440777310035
 20
287.3562007883122
 30
0
 40
1.793219539982222
 50
160.6691240869762
 51
173.4029826217647
  0
ARC
  8
0
 62
7
 10
1622.871860058223
 20
287.1857622819361
 30
0
 40
2.256490911132081
 50
146.9910805580973
 51
160.2087359000049
  0
ARC
  8
0
 62
7
 10
1623.228442109054
 20
286.9306695141739
 30
0
 40
2.694554065243101
 50
129.809222861328
 51
146.5729906533295
  0
ARC
  8
0
 62
7
 10
1623.226529018178
 20
286.9402358955672
 30
0
 40
2.685984567160262
 50
120.0153578154209
 51
129.9085230286184
  0
ARC
  8
0
 62
7
 10
1623.072381084151
 20
287.2379549970304
 30
0
 40
2.351133210703874
 50
106.0012226650566
 51
120.3919484940622
  0
ARC
  8
0
 62
7
 10
1622.965753079929
 20
287.6547445377186
 30
0
 40
1.921138976257125
 50
93.91075382841987
 51
106.3708778797139
  0
ARC
  8
0
 62
7
 10
1622.950333055262
 20
288.0451825028657
 30
0
 40
1.530599768771449
 50
81.26721903970605
 51
94.33168826280021
  0
ARC
  8
0
 62
7
 10
1623.008215999506
 20
288.3554257828466
 30
0
 40
1.215206972508991
 50
66.31622934557174
 51
81.74384487547471
  0
ARC
  8
0
 62
7
 10
1623.098507089332
 20
288.5411231630635
 30
0
 40
1.008913276633032
 50
39.88386297060162
 51
66.77588744932997
  0
ARC
  8
0
 62
7
 10
1623.080489319483
 20
288.5358510555923
 30
0
 40
1.026147256177424
 50
17.32803600318575
 51
39.4646400031578
  0
ARC
  8
0
 62
7
 10
1622.86498548669
 20
288.483395328113
 30
0
 40
1.247573811190098
 50
0.2586513335495839
 51
16.67996079785349
  0
ARC
  8
0
 62
7
 10
1622.54740930672
 20
288.4918083018148
 30
0
 40
1.565139749771938
 50
348.2748028406322
 51
359.8981928379363
  0
ARC
  8
0
 62
7
 10
1622.43004162082
 20
288.5122702122015
 30
0
 40
1.684238487387358
 50
343.3758325417232
 51
347.9824194735231
  0
ARC
  8
0
 62
7
 10
1626.854506696135
 20
286.2825931562059
 30
0
 40
4.140673525547976
 50
172.0422530222012
 51
178.5102310641999
  0
ARC
  8
0
 62
7
 10
1626.327535821171
 20
286.3703108090264
 30
0
 40
3.606660128929794
 50
165.4054527325617
 51
172.2633508748595
  0
ARC
  8
0
 62
7
 10
1637.474187262571
 20
284.3712157594434
 30
0
 40
13.91987366734391
 50
164.7591934710325
 51
165.2789240548319
  0
ARC
  8
0
 62
7
 10
1629.498019831046
 20
286.4568222051306
 30
0
 40
5.675556232523596
 50
165.1809136619362
 51
168.0850487024366
  0
ARC
  8
0
 62
7
 10
1627.036179972958
 20
286.9873547744165
 30
0
 40
3.157241444528629
 50
168.2816227574968
 51
170.2378023405969
  0
ARC
  8
0
 62
7
 10
1629.882125534633
 20
286.5080125892517
 30
0
 40
6.043263133884855
 50
170.334083883649
 51
172.0658069810478
  0
ARC
  8
0
 62
7
 10
1635.163211973963
 20
285.799904472324
 30
0
 40
11.37157288764627
 50
172.2051146282165
 51
175.9637585386166
  0
ARC
  8
0
 62
7
 10
1630.662601209376
 20
286.1066237084119
 30
0
 40
6.860544223979661
 50
175.8733282604817
 51
177.6306701430819
  0
ARC
  8
1
 62
7
 10
1587.826220386755
 20
364.5725854462563
 30
0
 40
14.99999999999983
 50
281.0707110058821
 51
288.2812104569509
  0
ARC
  8
1
 62
7
 10
1668.806987028236
 20
281.5176914205203
 30
0
 40
14.9999999999999
 50
101.0894803555134
 51
108.2847074787941
  0
ARC
  8
1
 62
7
 10
1720.315336403074
 20
303.8417344701846
 30
0
 40
3
 50
0
 51
101.0894803555176
  0
ARC
  8
1
 62
7
 10
1668.806987028236
 20
364.5701141341237
 30
0
 40
15
 50
251.715292521206
 51
258.9105196444867
  0
ARC
  8
1
 62
7
 10
1720.315336403074
 20
342.2460710844593
 30
0
 40
2.999999999999879
 50
258.9105196444818
 51
0
  0
ARC
  8
1
 62
7
 10
1531.315336403074
 20
304.7997610156469
 30
0
 40
3.000000000000145
 50
78.92928899411503
 51
180
  0
ARC
  8
1
 62
7
 10
1587.826220386755
 20
281.5152201083875
 30
0
 40
14.9999999999999
 50
71.7187895430492
 51
78.92928899411803
  0
ARC
  8
1
 62
7
 10
1531.315336403074
 20
341.288044538997
 30
0
 40
3
 50
180
 51
281.0707110058854
  0
ARC
  8
1
 62
7
 10
1459.048005226297
 20
116.5062894558897
 30
0
 40
137.0000000000003
 50
353.674712277416
 51
4.160700482236135
  0
ARC
  8
1
 62
7
 10
1710.190060480018
 20
123.1552964421289
 30
0
 40
43.99999999999977
 50
175.2963545202532
 51
205.4553353198521
  0
ARC
  8
1
 62
7
 10
1705.247681388803
 20
124.107113797062
 30
0
 40
38.99999999999925
 50
151.1263247147806
 51
176.0945946171472
  0
ARC
  8
1
 62
7
 10
1578.812721197716
 20
124.3820358956841
 30
0
 40
17.00000000000189
 50
6.974155103505104
 51
66.11578954213429
  0
ARC
  8
1
 62
7
 10
1580.537851989352
 20
145.2156101373189
 30
0
 40
4.999999999999986
 50
279.6319932573301
 51
353.6545960172259
  0
ARC
  8
1
 62
7
 10
1531.31616857044
 20
101.4213561945642
 30
0
 40
3.000000000000573
 50
65.73016935626613
 51
180
  0
ARC
  8
1
 62
7
 10
1664.315336403073
 20
85.07674149904732
 30
0
 40
5.999999999999893
 50
119.8199061988087
 51
181.4839862698326
  0
ARC
  8
1
 62
7
 10
1651.386175543907
 20
107.6341526864553
 30
0
 40
19.99999999999984
 50
299.819906198815
 51
334.2751389910175
  0
ARC
  8
1
 62
7
 10
1606.816372248585
 20
260.4040885994115
 30
0
 40
172.9999999999997
 50
244.5775152941962
 51
270.4123152156273
  0
ARC
  8
1
 62
7
 10
1628.31533640307
 20
439.9213561945645
 30
0
 40
353.0000000000003
 50
270
 51
274.28333090314
  0
ARC
  8
1
 62
7
 10
1651.386175543907
 20
107.6341526864553
 30
0
 40
19.99999999999948
 50
279.4805069406069
 51
299.819906198815
  0
ARC
  8
1
 62
7
 10
1593.346521730958
 20
85.51253482543721
 30
0
 40
4.999999999999585
 50
6.40256167802853
 51
28.84857470050179
  0
ARC
  8
1
 62
7
 10
1628.315336403073
 20
436.9213561945644
 30
0
 40
350.0000000000002
 50
268.0470919588313
 51
270
  0
ARC
  8
1
 62
7
 10
1588.315336403073
 20
151.5816102324087
 30
0
 40
1.999999999999943
 50
300.0000000000009
 51
0
  0
ARC
  8
1
 62
7
 10
1593.315336403073
 20
142.9213561945642
 30
0
 40
8.000000000000165
 50
119.9999999999993
 51
167.4256965937818
  0
ARC
  8
1
 62
7
 10
1668.315336403073
 20
151.5816102324087
 30
0
 40
2
 50
180
 51
240.0000000000003
  0
ARC
  8
1
 62
7
 10
1663.315336403073
 20
142.9213561945642
 30
0
 40
8.00000000000006
 50
20.07375449334791
 51
60.00000000000038
  0
ARC
  8
1
 62
7
 10
1672.707852142419
 20
146.3536510662403
 30
0
 40
1.999999999999744
 50
200.0737544933503
 51
260.0737544933655
  0
ARC
  8
1
 62
7
 10
1679.315336403078
 20
146.2125383458375
 30
0
 40
3.0000000000001
 50
259.5206107032706
 51
260.0737544932463
  0
ARC
  8
1
 62
7
 10
1625.815336403073
 20
85.93025944138451
 30
0
 40
1
 50
0
 51
89.59190695181169
  0
ARC
  8
1
 62
7
 10
1630.815336403073
 20
85.93018398825051
 30
0
 40
1.000000000000204
 50
90.40463457476112
 51
180
  0
ARC
  8
1
 62
7
 10
1531.31616857044
 20
138.6234270486675
 30
0
 40
2.999999999999718
 50
187.7068968448826
 51
275.3362683532405
  0
ARC
  8
1
 62
7
 10
1720.27847328164
 20
138.6234270486675
 30
0
 40
3.000000000000236
 50
264.6637316467638
 51
352.2931031551179
  0
ARC
  8
1
 62
7
 10
1679.315336403073
 20
146.2125383458384
 30
0
 40
3
 50
180
 51
259.5206107033677
  0
ARC
  8
1
 62
7
 10
1718.211039619366
 20
138.9032084627329
 30
0
 40
5.086278885374567
 50
352.2931031551422
 51
354.5638911919162
  0
ARC
  8
1
 62
7
 10
1627.872860877915
 20
113.6874756932172
 30
0
 40
3.374999999999558
 50
358.1244947343116
 51
90
  0
ARC
  8
1
 62
7
 10
1627.603014977595
 20
113.3349625711318
 30
0
 40
2.250000000000387
 50
10.06068979214921
 51
90
  0
ARC
  8
1
 62
7
 10
1627.033131796029
 20
113.3377092749735
 30
0
 40
2.812500000000349
 50
260.621452448802
 51
7.977046467635507
  0
ARC
  8
1
 62
7
 10
1655.311790948527
 20
190.1837791843931
 30
0
 40
10.00545454545491
 50
351.8290845893101
 51
8.170915410688771
  0
ARC
  8
1
 62
7
 10
1628.315336403073
 20
251.0588965851798
 30
0
 40
36.33753962271116
 50
187.6099843283899
 51
352.3900156716105
  0
ARC
  8
1
 62
7
 10
1627.582852040006
 20
242.156681592572
 30
0
 40
0.5174999999990178
 50
0
 51
180
  0
ARC
  8
1
 62
7
 10
1627.582852040006
 20
242.156681592572
 30
0
 40
0.877500000000072
 50
37.35685197291033
 51
126.138814663115
  0
ARC
  8
1
 62
7
 10
1628.977852040006
 20
242.156681592572
 30
0
 40
0.5175000000001546
 50
0
 51
180
  0
ARC
  8
1
 62
7
 10
1628.977852040006
 20
242.156681592572
 30
0
 40
0.8775000000000546
 50
0
 51
142.6431480270897
  0
ARC
  8
1
 62
7
 10
1628.315336403074
 20
323.043902777322
 30
0
 40
40.80000000000028
 50
15.64093257294761
 51
90
  0
ARC
  8
1
 62
7
 10
1628.315336403074
 20
323.043902777322
 30
0
 40
45
 50
0
 51
18.85622178174214
  0
ARC
  8
1
 62
7
 10
1628.282836403074
 20
308.6234720013107
 30
0
 40
0.8774999999989177
 50
0
 51
142.6431480270985
  0
ARC
  8
1
 62
7
 10
1628.282836403074
 20
308.6234720013107
 30
0
 40
0.5174999999999272
 50
0
 51
180
  0
ARC
  8
1
 62
7
 10
1626.887836403073
 20
308.6234720013107
 30
0
 40
0.8775000000008721
 50
37.35685197285644
 51
126.1388146630844
  0
ARC
  8
1
 62
7
 10
1626.887836403073
 20
308.6234720013107
 30
0
 40
0.5175000000001546
 50
0
 51
180
  0
ARC
  8
1
 62
7
 10
1628.315336403074
 20
323.043902777322
 30
0
 40
45
 50
180
 51
0
  0
ARC
  8
1
 62
7
 10
1628.315336403074
 20
323.043902777322
 30
0
 40
45.00000000000078
 50
18.85622178174126
 51
180
  0
ARC
  8
1
 62
7
 10
1628.315336403074
 20
323.043902777322
 30
0
 40
37
 50
0
 51
180
  0
ARC
  8
1
 62
7
 10
1628.315336403074
 20
323.043902777322
 30
0
 40
40.79999999999973
 50
90
 51
164.3590674270523
  0
CIRCLE
  8
1
 62
7
 10
1673.315336403073
 20
148.4213561945642
 30
0
 40
1
  0
CIRCLE
  8
1
 62
7
 10
1628.315336403074
 20
323.043902777322
 30
0
 40
41.5
  0
DIMENSION
  8
1
  6
CONTINUOUS
 62
2
  2
*D0
  3
DMST_1
 10
1513.315336403073
 20
68.10223008670326
 30
0
 11
1624.762968986947
 21
69.69223008670326
 31
0
 12
0
 22
0
 32
0
 70
0
  1
225
 13
1738.315336403073
 23
101.4213561945642
 33
0
 14
1513.315336403073
 24
101.4213561945642
 34
0
 53
0
  0
DIMENSION
  8
1
  6
CONTINUOUS
 62
2
  2
*D1
  3
DMST_2
 10
1746.034176135342
 20
246.7213569624693
 30
0
 11
1744.444176135342
 21
187.413205741771
 31
0
 12
0
 22
0
 32
0
 70
0
  1
162
 13
1658.315336403073
 23
84.92135619456421
 33
0
 14
1662.713450197988
 24
246.7213569624693
 34
0
 50
90
 53
0
  0
DIMENSION
  8
1
  6
CONTINUOUS
 62
2
  2
*D2
  3
DMST_3
 10
1687.818259302892
 20
372.043902777322
 30
0
 11
1686.478259302892
 21
358.547926775093
 31
0
 12
0
 22
0
 32
0
 70
0
 13
1632.315336403074
 23
274.0439027773219
 33
0
 14
1632.315336403074
 24
372.043902777322
 34
0
 50
90
 53
0
  0
DIMENSION
  8
1
  6
CONTINUOUS
 62
2
  2
*D3
  3
DMST_1
 10
1686.585425981672
 20
119.9213561945642
 30
0
 11
1684.995425981672
 21
110.7266091497
 31
0
 12
0
 22
0
 32
0
 70
0
 13
1658.315336403073
 23
84.92135619456421
 33
0
 14
1647.0720355779
 24
119.9213561945642
 34
0
 50
90
 53
0
  0
DIMENSION
  8
1
  6
CONTINUOUS
 62
2
  2
*D4
  3
DMST_4
 10
1723.305971518886
 20
150.7455697569372
 30
0
 11
1730.810653960977
 21
152.4355697569372
 31
0
 12
0
 22
0
 32
0
 70
1
  1
15
 13
1738.315336403073
 23
138.4213561945642
 33
0
 14
1723.305971518886
 24
138.4213561945642
 34
0
 53
0
  0
ENDSEC
  0
EOF
