  0
SECTION
  2
HEADER
  9
$ACADVER
  1
AC1009
  9
$INSBASE
 10
0
 20
0
  9
$EXTMIN
 10
68.7861764207
 20
226.5648244987386
  9
$EXTMAX
 10
626.2649628353938
 20
816.6112676501
  9
$LIMMIN
 10
68.7861764207
 20
226.5648244987386
  9
$LIMMAX
 10
626.2649628353938
 20
816.6112676501
  9
$VIEWCTR
 10
10
 20
10
  9
$VIEWSIZE
 40
10
  9
$SNAPMODE
 70
0
  9
$SNAPUNIT
 10
1
 20
1
  9
$SNAPBASE
 10
0
 20
0
  9
$SNAPANG
 50
0
  9
$SNAPSTYLE
 70
0
  9
$SNAPISOPAIR
 70
0
  9
$GRIDMODE
 70
0
  9
$GRIDUNIT
 10
0
 20
0
  9
$ORTHOMODE
 70
0
  9
$REGENMODE
 70
1
  9
$FILLMODE
 70
1
  9
$QTEXTMODE
 70
0
  9
$DRAGMODE
 70
2
  9
$LTSCALE
 40
1
  9
$OSMODE
 70
0
  9
$ATTMODE
 70
1
  9
$TEXTSIZE
 40
3.5
  9
$TRACEWID
 40
0.5
  9
$TEXTSTYLE
  7
STANDARD
  9
$CLAYER
  8
0
  9
$CELTYPE
  6
BYLAYER
  9
$CECOLOR
 62
256
  9
$DIMSCALE
 40
1
  9
$DIMASZ
 40
0.18
  9
$DIMEXO
 40
0.0625
  9
$DIMDLI
 40
0.38
  9
$DIMRND
 40
0
  9
$DIMDLE
 40
0
  9
$DIMEXE
 40
0.18
  9
$DIMTP
 40
0
  9
$DIMTM
 40
0
  9
$DIMTXT
 40
0.18
  9
$DIMCEN
 40
0.09
  9
$DIMTSZ
 40
0
  9
$DIMTOL
 70
0
  9
$DIMLIM
 70
0
  9
$DIMTIH
 70
1
  9
$DIMTOH
 70
1
  9
$DIMSE1
 70
0
  9
$DIMSE2
 70
0
  9
$DIMTAD
 70
0
  9
$DIMZIN
 70
0
  9
$DIMBLK
  1

  9
$DIMASO
 70
1
  9
$DIMSHO
 70
1
  9
$DIMPOST
  1

  9
$DIMAPOST
  1

  9
$DIMALT
 70
0
  9
$DIMALTD
 70
2
  9
$DIMALTF
 40
25.4
  9
$DIMLFAC
 40
1
  9
$DIMTOFL
 70
0
  9
$DIMTVP
 40
0
  9
$DIMTIX
 70
0
  9
$DIMSOXD
 70
0
  9
$DIMSAH
 70
0
  9
$DIMBLK1
  1

  9
$DIMBLK2
  1

  9
$DIMSTYLE
  2
*UNNAMED
  9
$DIMCLRD
 70
0
  9
$DIMCLRE
 70
0
  9
$DIMCLRT
 70
0
  9
$DIMTFAC
 40
1
  9
$DIMGAP
 40
0.09
  9
$LUNITS
 70
2
  9
$LUPREC
 70
4
  9
$AXISMODE
 70
0
  9
$AXISUNIT
 10
0
 20
0
  9
$SKETCHINC
 40
0.1
  9
$FILLETRAD
 40
2
  9
$AUNITS
 70
0
  9
$AUPREC
 70
0
  9
$MENU
  1
ACAD
  9
$ELEVATION
 40
0
  9
$THICKNESS
 40
0
  9
$VIEWDIR
 10
0
 20
0
 30
1
  9
$LIMCHECK
 70
0
  9
$BLIPMODE
 70
1
  9
$CHAMFERA
 40
0
  9
$CHAMFERB
 40
0
  9
$FASTZOOM
 70
1
  9
$SKPOLY
 70
0
  9
$ANGBASE
 50
0
  9
$ANGDIR
 70
0
  9
$PDMODE
 70
0
  9
$PDSIZE
 40
0
  9
$PLINEWID
 40
0
  9
$COORDS
 70
2
  0
ENDSEC
  0
SECTION
  2
TABLES
  0
TABLE
  2
DIMSTYLE
 70
2
  0
DIMSTYLE
  2
DMST_1
 70
0
  3

  4

  5

  6

  7

 40
1
 41
3.2
 42
0.5
 43
7
 44
1.5
 45
0
 46
0
 47
0
 48
0
140
3.2
141
0
142
0
143
25.4
144
1
145
0
146
1
147
0.09
 71
0
 72
0
 73
0
 74
0
 75
0
 76
0
 77
1
 78
9
170
0
171
2
172
0
173
0
174
0
175
0
176
2
177
2
178
2
  0
DIMSTYLE
  2
DMST_2
 70
0
  3

  4

  5

  6

  7

 40
1
 41
3.2
 42
0.5
 43
7
 44
1.5
 45
0
 46
0
 47
0
 48
0
140
3.2
141
0
142
0
143
25.4
144
1
145
0
146
1
147
0.09
 71
0
 72
0
 73
0
 74
0
 75
0
 76
0
 77
1
 78
9
170
0
171
2
172
1
173
0
174
0
175
0
176
2
177
2
178
2
  0
ENDTAB
  0
TABLE
  2
LTYPE
 70
9
  0
LTYPE
  2
CONTINUOUS
 70
64
  3
Solid line
 72
65
 73
0
 40
0
  0
LTYPE
  2
BORDER
 70
64
  3
__ __ . __ __ .
 72
65
 73
6
 40
27.17319146091796
 49
7.763768988833702
 49
-3.881884494416851
 49
7.763768988833702
 49
-3.881884494416851
 49
0
 49
-3.881884494416851
  0
LTYPE
  2
CENTER
 70
64
  3
____ _ ____ _
 72
65
 73
4
 40
31.05507595533481
 49
19.40942247208426
 49
-3.881884494416851
 49
3.881884494416851
 49
-3.881884494416851
  0
LTYPE
  2
DASHDOT
 70
64
  3
__ . __ . __ .
 72
65
 73
4
 40
15.5275379776674
 49
7.763768988833702
 49
-3.881884494416851
 49
0
 49
-3.881884494416851
  0
LTYPE
  2
DASHED
 70
64
  3
__ __ __ __ __
 72
65
 73
2
 40
11.64565348325055
 49
7.763768988833702
 49
-3.881884494416851
  0
LTYPE
  2
DIVIDE
 70
64
  3
__ . . __ . . 
 72
65
 73
6
 40
19.40942247208426
 49
7.763768988833702
 49
-3.881884494416851
 49
0
 49
-3.881884494416851
 49
0
 49
-3.881884494416851
  0
LTYPE
  2
DOT
 70
64
  3
..............
 72
65
 73
4
 40
7.763768988833702
 49
0
 49
-3.881884494416851
 49
0
 49
-3.881884494416851
  0
LTYPE
  2
HIDDEN
 70
64
  3
_ _ _ _ _ _ _
 72
65
 73
2
 40
5.822826741625276
 49
3.881884494416851
 49
-1.940942247208426
  0
LTYPE
  2
PHANTOM
 70
64
  3
_____ _ _ _____ _ _ 
 72
65
 73
6
 40
38.81884494416851
 49
19.40942247208426
 49
-3.881884494416851
 49
3.881884494416851
 49
-3.881884494416851
 49
3.881884494416851
 49
-3.881884494416851
  0
ENDTAB
  0
TABLE
  2
LAYER
 70
3
  0
LAYER
  2
0
 70
0
 62
7
  6
CONTINUOUS
  0
LAYER
  2
1
 70
0
 62
7
  6
CONTINUOUS
  0
ENDTAB
  0
TABLE
  2
STYLE
 70
4
  0
STYLE
  2
STANDARD
 70
0
 40
0
 41
1
 50
0
 71
0
 42
3.5
  3
txt
  4

  0
STYLE
  2
SIMPLEX
 70
0
 40
0
 41
1
 50
0
 71
0
 42
3.5
  3
simplex
  4

  0
STYLE
  2
COMPLEX
 70
0
 40
0
 41
1
 50
0
 71
0
 42
3.5
  3
complex
  4

  0
STYLE
  2
ITALIC
 70
0
 40
0
 41
1
 50
0
 71
0
 42
3.5
  3
italic
  4

  0
ENDTAB
  0
TABLE
  2
VIEW
 70
0
  0
ENDTAB
  0
ENDSEC
  0
SECTION
  2
BLOCKS
  0
BLOCK
  8
1
  2
*D0
 70
1
 10
0
 20
0
 30
0
  0
LINE
  8
1
 62
2
 10
339
 20
368.0273879336
 30
0
 11
339
 21
448.0273861455
 31
0
  0
LINE
  8
1
 62
2
 10
336.0701132146999
 20
448.0273861455
 30
0
 11
340.5
 21
448.0273861455
 31
0
  0
LINE
  8
1
 62
2
 10
252.4622805718
 20
368.0273879336
 30
0
 11
340.5
 21
368.0273879336
 31
0
  0
LINE
  8
1
 62
2
 10
339
 20
368.0273879336
 30
0
 11
338.136
 21
371.2273879336
 31
0
  0
LINE
  8
1
 62
2
 10
339
 20
368.0273879336
 30
0
 11
339.864
 21
371.2273879336
 31
0
  0
LINE
  8
1
 62
2
 10
339
 20
448.0273861455
 30
0
 11
339.864
 21
444.8273861455
 31
0
  0
LINE
  8
1
 62
2
 10
339
 20
448.0273861455
 30
0
 11
338.136
 21
444.8273861455
 31
0
  0
TEXT
  8
1
 62
2
 10
338
 20
405.1986683316602
 30
0
 40
3.2
  1
80
 50
90
 41
0.9
 51
15
  0
ENDBLK
  8
0
  0
BLOCK
  8
1
  2
*D1
 70
1
 10
0
 20
0
 30
0
  0
LINE
  8
1
 62
2
 10
348.96228140042
 20
368.0273879336
 30
0
 11
348.96228140042
 21
585.0273806618
 31
0
  0
LINE
  8
1
 62
2
 10
249.4622819427
 20
585.0273806618
 30
0
 11
350.46228140042
 21
585.0273806618
 31
0
  0
LINE
  8
1
 62
2
 10
252.4622805717999
 20
368.0273879336
 30
0
 11
350.46228140042
 21
368.0273879336
 31
0
  0
LINE
  8
1
 62
2
 10
348.96228140042
 20
368.0273879336
 30
0
 11
348.09828140042
 21
371.2273879336
 31
0
  0
LINE
  8
1
 62
2
 10
348.96228140042
 20
368.0273879336
 30
0
 11
349.82628140042
 21
371.2273879336
 31
0
  0
LINE
  8
1
 62
2
 10
348.96228140042
 20
585.0273806618
 30
0
 11
349.82628140042
 21
581.8273806617999
 31
0
  0
LINE
  8
1
 62
2
 10
348.96228140042
 20
585.0273806618
 30
0
 11
348.09828140042
 21
581.8273806617999
 31
0
  0
TEXT
  8
1
 62
2
 10
347.96228140042
 20
472.7386655898102
 30
0
 40
3.2
  1
217
 50
90
 41
0.9
 51
15
  0
ENDBLK
  8
0
  0
BLOCK
  8
1
  2
*D2
 70
1
 10
0
 20
0
 30
0
  0
LINE
  8
1
 62
2
 10
81.96228623419999
 20
331.8682576643
 30
0
 11
326.962283552
 21
331.8682576643
 31
0
  0
LINE
  8
1
 62
2
 10
326.962283552
 20
397.5273854004
 30
0
 11
326.962283552
 21
330.3682576643
 31
0
  0
LINE
  8
1
 62
2
 10
81.96228623419999
 20
397.5273854004
 30
0
 11
81.96228623419999
 21
330.3682576643
 31
0
  0
LINE
  8
1
 62
2
 10
81.96228623419999
 20
331.8682576643
 30
0
 11
85.1622862342
 21
332.7322576642999
 31
0
  0
LINE
  8
1
 62
2
 10
81.96228623419999
 20
331.8682576643
 30
0
 11
85.1622862342
 21
331.0042576643
 31
0
  0
LINE
  8
1
 62
2
 10
326.962283552
 20
331.8682576643
 30
0
 11
323.762283552
 21
331.0042576643
 31
0
  0
LINE
  8
1
 62
2
 10
326.962283552
 20
331.8682576643
 30
0
 11
323.762283552
 21
332.7322576642999
 31
0
  0
TEXT
  8
1
 62
2
 10
200.1935661852102
 20
332.8682576643
 30
0
 40
3.2
  1
245
 41
0.9
 51
15
  0
ENDBLK
  8
0
  0
BLOCK
  8
1
  2
*D3
 70
1
 10
0
 20
0
 30
0
  0
LINE
  8
1
 62
2
 10
211.9622814659
 20
340.1203833051
 30
0
 11
326.962283552
 21
340.1203833051
 31
0
  0
LINE
  8
1
 62
2
 10
326.962283552
 20
397.5273854004
 30
0
 11
326.962283552
 21
338.6203833051
 31
0
  0
LINE
  8
1
 62
2
 10
211.9622814659
 20
357.4751171632
 30
0
 11
211.9622814659
 21
338.6203833051
 31
0
  0
LINE
  8
1
 62
2
 10
211.9622814659
 20
340.1203833051
 30
0
 11
215.1622814659
 21
340.9843833050999
 31
0
  0
LINE
  8
1
 62
2
 10
211.9622814659
 20
340.1203833051
 30
0
 11
215.1622814659
 21
339.2563833051
 31
0
  0
LINE
  8
1
 62
2
 10
326.962283552
 20
340.1203833051
 30
0
 11
323.762283552
 21
339.2563833051
 31
0
  0
LINE
  8
1
 62
2
 10
326.962283552
 20
340.1203833051
 30
0
 11
323.762283552
 21
340.9843833050999
 31
0
  0
TEXT
  8
1
 62
2
 10
266.1535638010602
 20
341.1203833051
 30
0
 40
3.2
  1
115
 41
0.9
 51
15
  0
ENDBLK
  8
0
  0
BLOCK
  8
1
  2
*D4
 70
1
 10
0
 20
0
 30
0
  0
LINE
  8
1
 62
2
 10
81.96228623420002
 20
340.1203833051
 30
0
 11
211.9622814659
 21
340.1203833051
 31
0
  0
LINE
  8
1
 62
2
 10
211.9622814659
 20
357.4751171632
 30
0
 11
211.9622814659
 21
338.6203833051
 31
0
  0
LINE
  8
1
 62
2
 10
81.96228623420002
 20
397.5273854004
 30
0
 11
81.96228623420002
 21
338.6203833051
 31
0
  0
LINE
  8
1
 62
2
 10
81.96228623420002
 20
340.1203833051
 30
0
 11
85.16228623420003
 21
340.9843833050999
 31
0
  0
LINE
  8
1
 62
2
 10
81.96228623420002
 20
340.1203833051
 30
0
 11
85.16228623420003
 21
339.2563833051
 31
0
  0
LINE
  8
1
 62
2
 10
211.9622814659
 20
340.1203833051
 30
0
 11
208.7622814659
 21
339.2563833051
 31
0
  0
LINE
  8
1
 62
2
 10
211.9622814659
 20
340.1203833051
 30
0
 11
208.7622814659
 21
340.9843833050999
 31
0
  0
TEXT
  8
1
 62
2
 10
143.1735651421602
 20
341.1203833051
 30
0
 40
3.2
  1
130
 41
0.9
 51
15
  0
ENDBLK
  8
0
  0
BLOCK
  8
1
  2
*D5
 70
1
 10
0
 20
0
 30
0
  0
LINE
  8
1
 62
2
 10
348.96228140042
 20
630.6112632393
 30
0
 11
348.96228140042
 21
816.6112676501
 31
0
  0
LINE
  8
1
 62
2
 10
325.4622797969
 20
816.6112676501
 30
0
 11
350.46228140042
 21
816.6112676501
 31
0
  0
LINE
  8
1
 62
2
 10
325.4622797969
 20
630.6112632393
 30
0
 11
350.46228140042
 21
630.6112632393
 31
0
  0
LINE
  8
1
 62
2
 10
348.96228140042
 20
816.6112676501
 30
0
 11
349.82628140042
 21
813.4112676500999
 31
0
  0
LINE
  8
1
 62
2
 10
348.96228140042
 20
816.6112676501
 30
0
 11
348.09828140042
 21
813.4112676500999
 31
0
  0
LINE
  8
1
 62
2
 10
348.96228140042
 20
630.6112632393
 30
0
 11
348.09828140042
 21
633.8112632393001
 31
0
  0
LINE
  8
1
 62
2
 10
348.96228140042
 20
630.6112632393
 30
0
 11
349.82628140042
 21
633.8112632393001
 31
0
  0
TEXT
  8
1
 62
2
 10
347.96228140042
 20
719.8225467368102
 30
0
 40
3.2
  1
186
 50
90
 41
0.9
 51
15
  0
ENDBLK
  8
0
  0
BLOCK
  8
1
  2
*D6
 70
1
 10
0
 20
0
 30
0
  0
LINE
  8
1
 62
2
 10
425.5653297291203
 20
437.3229200840298
 30
0
 11
626.2649628353938
 21
467.7127416039228
 31
0
  0
LINE
  8
1
 62
2
 10
566.9536172338226
 20
458.73185220697
 30
0
 11
563.9190346712325
 21
457.3985087887825
 31
0
  0
LINE
  8
1
 62
2
 10
566.9536172338226
 20
458.73185220697
 30
0
 11
563.6603308701367
 21
459.107033398877
 31
0
  0
LINE
  8
1
 62
2
 10
425.5653297291203
 20
437.3229200840298
 30
0
 11
428.5999122917104
 21
438.6562635022174
 31
0
  0
LINE
  8
1
 62
2
 10
425.5653297291203
 20
437.3229200840298
 30
0
 11
428.8586160928061
 21
436.9477388921229
 31
0
  0
TEXT
  8
1
 62
2
 10
620.2051811622139
 20
467.8065719452539
 30
0
 40
3.2
  1
D2
 50
8.610286044170971
 41
0.9
 51
15
  0
ENDBLK
  8
0
  0
BLOCK
  8
1
  2
*D7
 70
1
 10
0
 20
0
 30
0
  0
LINE
  8
1
 62
2
 10
446.8556838428317
 20
455.7259281433234
 30
0
 11
625.4935788208046
 21
427.8889683537674
 31
0
  0
LINE
  8
1
 62
2
 10
545.6632280821684
 20
440.3288499576767
 30
0
 11
542.3683560452951
 21
439.9678592921047
 31
0
  0
LINE
  8
1
 62
2
 10
545.6632280821684
 20
440.3288499576767
 30
0
 11
542.6344175454975
 21
441.6752535869616
 31
0
  0
LINE
  8
1
 62
2
 10
446.8556838428317
 20
455.7259281433234
 30
0
 11
450.1505558797051
 21
456.0869188088955
 31
0
  0
LINE
  8
1
 62
2
 10
446.8556838428317
 20
455.7259281433234
 30
0
 11
449.8844943795025
 21
454.3795245140385
 31
0
  0
TEXT
  8
1
 62
2
 10
619.7413907181634
 20
429.797394430773
 30
0
 40
3.2
  1
D3
 50
351.1428905003979
 41
0.9
 51
15
  0
ENDBLK
  8
0
  0
BLOCK
  8
1
  2
*D8
 70
1
 10
0
 20
0
 30
0
  0
LINE
  8
1
 62
2
 10
409.4089381251744
 20
414.7709973450815
 30
0
 11
623.1031169615965
 21
496.5977554659534
 31
0
  0
LINE
  8
1
 62
2
 10
583.1099777414256
 20
481.2837728985186
 30
0
 11
580.4305353475102
 21
479.3325977506426
 31
0
  0
LINE
  8
1
 62
2
 10
583.1099777414256
 20
481.2837728985186
 30
0
 11
579.812610211132
 21
480.946336430179
 31
0
  0
LINE
  8
1
 62
2
 10
409.4089381251744
 20
414.7709973450815
 30
0
 11
412.0883805190898
 21
416.7221724929574
 31
0
  0
LINE
  8
1
 62
2
 10
409.4089381251744
 20
414.7709973450815
 30
0
 11
412.706305655468
 21
415.108433813421
 31
0
  0
TEXT
  8
1
 62
2
 10
618.0598542495739
 20
495.7374186488943
 30
0
 40
3.2
  1
D1
 50
20.95260466967102
 41
0.9
 51
15
  0
ENDBLK
  8
0
  0
ENDSEC
  0
SECTION
  2
ENTITIES
  0
POLYLINE
  8
0
 62
2
 66
1
  0
VERTEX
  8
0
 10
208.1600955381643
 20
418.2612587607327
 30
0
 42
0.9999999999999999
  0
VERTEX
  8
0
 10
207.8742737898357
 20
417.8510077056673
 30
0
 42
0.9999999999999999
  0
VERTEX
  8
0
 10
208.1600955381643
 20
418.2612587607327
 30
0
  0
SEQEND
  8
0
  0
POLYLINE
  8
0
 62
2
 66
1
  0
VERTEX
  8
0
 10
208.017184664
 20
418.0561332332
 30
0
  0
VERTEX
  8
0
 10
164.7705329145
 20
356.1209328668
 30
0
  0
VERTEX
  8
0
 10
147.7904172478
 20
356.1209328668
 30
0
  0
SEQEND
  8
0
  0
POLYLINE
  8
0
 62
7
 66
1
  0
VERTEX
  8
0
 10
543.8353573331
 20
558.5273839729
 30
0
  0
VERTEX
  8
0
 10
546.2581967362
 20
558.2944937246
 30
0
  0
VERTEX
  8
0
 10
548.5853557833
 20
557.6788746016
 30
0
  0
SEQEND
  8
0
  0
POLYLINE
  8
0
 62
7
 66
1
  0
VERTEX
  8
0
 10
553.3353616842001
 20
558.5273839729
 30
0
  0
VERTEX
  8
0
 10
555.7582010874
 20
558.2944937246
 30
0
  0
VERTEX
  8
0
 10
558.0853601345
 20
557.6788746016
 30
0
  0
SEQEND
  8
0
  0
POLYLINE
  8
0
 62
7
 66
1
  0
VERTEX
  8
0
 10
439.1835523196
 20
558.5273839729
 30
0
  0
VERTEX
  8
0
 10
441.6063954481
 20
558.2944937246
 30
0
  0
VERTEX
  8
0
 10
443.9335544952
 20
557.6788746016
 30
0
  0
SEQEND
  8
0
  0
POLYLINE
  8
0
 62
7
 66
1
  0
VERTEX
  8
0
 10
448.6835548081
 20
558.5273839729
 30
0
  0
VERTEX
  8
0
 10
451.1063942113
 20
558.2944937246
 30
0
  0
VERTEX
  8
0
 10
453.4335569837
 20
557.6788746016
 30
0
  0
SEQEND
  8
0
  0
POLYLINE
  8
0
 62
7
 66
1
  0
VERTEX
  8
0
 10
406.9162090668
 20
559.0273849861
 30
0
  0
VERTEX
  8
0
 10
406.9542889842
 20
559.0768419401001
 30
0
  0
VERTEX
  8
0
 10
406.9925551661
 20
559.1262765424
 30
0
  0
VERTEX
  8
0
 10
407.030910755
 20
559.1756664412
 30
0
  0
VERTEX
  8
0
 10
407.0692439922
 20
559.2249892847
 30
0
  0
VERTEX
  8
0
 10
407.1074431189
 20
559.2742227213
 30
0
  0
VERTEX
  8
0
 10
407.1340491422
 20
559.3086295025
 30
0
  0
VERTEX
  8
0
 10
407.1604912528
 20
559.3429841296
 30
0
  0
VERTEX
  8
0
 10
407.1867470988
 20
559.377264251
 30
0
  0
VERTEX
  8
0
 10
407.2127719768
 20
559.4114773171
 30
0
  0
VERTEX
  8
0
 10
407.2346394309
 20
559.440452625
 30
0
  0
VERTEX
  8
0
 10
407.2562908181
 20
559.4693608777
 30
0
  0
VERTEX
  8
0
 10
407.2777112373
 20
559.4982020752
 30
0
  0
VERTEX
  8
0
 10
407.2988634356
 20
559.5269836681
 30
0
  0
VERTEX
  8
0
 10
407.3197325119
 20
559.5556907551
 30
0
  0
VERTEX
  8
0
 10
407.3402886637
 20
559.5843158858
 30
0
  0
VERTEX
  8
0
 10
407.3562105545
 20
559.6067570345
 30
0
  0
VERTEX
  8
0
 10
407.3719163784
 20
559.6291385786
 30
0
  0
VERTEX
  8
0
 10
407.3873986849
 20
559.6514754193
 30
0
  0
VERTEX
  8
0
 10
407.4026425728
 20
559.6737526552
 30
0
  0
VERTEX
  8
0
 10
407.4176405915
 20
559.6959702866
 30
0
  0
VERTEX
  8
0
 10
407.4323778399
 20
559.7181283133
 30
0
  0
VERTEX
  8
0
 10
407.4461912164
 20
559.7392283575
 30
0
  0
VERTEX
  8
0
 10
407.4597438225
 20
559.7602613466
 30
0
  0
VERTEX
  8
0
 10
407.4730356582
 20
559.7812421815
 30
0
  0
VERTEX
  8
0
 10
407.4860518225
 20
559.8021634118001
 30
0
  0
VERTEX
  8
0
 10
407.4987774142
 20
559.8230175869001
 30
0
  0
VERTEX
  8
0
 10
407.5112124332
 20
559.8438047068
 30
0
  0
VERTEX
  8
0
 10
407.5233419784
 20
559.8645247714001
 30
0
  0
VERTEX
  8
0
 10
407.5351585993
 20
559.8851852314
 30
0
  0
VERTEX
  8
0
 10
407.5452839383
 20
559.9032975929
 30
0
  0
VERTEX
  8
0
 10
407.5551559576
 20
559.9213652508
 30
0
  0
VERTEX
  8
0
 10
407.564759756
 20
559.9393733041
 30
0
  0
VERTEX
  8
0
 10
407.5740953335
 20
559.9573217528
 30
0
  0
VERTEX
  8
0
 10
407.5833191522
 20
559.9755384223
 30
0
  0
VERTEX
  8
0
 10
407.5922449478
 20
559.9936880367
 30
0
  0
VERTEX
  8
0
 10
407.6008727201
 20
560.0117780463
 30
0
  0
VERTEX
  8
0
 10
407.6091875681
 20
560.0298084514
 30
0
  0
VERTEX
  8
0
 10
407.6171894916
 20
560.0477643506
 30
0
  0
VERTEX
  8
0
 10
407.6248710402
 20
560.0656606452
 30
0
  0
VERTEX
  8
0
 10
407.6322173127
 20
560.083482434
 30
0
  0
VERTEX
  8
0
 10
407.639228309
 20
560.1012371676
 30
0
  0
VERTEX
  8
0
 10
407.6459040293
 20
560.1189173953
 30
0
  0
VERTEX
  8
0
 10
407.6522221216
 20
560.1365305679
 30
0
  0
VERTEX
  8
0
 10
407.6576535949
 20
560.1524748103
 30
0
  0
VERTEX
  8
0
 10
407.6627944955
 20
560.1683594482
 30
0
  0
VERTEX
  8
0
 10
407.6676224717
 20
560.1841844814001
 30
0
  0
VERTEX
  8
0
 10
407.6721449741
 20
560.1999424593
 30
0
  0
VERTEX
  8
0
 10
407.6763471016
 20
560.2156408326
 30
0
  0
VERTEX
  8
0
 10
407.6802288541
 20
560.2312721507
 30
0
  0
VERTEX
  8
0
 10
407.683782781
 20
560.2468364136
 30
0
  0
VERTEX
  8
0
 10
407.6868226179
 20
560.2613873975
 30
0
  0
VERTEX
  8
0
 10
407.689556981
 20
560.2758862273
 30
0
  0
VERTEX
  8
0
 10
407.6920007714
 20
560.2903254525
 30
0
  0
VERTEX
  8
0
 10
407.6941316375
 20
560.3046976225
 30
0
  0
VERTEX
  8
0
 10
407.6959570297
 20
560.3190101878
 30
0
  0
VERTEX
  8
0
 10
407.6974694976
 20
560.3332631485
 30
0
  0
VERTEX
  8
0
 10
407.6986541399
 20
560.347449054
 30
0
  0
VERTEX
  8
0
 10
407.6995258578
 20
560.3615679042
 30
0
  0
VERTEX
  8
0
 10
407.7000250467
 20
560.374166836
 30
0
  0
VERTEX
  8
0
 10
407.7002560147
 20
560.3867061631
 30
0
  0
VERTEX
  8
0
 10
407.7002262124
 20
560.3992007868
 30
0
  0
VERTEX
  8
0
 10
407.6999207386
 20
560.4116358058
 30
0
  0
VERTEX
  8
0
 10
407.6993321427
 20
560.4240186708
 30
0
  0
VERTEX
  8
0
 10
407.6984157213
 20
560.4370869891
 30
0
  0
VERTEX
  8
0
 10
407.6971789249
 20
560.4500957028999
 30
0
  0
VERTEX
  8
0
 10
407.695614303
 20
560.4630448119
 30
0
  0
VERTEX
  8
0
 10
407.6937367567
 20
560.4759268658
 30
0
  0
VERTEX
  8
0
 10
407.6915239342
 20
560.4887418644
 30
0
  0
VERTEX
  8
0
 10
407.6889832863
 20
560.5014898078
 30
0
  0
VERTEX
  8
0
 10
407.6862787255
 20
560.5134554403001
 30
0
  0
VERTEX
  8
0
 10
407.6832686909
 20
560.5253540175
 30
0
  0
VERTEX
  8
0
 10
407.6799606332
 20
560.5372004406
 30
0
  0
VERTEX
  8
0
 10
407.6763471016
 20
560.5489798085
 30
0
  0
VERTEX
  8
0
 10
407.6724206456
 20
560.5606995718
 30
0
  0
VERTEX
  8
0
 10
407.6679055938
 20
560.5730675356
 30
0
  0
VERTEX
  8
0
 10
407.6630403646
 20
560.5853609936
 30
0
  0
VERTEX
  8
0
 10
407.6578175076
 20
560.5975799458
 30
0
  0
VERTEX
  8
0
 10
407.6522295722
 20
560.6097318426999
 30
0
  0
VERTEX
  8
0
 10
407.6462691077
 20
560.6218166845
 30
0
  0
VERTEX
  8
0
 10
407.6399510154
 20
560.6338195698
 30
0
  0
VERTEX
  8
0
 10
407.6332752951
 20
560.6457628505
 30
0
  0
VERTEX
  8
0
 10
407.6262493976
 20
560.6576316254
 30
0
  0
VERTEX
  8
0
 10
407.6188807734
 20
560.6694333451
 30
0
  0
VERTEX
  8
0
 10
407.6111843237
 20
560.6811754601
 30
0
  0
VERTEX
  8
0
 10
407.6031525978
 20
560.6928430693
 30
0
  0
VERTEX
  8
0
 10
407.5948153981
 20
560.7044510739
 30
0
  0
VERTEX
  8
0
 10
407.5853606113
 20
560.7170500056
 30
0
  0
VERTEX
  8
0
 10
407.5755481967
 20
560.7295744316
 30
0
  0
VERTEX
  8
0
 10
407.5653856047
 20
560.7420243518
 30
0
  0
VERTEX
  8
0
 10
407.5548802861
 20
560.7544072168
 30
0
  0
VERTEX
  8
0
 10
407.5440545925
 20
560.7667230265
 30
0
  0
VERTEX
  8
0
 10
407.5329085239
 20
560.7789792316
 30
0
  0
VERTEX
  8
0
 10
407.5214569815
 20
560.7911683814
 30
0
  0
VERTEX
  8
0
 10
407.508746291
 20
560.8042665021
 30
0
  0
VERTEX
  8
0
 10
407.4957003244
 20
560.8172975676
 30
0
  0
VERTEX
  8
0
 10
407.4823339828
 20
560.8302615778
 30
0
  0
VERTEX
  8
0
 10
407.4686621674
 20
560.8431585328
 30
0
  0
VERTEX
  8
0
 10
407.4544315585
 20
560.8562343018
 30
0
  0
VERTEX
  8
0
 10
407.4399103769
 20
560.8692355649
 30
0
  0
VERTEX
  8
0
 10
407.4251060733
 20
560.882184674
 30
0
  0
VERTEX
  8
0
 10
407.4100409993
 20
560.8950741784
 30
0
  0
VERTEX
  8
0
 10
407.394715155
 20
560.9079040782
 30
0
  0
VERTEX
  8
0
 10
407.3752244362
 20
560.9238706724
 30
0
  0
VERTEX
  8
0
 10
407.35538354
 20
560.9397627609
 30
0
  0
VERTEX
  8
0
 10
407.3352222689
 20
560.9555728929
 30
0
  0
VERTEX
  8
0
 10
407.3147629746
 20
560.9713234203
 30
0
  0
VERTEX
  8
0
 10
407.2936554798
 20
560.9872825639
 30
0
  0
VERTEX
  8
0
 10
407.2722946652
 20
561.0031895535
 30
0
  0
VERTEX
  8
0
 10
407.2507103332
 20
561.0190294878
 30
0
  0
VERTEX
  8
0
 10
407.2289322861
 20
561.0348247187
 30
0
  0
VERTEX
  8
0
 10
407.2069754251
 20
561.0505677955
 30
0
  0
VERTEX
  8
0
 10
407.1740587601
 20
561.0739179151
 30
0
  0
VERTEX
  8
0
 10
407.1409260281
 20
561.0971860783
 30
0
  0
VERTEX
  8
0
 10
407.1076591858
 20
561.1203946368
 30
0
  0
VERTEX
  8
0
 10
407.0743476399
 20
561.1435510413
 30
0
  0
VERTEX
  8
0
 10
407.0410956987
 20
561.1666776435
 30
0
  0
VERTEX
  8
0
 10
407.0079927691
 20
561.1897893445
 30
0
  0
VERTEX
  8
0
 10
406.9803585657
 20
561.2092055575999
 30
0
  0
VERTEX
  8
0
 10
406.9529478797
 20
561.2286292212
 30
0
  0
VERTEX
  8
0
 10
406.9258128651
 20
561.248067786
 30
0
  0
VERTEX
  8
0
 10
406.8990131267
 20
561.2675361531
 30
0
  0
VERTEX
  8
0
 10
406.8797533759
 20
561.2817220585
 30
0
  0
VERTEX
  8
0
 10
406.8607171425
 20
561.2959303157001
 30
0
  0
VERTEX
  8
0
 10
406.8419342288
 20
561.3101609246
 30
0
  0
VERTEX
  8
0
 10
406.8234046348
 20
561.3244287865
 30
0
  0
VERTEX
  8
0
 10
406.8051730641
 20
561.3387264507001
 30
0
  0
VERTEX
  8
0
 10
406.7872395166
 20
561.3530613677
 30
0
  0
VERTEX
  8
0
 10
406.7696412452
 20
561.3674409883
 30
0
  0
VERTEX
  8
0
 10
406.7565282234
 20
561.37837099
 30
0
  0
VERTEX
  8
0
 10
406.7436312684
 20
561.3893233435
 30
0
  0
VERTEX
  8
0
 10
406.7309503802
 20
561.4003129499
 30
0
  0
VERTEX
  8
0
 10
406.71850046
 20
561.411324908
 30
0
  0
VERTEX
  8
0
 10
406.7060579904
 20
561.4225752847
 30
0
  0
VERTEX
  8
0
 10
406.6938762912
 20
561.4338629143
 30
0
  0
VERTEX
  8
0
 10
406.6819628128
 20
561.4451803462
 30
0
  0
VERTEX
  8
0
 10
406.6703175553
 20
561.4565424816
 30
0
  0
VERTEX
  8
0
 10
406.6589628705
 20
561.4679418699
 30
0
  0
VERTEX
  8
0
 10
406.6478987583
 20
561.4793859617
 30
0
  0
VERTEX
  8
0
 10
406.6371326693
 20
561.4908673064
 30
0
  0
VERTEX
  8
0
 10
406.6266869553
 20
561.5024008052
 30
0
  0
VERTEX
  8
0
 10
406.6165541657
 20
561.5139790075
 30
0
  0
VERTEX
  8
0
 10
406.6067641028
 20
561.5256093638
 30
0
  0
VERTEX
  8
0
 10
406.5967430719
 20
561.5379922287
 30
0
  0
VERTEX
  8
0
 10
406.5871094712
 20
561.5504346983
 30
0
  0
VERTEX
  8
0
 10
406.5778558501
 20
561.5629367726
 30
0
  0
VERTEX
  8
0
 10
406.568974758
 20
561.5754910009
 30
0
  0
VERTEX
  8
0
 10
406.5604810962
 20
561.5880973832
 30
0
  0
VERTEX
  8
0
 10
406.5523525127
 20
561.6007633702
 30
0
  0
VERTEX
  8
0
 10
406.545028592
 20
561.612758805
 30
0
  0
VERTEX
  8
0
 10
406.5380324968
 20
561.6247989433
 30
0
  0
VERTEX
  8
0
 10
406.5313642272
 20
561.6368912356001
 30
0
  0
VERTEX
  8
0
 10
406.5250163325
 20
561.6490282314001
 30
0
  0
VERTEX
  8
0
 10
406.5189888128
 20
561.6612099306
 30
0
  0
VERTEX
  8
0
 10
406.5129463919
 20
561.674188842
 30
0
  0
VERTEX
  8
0
 10
406.5072541484
 20
561.6872124569001
 30
0
  0
VERTEX
  8
0
 10
406.5019195327
 20
561.7002956764
 30
0
  0
VERTEX
  8
0
 10
406.4969425448
 20
561.7134310500001
 30
0
  0
VERTEX
  8
0
 10
406.4923008331
 20
561.7266185777
 30
0
  0
VERTEX
  8
0
 10
406.4880167493
 20
561.7398508088
 30
0
  0
VERTEX
  8
0
 10
406.4840679415
 20
561.7531426446
 30
0
  0
VERTEX
  8
0
 10
406.4804618605
 20
561.7664866345
 30
0
  0
VERTEX
  8
0
 10
406.4771985062
 20
561.7798753278
 30
0
  0
VERTEX
  8
0
 10
406.4742629775
 20
561.7933161752
 30
0
  0
VERTEX
  8
0
 10
406.4716627249
 20
561.8068091767
 30
0
  0
VERTEX
  8
0
 10
406.4693977484
 20
561.8203543322001
 30
0
  0
VERTEX
  8
0
 10
406.4672966846
 20
561.8351809876
 30
0
  0
VERTEX
  8
0
 10
406.4655830511
 20
561.8500746982001
 30
0
  0
VERTEX
  8
0
 10
406.4642493972
 20
561.8650205629
 30
0
  0
VERTEX
  8
0
 10
406.4633031734
 20
561.8800260322
 30
0
  0
VERTEX
  8
0
 10
406.4627294787
 20
561.8950836556001
 30
0
  0
VERTEX
  8
0
 10
406.462528313
 20
561.9102083342
 30
0
  0
VERTEX
  8
0
 10
406.4626996764
 20
561.9253777163
 30
0
  0
VERTEX
  8
0
 10
406.4631616124
 20
561.9390346305
 30
0
  0
VERTEX
  8
0
 10
406.4639215716
 20
561.9527287976
 30
0
  0
VERTEX
  8
0
 10
406.4649721035
 20
561.9664676683
 30
0
  0
VERTEX
  8
0
 10
406.4663057574
 20
561.9802512424
 30
0
  0
VERTEX
  8
0
 10
406.4679225334
 20
561.9940869705
 30
0
  0
VERTEX
  8
0
 10
406.4699490913
 20
562.0087944166
 30
0
  0
VERTEX
  8
0
 10
406.4722960242
 20
562.0235614674
 30
0
  0
VERTEX
  8
0
 10
406.4749484309
 20
562.0383732216
 30
0
  0
VERTEX
  8
0
 10
406.477913762
 20
562.0532296793
 30
0
  0
VERTEX
  8
0
 10
406.4811920174
 20
562.0681382911
 30
0
  0
VERTEX
  8
0
 10
406.4847682961
 20
562.0830990569
 30
0
  0
VERTEX
  8
0
 10
406.488642598
 20
562.0980970757
 30
0
  0
VERTEX
  8
0
 10
406.4928149232
 20
562.1131472485
 30
0
  0
VERTEX
  8
0
 10
406.4972927221
 20
562.1282421248
 30
0
  0
VERTEX
  8
0
 10
406.5020536431
 20
562.1433817045
 30
0
  0
VERTEX
  8
0
 10
406.5071051368
 20
562.1585659878
 30
0
  0
VERTEX
  8
0
 10
406.512447203
 20
562.1738024251
 30
0
  0
VERTEX
  8
0
 10
406.518593932
 20
562.1904693739
 30
0
  0
VERTEX
  8
0
 10
406.5250759372
 20
562.2071884768
 30
0
  0
VERTEX
  8
0
 10
406.5318932184
 20
562.2239597337
 30
0
  0
VERTEX
  8
0
 10
406.5390383252
 20
562.2407831447
 30
0
  0
VERTEX
  8
0
 10
406.5464963564
 20
562.2576587097
 30
0
  0
VERTEX
  8
0
 10
406.5542822131
 20
562.2745864289
 30
0
  0
VERTEX
  8
0
 10
406.5623809942
 20
562.291566302
 30
0
  0
VERTEX
  8
0
 10
406.5716495165
 20
562.3102970617
 30
0
  0
VERTEX
  8
0
 10
406.5812980183
 20
562.3290948765
 30
0
  0
VERTEX
  8
0
 10
406.5913041481
 20
562.3479448454
 30
0
  0
VERTEX
  8
0
 10
406.6016828069
 20
562.366854419
 30
0
  0
VERTEX
  8
0
 10
406.6124116429
 20
562.3858310477
 30
0
  0
VERTEX
  8
0
 10
406.6224699267
 20
562.4031238453
 30
0
  0
VERTEX
  8
0
 10
406.6328262337
 20
562.4204687969
 30
0
  0
VERTEX
  8
0
 10
406.6434582123
 20
562.4378584521
 30
0
  0
VERTEX
  8
0
 10
406.6543733128
 20
562.4552928107
 30
0
  0
VERTEX
  8
0
 10
406.6655640849
 20
562.4727718727
 30
0
  0
VERTEX
  8
0
 10
406.6770305284
 20
562.4902956383
 30
0
  0
VERTEX
  8
0
 10
406.6887651929
 20
562.5078715579
 30
0
  0
VERTEX
  8
0
 10
406.7027871856
 20
562.5284277098
 30
0
  0
VERTEX
  8
0
 10
406.7171742567
 20
562.5490434663
 30
0
  0
VERTEX
  8
0
 10
406.7319040545
 20
562.5697188275
 30
0
  0
VERTEX
  8
0
 10
406.7469840297
 20
562.5904463427
 30
0
  0
VERTEX
  8
0
 10
406.7623992809
 20
562.6112409131
 30
0
  0
VERTEX
  8
0
 10
406.7781423577
 20
562.6320876376
 30
0
  0
VERTEX
  8
0
 10
406.7956959256
 20
562.6548938648
 30
0
  0
VERTEX
  8
0
 10
406.8136294731
 20
562.6777671473
 30
0
  0
VERTEX
  8
0
 10
406.831928099
 20
562.7007000344
 30
0
  0
VERTEX
  8
0
 10
406.850599254
 20
562.7236999767
 30
0
  0
VERTEX
  8
0
 10
406.8696280369
 20
562.7467669742
 30
0
  0
VERTEX
  8
0
 10
406.889006997
 20
562.7698935764
 30
0
  0
VERTEX
  8
0
 10
406.9087361344
 20
562.7930797832
 30
0
  0
VERTEX
  8
0
 10
406.930417324
 20
562.8181956904
 30
0
  0
VERTEX
  8
0
 10
406.9524784931
 20
562.8433786528
 30
0
  0
VERTEX
  8
0
 10
406.9749196419
 20
562.868636121
 30
0
  0
VERTEX
  8
0
 10
406.9977184185
 20
562.8939531939
 30
0
  0
VERTEX
  8
0
 10
407.0212920555
 20
562.919799258
 30
0
  0
VERTEX
  8
0
 10
407.0452233204
 20
562.9457123773
 30
0
  0
VERTEX
  8
0
 10
407.0695047625
 20
562.9716925518
 30
0
  0
VERTEX
  8
0
 10
407.0941140302
 20
562.997732331
 30
0
  0
VERTEX
  8
0
 10
407.1190511235
 20
563.0238391654
 30
0
  0
VERTEX
  8
0
 10
407.1443011411
 20
563.0500056045
 30
0
  0
VERTEX
  8
0
 10
407.1698640832
 20
563.0762316482
 30
0
  0
VERTEX
  8
0
 10
407.1957101473
 20
563.1025172965
 30
0
  0
VERTEX
  8
0
 10
407.221846784
 20
563.1288625495
 30
0
  0
VERTEX
  8
0
 10
407.2482590922
 20
563.1552599566001
 30
0
  0
VERTEX
  8
0
 10
407.2765563973
 20
563.1833188431
 30
0
  0
VERTEX
  8
0
 10
407.3051442751
 20
563.2114373342999
 30
0
  0
VERTEX
  8
0
 10
407.3340003737
 20
563.2396154301
 30
0
  0
VERTEX
  8
0
 10
407.3631172427
 20
563.2678456800001
 30
0
  0
VERTEX
  8
0
 10
407.3924799808
 20
563.2961429851
 30
0
  0
VERTEX
  8
0
 10
407.4220811375
 20
563.3244849937
 30
0
  0
VERTEX
  8
0
 10
407.4572553285
 20
563.3579604523
 30
0
  0
VERTEX
  8
0
 10
407.4927275428
 20
563.3915029661
 30
0
  0
VERTEX
  8
0
 10
407.5284679779
 20
563.4251199858001
 30
0
  0
VERTEX
  8
0
 10
407.5644542822
 20
563.4588040607
 30
0
  0
VERTEX
  8
0
 10
407.6105957278
 20
563.5017566578
 30
0
  0
VERTEX
  8
0
 10
407.6570724496
 20
563.5448135631
 30
0
  0
VERTEX
  8
0
 10
407.7038471946
 20
563.5879598753
 30
0
  0
VERTEX
  8
0
 10
407.7508678087
 20
563.6311955945
 30
0
  0
VERTEX
  8
0
 10
407.8122456917
 20
563.6874623792
 30
0
  0
VERTEX
  8
0
 10
407.8738992461
 20
563.7438632743
 30
0
  0
VERTEX
  8
0
 10
407.9357316145
 20
563.8003833787
 30
0
  0
VERTEX
  8
0
 10
407.9976459392
 20
563.8570003407
 30
0
  0
VERTEX
  8
0
 10
408.0595677146
 20
563.9137141602
 30
0
  0
VERTEX
  8
0
 10
408.1214000829
 20
563.9705173866
 30
0
  0
VERTEX
  8
0
 10
408.1830461868
 20
564.0273876683
 30
0
  0
SEQEND
  8
0
  0
POLYLINE
  8
0
 62
7
 66
1
  0
VERTEX
  8
0
 10
188.7122812125
 20
666.1357246577001
 30
0
  0
VERTEX
  8
0
 10
187.5795377794
 20
666.6070372104
 30
0
  0
VERTEX
  8
0
 10
183.0561207983682
 20
668.7620692192757
 30
0
  0
SEQEND
  8
0
  0
POLYLINE
  8
0
 62
7
 66
1
  0
VERTEX
  8
0
 10
241.9739840928
 20
738.2104657828
 30
0
  0
VERTEX
  8
0
 10
242.1501865986
 20
737.4435812473
 30
0
  0
VERTEX
  8
0
 10
242.8286699954
 20
736.709648767
 30
0
  0
SEQEND
  8
0
  0
POLYLINE
  8
0
 62
7
 66
1
  0
VERTEX
  8
0
 10
242.2756394747
 20
739.2494902252
 30
0
  0
VERTEX
  8
0
 10
242.0521779362
 20
738.8221025705
 30
0
  0
VERTEX
  8
0
 10
241.9739840928
 20
738.2104657828
 30
0
  0
SEQEND
  8
0
  0
POLYLINE
  8
0
 62
7
 66
1
  0
VERTEX
  8
0
 10
241.9739840928
 20
735.4974504798
 30
0
  0
VERTEX
  8
0
 10
242.1501865986
 20
734.7305659442
 30
0
  0
VERTEX
  8
0
 10
242.8286699954
 20
733.996633464
 30
0
  0
SEQEND
  8
0
  0
POLYLINE
  8
0
 62
7
 66
1
  0
VERTEX
  8
0
 10
243.1805981699
 20
734.4006989389
 30
0
  0
VERTEX
  8
0
 10
243.0127403143
 20
734.6566152065
 30
0
  0
VERTEX
  8
0
 10
242.9292193059
 20
735.0356597691
 30
0
  0
SEQEND
  8
0
  0
POLYLINE
  8
0
 62
7
 66
1
  0
VERTEX
  8
0
 10
242.9292193059
 20
735.0356597691
 30
0
  0
VERTEX
  8
0
 10
242.9577922824
 20
735.2268509805
 30
0
  0
VERTEX
  8
0
 10
243.0800451342
 20
735.439725244
 30
0
  0
SEQEND
  8
0
  0
POLYLINE
  8
0
 62
7
 66
1
  0
VERTEX
  8
0
 10
243.0800451342
 20
735.439725244
 30
0
  0
VERTEX
  8
0
 10
243.3160758022
 20
735.5178930103
 30
0
  0
VERTEX
  8
0
 10
243.6330793801
 20
735.5384156346
 30
0
  0
SEQEND
  8
0
  0
POLYLINE
  8
0
 62
7
 66
1
  0
VERTEX
  8
0
 10
243.1805981699
 20
737.1714376151
 30
0
  0
VERTEX
  8
0
 10
243.0195426944
 20
737.4032289027
 30
0
  0
VERTEX
  8
0
 10
242.9292193059
 20
737.7486750721
 30
0
  0
SEQEND
  8
0
  0
POLYLINE
  8
0
 62
7
 66
1
  0
VERTEX
  8
0
 10
242.9292193059
 20
737.7486750721
 30
0
  0
VERTEX
  8
0
 10
242.954052091
 20
737.9650902241
 30
0
  0
VERTEX
  8
0
 10
243.0800451342
 20
738.2104657828
 30
0
  0
SEQEND
  8
0
  0
POLYLINE
  8
0
 62
7
 66
1
  0
VERTEX
  8
0
 10
243.0800451342
 20
738.2104657828
 30
0
  0
VERTEX
  8
0
 10
243.3313755694
 20
738.3277621358
 30
0
  0
VERTEX
  8
0
 10
243.6833521727
 20
738.3668776839
 30
0
  0
SEQEND
  8
0
  0
POLYLINE
  8
0
 62
7
 66
1
  0
VERTEX
  8
0
 10
242.2756394747
 20
748.2494935631
 30
0
  0
VERTEX
  8
0
 10
242.0521779362
 20
747.822102183
 30
0
  0
VERTEX
  8
0
 10
241.9739840928
 20
747.2104653954
 30
0
  0
SEQEND
  8
0
  0
POLYLINE
  8
0
 62
7
 66
1
  0
VERTEX
  8
0
 10
241.9739840928
 20
747.2104653954
 30
0
  0
VERTEX
  8
0
 10
242.1501865986
 20
746.4435808598
 30
0
  0
VERTEX
  8
0
 10
242.8286699954
 20
745.709646517
 30
0
  0
SEQEND
  8
0
  0
POLYLINE
  8
0
 62
7
 66
1
  0
VERTEX
  8
0
 10
241.9739840928
 20
744.4974482297
 30
0
  0
VERTEX
  8
0
 10
242.1501865986
 20
743.7305674195
 30
0
  0
VERTEX
  8
0
 10
242.8286699954
 20
742.9966330766
 30
0
  0
SEQEND
  8
0
  0
POLYLINE
  8
0
 62
7
 66
1
  0
VERTEX
  8
0
 10
243.1805981699
 20
743.4006966888001
 30
0
  0
VERTEX
  8
0
 10
243.0127403143
 20
743.6566129565
 30
0
  0
VERTEX
  8
0
 10
242.9292193059
 20
744.0356612442999
 30
0
  0
SEQEND
  8
0
  0
POLYLINE
  8
0
 62
7
 66
1
  0
VERTEX
  8
0
 10
242.9292193059
 20
744.0356612442999
 30
0
  0
VERTEX
  8
0
 10
242.9577922824
 20
744.226850593
 30
0
  0
VERTEX
  8
0
 10
243.0800451342
 20
744.4397248565
 30
0
  0
SEQEND
  8
0
  0
POLYLINE
  8
0
 62
7
 66
1
  0
VERTEX
  8
0
 10
243.0800451342
 20
744.4397248565
 30
0
  0
VERTEX
  8
0
 10
243.3160758022
 20
744.5178926229
 30
0
  0
VERTEX
  8
0
 10
243.6330793801
 20
744.5384152471
 30
0
  0
SEQEND
  8
0
  0
POLYLINE
  8
0
 62
7
 66
1
  0
VERTEX
  8
0
 10
243.1805981699
 20
746.1714372277
 30
0
  0
VERTEX
  8
0
 10
243.0195426944
 20
746.4032285153
 30
0
  0
VERTEX
  8
0
 10
242.9292193059
 20
746.7486746847
 30
0
  0
SEQEND
  8
0
  0
POLYLINE
  8
0
 62
7
 66
1
  0
VERTEX
  8
0
 10
242.9292193059
 20
746.7486746847
 30
0
  0
VERTEX
  8
0
 10
242.954052091
 20
746.965087974
 30
0
  0
VERTEX
  8
0
 10
243.0800451342
 20
747.2104653954
 30
0
  0
SEQEND
  8
0
  0
POLYLINE
  8
0
 62
7
 66
1
  0
VERTEX
  8
0
 10
243.0800451342
 20
747.2104653954
 30
0
  0
VERTEX
  8
0
 10
243.3313755694
 20
747.3277598857
 30
0
  0
VERTEX
  8
0
 10
243.6833521727
 20
747.3668791591
 30
0
  0
SEQEND
  8
0
  0
POLYLINE
  8
0
 62
7
 66
1
  0
VERTEX
  8
0
 10
193.7122820321
 20
623.069077754
 30
0
  0
VERTEX
  8
0
 10
193.6608711633
 20
623.0447367071
 30
0
  0
VERTEX
  8
0
 10
193.6094658825
 20
623.0201274394
 30
0
  0
VERTEX
  8
0
 10
193.5580680523
 20
622.995264852
 30
0
  0
VERTEX
  8
0
 10
193.5066776726
 20
622.9701489448
 30
0
  0
VERTEX
  8
0
 10
193.4543662149
 20
622.9444071888
 30
0
  0
VERTEX
  8
0
 10
193.4020780403
 20
622.9185685753
 30
0
  0
VERTEX
  8
0
 10
193.3498178053
 20
622.8927299618
 30
0
  0
VERTEX
  8
0
 10
193.297593892
 20
622.8669882058
 30
0
  0
VERTEX
  8
0
 10
193.2454146821
 20
622.8414252638
 30
0
  0
VERTEX
  8
0
 10
193.2081738863
 20
622.8233278035
 30
0
  0
VERTEX
  8
0
 10
193.1709619615
 20
622.8054091572
 30
0
  0
VERTEX
  8
0
 10
193.133782633
 20
622.7876916765
 30
0
  0
VERTEX
  8
0
 10
193.0966368321
 20
622.7702126145
 30
0
  0
VERTEX
  8
0
 10
193.0595273528
 20
622.7530017733
 30
0
  0
VERTEX
  8
0
 10
193.0224579204
 20
622.7361038565
 30
0
  0
VERTEX
  8
0
 10
192.9854313288
 20
622.7195412158
 30
0
  0
VERTEX
  8
0
 10
192.9564336691
 20
622.7068081736001
 30
0
  0
VERTEX
  8
0
 10
192.9274648804
 20
622.6943284511
 30
0
  0
VERTEX
  8
0
 10
192.898525894
 20
622.6821020483
 30
0
  0
VERTEX
  8
0
 10
192.8696185726
 20
622.6701513171
 30
0
  0
VERTEX
  8
0
 10
192.8407447789
 20
622.6584986090001
 30
0
  0
VERTEX
  8
0
 10
192.8145243231
 20
622.6481646537
 30
0
  0
VERTEX
  8
0
 10
192.788334601
 20
622.6380989193
 30
0
  0
VERTEX
  8
0
 10
192.7621737498
 20
622.628316307
 30
0
  0
VERTEX
  8
0
 10
192.7360445637
 20
622.6188168167
 30
0
  0
VERTEX
  8
0
 10
192.7099470425
 20
622.6096228003
 30
0
  0
VERTEX
  8
0
 10
192.6838830489
 20
622.6007491588
 30
0
  0
VERTEX
  8
0
 10
192.6578535143
 20
622.5921958923
 30
0
  0
VERTEX
  8
0
 10
192.6353844259
 20
622.5850731372
 30
0
  0
VERTEX
  8
0
 10
192.6129414145
 20
622.5782111525
 30
0
  0
VERTEX
  8
0
 10
192.5905263427
 20
622.5716173887
 30
0
  0
VERTEX
  8
0
 10
192.568140142
 20
622.5652992963001
 30
0
  0
VERTEX
  8
0
 10
192.545781881
 20
622.5592717766
 30
0
  0
VERTEX
  8
0
 10
192.5221002105
 20
622.5531921028
 30
0
  0
VERTEX
  8
0
 10
192.498452999
 20
622.5474477052001
 30
0
  0
VERTEX
  8
0
 10
192.4748402465
 20
622.5420460343
 30
0
  0
VERTEX
  8
0
 10
192.4512619529
 20
622.5370094418
 30
0
  0
VERTEX
  8
0
 10
192.4277209121
 20
622.5323304772001
 30
0
  0
VERTEX
  8
0
 10
192.4042152617
 20
622.5280240416
 30
0
  0
VERTEX
  8
0
 10
192.3840986941
 20
622.524641478
 30
0
  0
VERTEX
  8
0
 10
192.3640091348
 20
622.5215420365
 30
0
  0
VERTEX
  8
0
 10
192.3439484466
 20
622.5187406182
 30
0
  0
VERTEX
  8
0
 10
192.3239166293
 20
622.5162297725
 30
0
  0
VERTEX
  8
0
 10
192.303913683
 20
622.5140318512
 30
0
  0
VERTEX
  8
0
 10
192.2839414704
 20
622.5121394038
 30
0
  0
VERTEX
  8
0
 10
192.2639990601
 20
622.5105673312
 30
0
  0
VERTEX
  8
0
 10
192.2444859896
 20
622.5093305349
 30
0
  0
VERTEX
  8
0
 10
192.2250027213
 20
622.5084141135
 30
0
  0
VERTEX
  8
0
 10
192.2055501867
 20
622.507818067
 30
0
  0
VERTEX
  8
0
 10
192.1861283857
 20
622.5075498461
 30
0
  0
VERTEX
  8
0
 10
192.1663852784
 20
622.5076169013
 30
0
  0
VERTEX
  8
0
 10
192.1466756988
 20
622.5080266833001
 30
0
  0
VERTEX
  8
0
 10
192.1269996468
 20
622.5087940931001
 30
0
  0
VERTEX
  8
0
 10
192.1073580537
 20
622.5099265813
 30
0
  0
VERTEX
  8
0
 10
192.0877499882
 20
622.511424148
 30
0
  0
VERTEX
  8
0
 10
192.0705847818
 20
622.5130409240001
 30
0
  0
VERTEX
  8
0
 10
192.0534465838
 20
622.5149482726
 30
0
  0
VERTEX
  8
0
 10
192.0363353941
 20
622.5171461939
 30
0
  0
VERTEX
  8
0
 10
192.0192521441
 20
622.519649589
 30
0
  0
VERTEX
  8
0
 10
192.0021977652
 20
622.5224510073
 30
0
  0
VERTEX
  8
0
 10
191.9851713258
 20
622.5255504488
 30
0
  0
VERTEX
  8
0
 10
191.9681728262
 20
622.5289702653
 30
0
  0
VERTEX
  8
0
 10
191.9512041289
 20
622.5326955556
 30
0
  0
VERTEX
  8
0
 10
191.9360254336
 20
622.5363090872
 30
0
  0
VERTEX
  8
0
 10
191.9208700213
 20
622.5401759385001
 30
0
  0
VERTEX
  8
0
 10
191.9057378921
 20
622.544288659
 30
0
  0
VERTEX
  8
0
 10
191.890629046
 20
622.5486472487
 30
0
  0
VERTEX
  8
0
 10
191.8755425516
 20
622.5532517075
 30
0
  0
VERTEX
  8
0
 10
191.8563750017
 20
622.5594505905
 30
0
  0
VERTEX
  8
0
 10
191.8372428421
 20
622.5660294532
 30
0
  0
VERTEX
  8
0
 10
191.8181460727
 20
622.5729733943
 30
0
  0
VERTEX
  8
0
 10
191.7990846935
 20
622.5802749633
 30
0
  0
VERTEX
  8
0
 10
191.7800587047
 20
622.5879341602
 30
0
  0
VERTEX
  8
0
 10
191.7614043135
 20
622.5957870721001
 30
0
  0
VERTEX
  8
0
 10
191.7427825186
 20
622.6039678096
 30
0
  0
VERTEX
  8
0
 10
191.72419332
 20
622.6124540209
 30
0
  0
VERTEX
  8
0
 10
191.7056348551
 20
622.6212606072
 30
0
  0
VERTEX
  8
0
 10
191.6867709163
 20
622.6305216789
 30
0
  0
VERTEX
  8
0
 10
191.6679377112
 20
622.6400956749
 30
0
  0
VERTEX
  8
0
 10
191.6491361711
 20
622.6499527931001
 30
0
  0
VERTEX
  8
0
 10
191.6303653646
 20
622.6601004838
 30
0
  0
VERTEX
  8
0
 10
191.6116234291
 20
622.6705238461
 30
0
  0
VERTEX
  8
0
 10
191.5929122273
 20
622.6812154292001
 30
0
  0
VERTEX
  8
0
 10
191.5742289651
 20
622.6921677827
 30
0
  0
VERTEX
  8
0
 10
191.5555745739
 20
622.7033734559
 30
0
  0
VERTEX
  8
0
 10
191.5369481224
 20
622.7148249983
 30
0
  0
VERTEX
  8
0
 10
191.5183496106
 20
622.7265000581
 30
0
  0
VERTEX
  8
0
 10
191.494716369
 20
622.7416992425
 30
0
  0
VERTEX
  8
0
 10
191.4711259681
 20
622.7572411536
 30
0
  0
VERTEX
  8
0
 10
191.4475774768
 20
622.7731183409001
 30
0
  0
VERTEX
  8
0
 10
191.4240690324
 20
622.7893084525
 30
0
  0
VERTEX
  8
0
 10
191.4005997035
 20
622.8057965874
 30
0
  0
VERTEX
  8
0
 10
191.3752323392
 20
622.8239611028999
 30
0
  0
VERTEX
  8
0
 10
191.3499087471
 20
622.8424385428
 30
0
  0
VERTEX
  8
0
 10
191.3246270645
 20
622.8611916541
 30
0
  0
VERTEX
  8
0
 10
191.2993854288
 20
622.8802129864
 30
0
  0
VERTEX
  8
0
 10
191.2673181299
 20
622.9047701
 30
0
  0
VERTEX
  8
0
 10
191.235311367
 20
622.9296699404
 30
0
  0
VERTEX
  8
0
 10
191.2033632774
 20
622.954867804
 30
0
  0
VERTEX
  8
0
 10
191.1714710671
 20
622.9803264379
 30
0
  0
VERTEX
  8
0
 10
191.1301305893
 20
623.0136826872
 30
0
  0
VERTEX
  8
0
 10
191.0888729993
 20
623.0472997069001
 30
0
  0
VERTEX
  8
0
 10
191.0476936403
 20
623.0810731887
 30
0
  0
VERTEX
  8
0
 10
191.0065841306
 20
623.1148988246
 30
0
  0
VERTEX
  8
0
 10
190.9655407447
 20
623.148679757
 30
0
  0
VERTEX
  8
0
 10
190.9245560322
 20
623.1823191284
 30
0
  0
VERTEX
  8
0
 10
190.883624405
 20
623.2157200813
 30
0
  0
VERTEX
  8
0
 10
190.8521391827
 20
623.2412085175
 30
0
  0
VERTEX
  8
0
 10
190.8206781748
 20
623.2664585351
 30
0
  0
VERTEX
  8
0
 10
190.78924045
 20
623.291403079
 30
0
  0
VERTEX
  8
0
 10
190.757822283
 20
623.3160197973
 30
0
  0
VERTEX
  8
0
 10
190.7349825281
 20
623.3336851239
 30
0
  0
VERTEX
  8
0
 10
190.7121520865
 20
623.3511269330001
 30
0
  0
VERTEX
  8
0
 10
190.6893272329
 20
623.3683303236001
 30
0
  0
VERTEX
  8
0
 10
190.6665079672
 20
623.3852803945
 30
0
  0
VERTEX
  8
0
 10
190.643693358
 20
623.4019622444
 30
0
  0
VERTEX
  8
0
 10
190.6208824742
 20
623.4183460712
 30
0
  0
VERTEX
  8
0
 10
190.5980743844
 20
623.4344318747
 30
0
  0
VERTEX
  8
0
 10
190.5781180042
 20
623.4482378005
 30
0
  0
VERTEX
  8
0
 10
190.5581625554
 20
623.4617829561
 30
0
  0
VERTEX
  8
0
 10
190.5382061753
 20
623.4750598907
 30
0
  0
VERTEX
  8
0
 10
190.5182497952
 20
623.4880537032
 30
0
  0
VERTEX
  8
0
 10
190.4982906211
 20
623.5007494926
 30
0
  0
VERTEX
  8
0
 10
190.4783295843
 20
623.5131398081001
 30
0
  0
VERTEX
  8
0
 10
190.4583648223
 20
623.5252097487
 30
0
  0
VERTEX
  8
0
 10
190.438396335
 20
623.5369518637
 30
0
  0
VERTEX
  8
0
 10
190.4205000404
 20
623.5471815109
 30
0
  0
VERTEX
  8
0
 10
190.4026009518
 20
623.5571354865
 30
0
  0
VERTEX
  8
0
 10
190.3846962753
 20
623.566791439
 30
0
  0
VERTEX
  8
0
 10
190.3667860109
 20
623.5761493682001
 30
0
  0
VERTEX
  8
0
 10
190.3488701585
 20
623.5852018236
 30
0
  0
VERTEX
  8
0
 10
190.3325785327
 20
623.5931515931
 30
0
  0
VERTEX
  8
0
 10
190.3162803877
 20
623.6008405923
 30
0
  0
VERTEX
  8
0
 10
190.2999766547
 20
623.60825392
 30
0
  0
VERTEX
  8
0
 10
190.2836664024
 20
623.6153841256
 30
0
  0
VERTEX
  8
0
 10
190.2673496309
 20
623.6222312092
 30
0
  0
VERTEX
  8
0
 10
190.2510254088
 20
623.6287877201
 30
0
  0
VERTEX
  8
0
 10
190.2346937362
 20
623.6350387573
 30
0
  0
VERTEX
  8
0
 10
190.2189329642
 20
623.6407831549
 30
0
  0
VERTEX
  8
0
 10
190.2031638104
 20
623.6462369799
 30
0
  0
VERTEX
  8
0
 10
190.187387206
 20
623.6513927817
 30
0
  0
VERTEX
  8
0
 10
190.1716022197
 20
623.6562505602
 30
0
  0
VERTEX
  8
0
 10
190.1558088515
 20
623.6608028650001
 30
0
  0
VERTEX
  8
0
 10
190.14000617
 20
623.6650422453
 30
0
  0
VERTEX
  8
0
 10
190.1241941753
 20
623.6689612507
 30
0
  0
VERTEX
  8
0
 10
190.1083719361
 20
623.6725598811
 30
0
  0
VERTEX
  8
0
 10
190.094186962
 20
623.6755028605001
 30
0
  0
VERTEX
  8
0
 10
190.079993606
 20
623.6781776189
 30
0
  0
VERTEX
  8
0
 10
190.065791868
 20
623.6805767059
 30
0
  0
VERTEX
  8
0
 10
190.0515808168
 20
623.6827075719
 30
0
  0
VERTEX
  8
0
 10
190.0373613838
 20
623.6845478653
 30
0
  0
VERTEX
  8
0
 10
190.0222693015
 20
623.6861944436
 30
0
  0
VERTEX
  8
0
 10
190.0071669746
 20
623.6875131964
 30
0
  0
VERTEX
  8
0
 10
189.9920534718
 20
623.6885041236
 30
0
  0
VERTEX
  8
0
 10
189.9769278619
 20
623.6891597747
 30
0
  0
VERTEX
  8
0
 10
189.9617910761
 20
623.6894801497
 30
0
  0
VERTEX
  8
0
 10
189.9466431144
 20
623.6894652485
 30
0
  0
VERTEX
  8
0
 10
189.9323501069
 20
623.6891523241
 30
0
  0
VERTEX
  8
0
 10
189.9180468548
 20
623.6885488271
 30
0
  0
VERTEX
  8
0
 10
189.9037342894
 20
623.687662208
 30
0
  0
VERTEX
  8
0
 10
189.8894114796
 20
623.6864924669
 30
0
  0
VERTEX
  8
0
 10
189.8750784252
 20
623.6850470542
 30
0
  0
VERTEX
  8
0
 10
189.8598671335
 20
623.6832142114
 30
0
  0
VERTEX
  8
0
 10
189.8446446661
 20
623.6810758948
 30
0
  0
VERTEX
  8
0
 10
189.829411954
 20
623.6786395549
 30
0
  0
VERTEX
  8
0
 10
189.8141680661
 20
623.6759051918
 30
0
  0
VERTEX
  8
0
 10
189.7989139337
 20
623.6728802561
 30
0
  0
VERTEX
  8
0
 10
189.7836495567
 20
623.6695721983
 30
0
  0
VERTEX
  8
0
 10
189.7683758665
 20
623.6659810185
 30
0
  0
VERTEX
  8
0
 10
189.7530910004
 20
623.6621141671
 30
0
  0
VERTEX
  8
0
 10
189.737796821
 20
623.6579641938
 30
0
  0
VERTEX
  8
0
 10
189.7224923972
 20
623.65355345
 30
0
  0
VERTEX
  8
0
 10
189.7071786601
 20
623.6488744854
 30
0
  0
VERTEX
  8
0
 10
189.6918546784
 20
623.6439347505
 30
0
  0
VERTEX
  8
0
 10
189.6751271937
 20
623.6382574081
 30
0
  0
VERTEX
  8
0
 10
189.658388533
 20
623.6322745919
 30
0
  0
VERTEX
  8
0
 10
189.6416396279
 20
623.6260086536
 30
0
  0
VERTEX
  8
0
 10
189.6248786155
 20
623.6194446921001
 30
0
  0
VERTEX
  8
0
 10
189.6081073586
 20
623.6125976085
 30
0
  0
VERTEX
  8
0
 10
189.5913258571
 20
623.6054748534
 30
0
  0
VERTEX
  8
0
 10
189.5745331797
 20
623.5980838775
 30
0
  0
VERTEX
  8
0
 10
189.5563798401
 20
623.5897988319
 30
0
  0
VERTEX
  8
0
 10
189.5382153246
 20
623.5812083124
 30
0
  0
VERTEX
  8
0
 10
189.5200387019
 20
623.5723272204
 30
0
  0
VERTEX
  8
0
 10
189.5018499721
 20
623.5631555557
 30
0
  0
VERTEX
  8
0
 10
189.4833194468
 20
623.5535219549
 30
0
  0
VERTEX
  8
0
 10
189.4647777456
 20
623.5436052322
 30
0
  0
VERTEX
  8
0
 10
189.4462239373
 20
623.5334128379
 30
0
  0
VERTEX
  8
0
 10
189.4276598844
 20
623.5229522228
 30
0
  0
VERTEX
  8
0
 10
189.4090846557
 20
623.5122308373
 30
0
  0
VERTEX
  8
0
 10
189.3858500201
 20
623.4984621643
 30
0
  0
VERTEX
  8
0
 10
189.362599552
 20
623.4843209624
 30
0
  0
VERTEX
  8
0
 10
189.3393323201
 20
623.4697997808
 30
0
  0
VERTEX
  8
0
 10
189.3160501871
 20
623.4549284219
 30
0
  0
VERTEX
  8
0
 10
189.2923284698
 20
623.4394386648
 30
0
  0
VERTEX
  8
0
 10
189.2685918513
 20
623.4236136317001
 30
0
  0
VERTEX
  8
0
 10
189.2448394004
 20
623.4074607729
 30
0
  0
VERTEX
  8
0
 10
189.2210729796
 20
623.3910024404
 30
0
  0
VERTEX
  8
0
 10
189.197292589
 20
623.3742535352
 30
0
  0
VERTEX
  8
0
 10
189.1707349945
 20
623.3552396535
 30
0
  0
VERTEX
  8
0
 10
189.1441606361
 20
623.3359053969
 30
0
  0
VERTEX
  8
0
 10
189.117569514
 20
623.3162656664
 30
0
  0
VERTEX
  8
0
 10
189.0909634906
 20
623.2963502645
 30
0
  0
VERTEX
  8
0
 10
189.0643425662
 20
623.2761740922
 30
0
  0
VERTEX
  8
0
 10
189.0377076719
 20
623.2557595014
 30
0
  0
VERTEX
  8
0
 10
189.0110578764
 20
623.2351362943
 30
0
  0
VERTEX
  8
0
 10
188.9843950424
 20
623.2143193721
 30
0
  0
VERTEX
  8
0
 10
188.9455896247
 20
623.1837347388
 30
0
  0
VERTEX
  8
0
 10
188.9067590613
 20
623.1528520822
 30
0
  0
VERTEX
  8
0
 10
188.8679042834
 20
623.1217384576
 30
0
  0
VERTEX
  8
0
 10
188.8290280852
 20
623.0904534697
 30
0
  0
VERTEX
  8
0
 10
188.7901304666
 20
623.0590716242
 30
0
  0
VERTEX
  8
0
 10
188.7512142215
 20
623.0276599764
 30
0
  0
VERTEX
  8
0
 10
188.7122812125
 20
622.9962706804
 30
0
  0
SEQEND
  8
0
  0
POLYLINE
  8
0
 62
7
 66
1
  0
VERTEX
  8
0
 10
119.3159437183
 20
756.2047578632
 30
0
  0
VERTEX
  8
0
 10
123.3267551664
 20
757.8458898007
 30
0
  0
VERTEX
  8
0
 10
127.9425612095
 20
759.7691416978
 30
0
  0
VERTEX
  8
0
 10
132.5583299998
 20
761.6923935949
 30
0
  0
VERTEX
  8
0
 10
144.8024800423
 20
766.7941674828001
 30
0
  0
SEQEND
  8
0
  0
POLYLINE
  8
0
 62
7
 66
1
  0
VERTEX
  8
0
 10
144.7305446867
 20
680.4583352297
 30
0
  0
VERTEX
  8
0
 10
132.5560054186
 20
685.531100282
 30
0
  0
VERTEX
  8
0
 10
127.9396480325
 20
687.4545980483
 30
0
  0
VERTEX
  8
0
 10
123.3232608441
 20
689.3780920892
 30
0
  0
VERTEX
  8
0
 10
119.4747453931
 20
690.952664265
 30
0
  0
SEQEND
  8
0
  0
POLYLINE
  8
0
 62
7
 66
1
  0
VERTEX
  8
0
 10
283.9405155185
 20
761.5974769234
 30
0
  0
VERTEX
  8
0
 10
293.7136581543
 20
761.6011984884
 30
0
  0
VERTEX
  8
0
 10
299.9423137311
 20
761.6059184312001
 30
0
  0
SEQEND
  8
0
  0
POLYLINE
  8
0
 62
7
 66
1
  0
VERTEX
  8
0
 10
299.9480059746
 20
685.6165994196
 30
0
  0
VERTEX
  8
0
 10
293.7136581543
 20
685.621326813
 30
0
  0
VERTEX
  8
0
 10
283.9405155185
 20
685.625048378
 30
0
  0
SEQEND
  8
0
  0
POLYLINE
  8
0
 62
7
 66
1
  0
VERTEX
  8
0
 10
140.1386252049
 20
716.154227057
 30
0
  0
VERTEX
  8
0
 10
140.1099702719
 20
716.3051646441001
 30
0
  0
VERTEX
  8
0
 10
139.5952245596
 20
722.1116107195001
 30
0
  0
SEQEND
  8
0
  0
POLYLINE
  8
0
 62
7
 66
1
  0
VERTEX
  8
0
 10
135.3188070658
 20
474.3107844161
 30
0
  0
VERTEX
  8
0
 10
135.7492271069
 20
473.7976871447
 30
0
  0
VERTEX
  8
0
 10
136.3894778493
 20
472.8369515406
 30
0
  0
VERTEX
  8
0
 10
137.531666756
 20
471.1198739724
 30
0
  0
VERTEX
  8
0
 10
139.2125028375
 20
468.828263508
 30
0
  0
VERTEX
  8
0
 10
140.3429198268
 20
467.4445323663
 30
0
  0
VERTEX
  8
0
 10
141.5104928616
 20
466.1129180359
 30
0
  0
VERTEX
  8
0
 10
142.6333251599
 20
464.921950178
 30
0
  0
VERTEX
  8
0
 10
143.9014363292
 20
463.725545259
 30
0
  0
VERTEX
  8
0
 10
146.7136058215
 20
461.122900063
 30
0
  0
VERTEX
  8
0
 10
150.1089136306
 20
458.2054864632
 30
0
  0
SEQEND
  8
0
  0
POLYLINE
  8
0
 62
7
 66
1
  0
VERTEX
  8
0
 10
266.2324371937
 20
408.6784001456
 30
0
  0
VERTEX
  8
0
 10
266.4367283884
 20
408.5245866345
 30
0
  0
VERTEX
  8
0
 10
266.4622801546
 20
408.5053455101
 30
0
  0
SEQEND
  8
0
  0
POLYLINE
  8
0
 62
7
 66
1
  0
VERTEX
  8
0
 10
244.8810364309
 20
440.6881223449
 30
0
  0
VERTEX
  8
0
 10
246.4903916422
 20
439.7979274409
 30
0
  0
VERTEX
  8
0
 10
247.5853140656
 20
439.1880750673
 30
0
  0
VERTEX
  8
0
 10
248.9109623436
 20
438.4663335996
 30
0
  0
VERTEX
  8
0
 10
250.2362120155
 20
437.7191213908
 30
0
  0
VERTEX
  8
0
 10
251.4824706319
 20
436.7262812348
 30
0
  0
VERTEX
  8
0
 10
252.710732371
 20
435.4845134558
 30
0
  0
VERTEX
  8
0
 10
253.8882407549
 20
434.3013668449
 30
0
  0
VERTEX
  8
0
 10
255.0371165577
 20
433.2488056289
 30
0
  0
VERTEX
  8
0
 10
256.0709963742
 20
432.3709670471
 30
0
  0
VERTEX
  8
0
 10
256.9871197644
 20
431.6779792325
 30
0
  0
VERTEX
  8
0
 10
258.0986793343
 20
430.8260984735
 30
0
  0
VERTEX
  8
0
 10
259.388277978
 20
429.7595422732
 30
0
  0
VERTEX
  8
0
 10
260.9639044109
 20
428.4418866055
 30
0
  0
VERTEX
  8
0
 10
262.2813607756
 20
427.3421231674
 30
0
  0
VERTEX
  8
0
 10
263.5365749899
 20
426.3181284087
 30
0
  0
VERTEX
  8
0
 10
264.5512807373
 20
425.5299538391
 30
0
  0
VERTEX
  8
0
 10
265.5908267203
 20
424.7993927466
 30
0
  0
VERTEX
  8
0
 10
266.2324371937
 20
424.4112379866
 30
0
  0
SEQEND
  8
0
  0
POLYLINE
  8
0
 62
7
 66
1
  0
VERTEX
  8
0
 10
211.9622817062
 20
440.0097046064
 30
0
  0
VERTEX
  8
0
 10
213.6784202609
 20
440.1440721022
 30
0
  0
VERTEX
  8
0
 10
216.3723858263
 20
440.3426738473
 30
0
  0
VERTEX
  8
0
 10
218.6490462351
 20
440.503876006
 30
0
  0
VERTEX
  8
0
 10
220.7316297296
 20
440.6430044228
 30
0
  0
VERTEX
  8
0
 10
223.0674426261
 20
440.7864010909
 30
0
  0
VERTEX
  8
0
 10
225.2731478963
 20
440.9068616124
 30
0
  0
VERTEX
  8
0
 10
227.348066606
 20
441.0043869184
 30
0
  0
VERTEX
  8
0
 10
229.2924548689
 20
441.0789765434
 30
0
  0
VERTEX
  8
0
 10
232.747575939
 20
441.1632449383
 30
0
  0
VERTEX
  8
0
 10
235.9297226373
 20
441.174810102
 30
0
  0
VERTEX
  8
0
 10
239.0281452987
 20
441.1071988771
 30
0
  0
VERTEX
  8
0
 10
242.0711114261
 20
440.9445722604
 30
0
  0
VERTEX
  8
0
 10
244.8810364309
 20
440.6881223449
 30
0
  0
SEQEND
  8
0
  0
POLYLINE
  8
0
 62
7
 66
1
  0
VERTEX
  8
0
 10
150.3866265718
 20
458.6054233851
 30
0
  0
VERTEX
  8
0
 10
154.7409917418
 20
456.7636324109
 30
0
  0
VERTEX
  8
0
 10
159.166003317
 20
454.7216471301
 30
0
  0
VERTEX
  8
0
 10
163.7152682248
 20
452.6291734556
 30
0
  0
VERTEX
  8
0
 10
170.8612690869
 20
449.5622626755
 30
0
  0
VERTEX
  8
0
 10
178.378055543
 20
446.7109886946
 30
0
  0
VERTEX
  8
0
 10
183.5769384358
 20
444.9700459855
 30
0
  0
VERTEX
  8
0
 10
189.065447748
 20
443.4933842176
 30
0
  0
VERTEX
  8
0
 10
194.7029500458
 20
441.9574870745
 30
0
  0
VERTEX
  8
0
 10
203.3405059207
 20
440.4079409333
 30
0
  0
VERTEX
  8
0
 10
211.9661533758
 20
440.0288730876
 30
0
  0
SEQEND
  8
0
  0
POLYLINE
  8
0
 62
7
 66
1
  0
VERTEX
  8
0
 10
161.9504939023
 20
568.5273844765
 30
0
  0
VERTEX
  8
0
 10
161.9120377306
 20
569.8200155066
 30
0
  0
VERTEX
  8
0
 10
161.6515915099
 20
572.0640707778
 30
0
  0
VERTEX
  8
0
 10
161.1966739598
 20
573.9199507998
 30
0
  0
VERTEX
  8
0
 10
160.6629255417
 20
575.1122821139001
 30
0
  0
VERTEX
  8
0
 10
160.1480382684
 20
575.5273837613
 30
0
  0
SEQEND
  8
0
  0
POLYLINE
  8
0
 62
7
 66
1
  0
VERTEX
  8
0
 10
264.2881821099
 20
558.5273865627
 30
0
  0
VERTEX
  8
0
 10
265.7808239761
 20
558.4601003693
 30
0
  0
VERTEX
  8
0
 10
269.7730089727
 20
557.6788771914
 30
0
  0
SEQEND
  8
0
  0
POLYLINE
  8
0
 62
7
 66
1
  0
VERTEX
  8
0
 10
258.8033552471
 20
557.6788771914
 30
0
  0
VERTEX
  8
0
 10
260.1893569532
 20
558.0386508273
 30
0
  0
VERTEX
  8
0
 10
264.2881821099
 20
558.5273865627
 30
0
  0
SEQEND
  8
0
  0
POLYLINE
  8
0
 62
7
 66
1
  0
VERTEX
  8
0
 10
256.0609418157
 20
558.5273865627
 30
0
  0
VERTEX
  8
0
 10
257.4597696963
 20
558.2944963144
 30
0
  0
VERTEX
  8
0
 10
258.8033552471
 20
557.6788771914
 30
0
  0
SEQEND
  8
0
  0
POLYLINE
  8
0
 62
7
 66
1
  0
VERTEX
  8
0
 10
272.5154261294
 20
558.5273865627
 30
0
  0
VERTEX
  8
0
 10
273.9142540101
 20
558.2944963144
 30
0
  0
VERTEX
  8
0
 10
275.2578395608
 20
557.6788771914
 30
0
  0
SEQEND
  8
0
  0
POLYLINE
  8
0
 62
7
 66
1
  0
VERTEX
  8
0
 10
167.863621116
 20
558.5273865627
 30
0
  0
VERTEX
  8
0
 10
169.2624489966
 20
558.2944963144
 30
0
  0
VERTEX
  8
0
 10
170.6060345474
 20
557.6788771914
 30
0
  0
SEQEND
  8
0
  0
POLYLINE
  8
0
 62
7
 66
1
  0
VERTEX
  8
0
 10
159.6363808218
 20
558.5273865627
 30
0
  0
VERTEX
  8
0
 10
161.1290189627
 20
558.4601003693
 30
0
  0
VERTEX
  8
0
 10
165.1212076846
 20
557.6788771914
 30
0
  0
SEQEND
  8
0
  0
POLYLINE
  8
0
 62
7
 66
1
  0
VERTEX
  8
0
 10
154.151553959
 20
557.6788771914
 30
0
  0
VERTEX
  8
0
 10
155.5375519398
 20
558.0386508273
 30
0
  0
VERTEX
  8
0
 10
159.6363808218
 20
558.5273865627
 30
0
  0
SEQEND
  8
0
  0
POLYLINE
  8
0
 62
7
 66
1
  0
VERTEX
  8
0
 10
151.4091368023
 20
558.5273865627
 30
0
  0
VERTEX
  8
0
 10
152.8079646829
 20
558.2944963144
 30
0
  0
VERTEX
  8
0
 10
154.151553959
 20
557.6788771914
 30
0
  0
SEQEND
  8
0
  0
POLYLINE
  8
0
 62
7
 66
1
  0
VERTEX
  8
0
 10
256.0609418157
 20
511.0273871587
 30
0
  0
VERTEX
  8
0
 10
254.0115292374
 20
511.5161228942
 30
0
  0
VERTEX
  8
0
 10
253.3185283843
 20
511.8758890794
 30
0
  0
SEQEND
  8
0
  0
POLYLINE
  8
0
 62
7
 66
1
  0
VERTEX
  8
0
 10
272.5154261294
 20
511.0273871587
 30
0
  0
VERTEX
  8
0
 10
271.1165982488
 20
511.260277407
 30
0
  0
VERTEX
  8
0
 10
269.7730089727
 20
511.8758890794
 30
0
  0
SEQEND
  8
0
  0
POLYLINE
  8
0
 62
7
 66
1
  0
VERTEX
  8
0
 10
258.8033552471
 20
511.8758890794
 30
0
  0
VERTEX
  8
0
 10
256.8072627488
 20
511.0946733521
 30
0
  0
VERTEX
  8
0
 10
256.0609418157
 20
511.0273871587
 30
0
  0
SEQEND
  8
0
  0
POLYLINE
  8
0
 62
7
 66
1
  0
VERTEX
  8
0
 10
264.2881821099
 20
511.0273871587
 30
0
  0
VERTEX
  8
0
 10
261.4905263487
 20
511.260277407
 30
0
  0
VERTEX
  8
0
 10
258.8033552471
 20
511.8758890794
 30
0
  0
SEQEND
  8
0
  0
POLYLINE
  8
0
 62
7
 66
1
  0
VERTEX
  8
0
 10
151.4091368023
 20
511.0273871587
 30
0
  0
VERTEX
  8
0
 10
150.0103089217
 20
511.260277407
 30
0
  0
VERTEX
  8
0
 10
148.6667233709
 20
511.8758890794
 30
0
  0
SEQEND
  8
0
  0
POLYLINE
  8
0
 62
7
 66
1
  0
VERTEX
  8
0
 10
170.6060345474
 20
511.8758890794
 30
0
  0
VERTEX
  8
0
 10
169.9130336944
 20
511.5161228942
 30
0
  0
VERTEX
  8
0
 10
167.863621116
 20
511.0273871587
 30
0
  0
SEQEND
  8
0
  0
POLYLINE
  8
0
 62
7
 66
1
  0
VERTEX
  8
0
 10
167.863621116
 20
511.0273871587
 30
0
  0
VERTEX
  8
0
 10
167.1173001829
 20
511.0946733521
 30
0
  0
VERTEX
  8
0
 10
165.1212076846
 20
511.8758890794
 30
0
  0
SEQEND
  8
0
  0
POLYLINE
  8
0
 62
7
 66
1
  0
VERTEX
  8
0
 10
159.6363808218
 20
511.0273871587
 30
0
  0
VERTEX
  8
0
 10
156.8387250606
 20
511.260277407
 30
0
  0
VERTEX
  8
0
 10
154.151553959
 20
511.8758890794
 30
0
  0
SEQEND
  8
0
  0
POLYLINE
  8
0
 62
7
 66
1
  0
VERTEX
  8
0
 10
286.5527707342
 20
419.3606030213
 30
0
  0
VERTEX
  8
0
 10
295.3411403302
 20
415.9719932841
 30
0
  0
VERTEX
  8
0
 10
303.5296189788
 20
412.8239553438
 30
0
  0
SEQEND
  8
0
  0
POLYLINE
  8
0
 62
7
 66
1
  0
VERTEX
  8
0
 10
302.9944437746
 20
483.4724281
 30
0
  0
VERTEX
  8
0
 10
296.1556676034
 20
481.2815997766
 30
0
  0
VERTEX
  8
0
 10
292.6419514421
 20
480.0668235885
 30
0
  0
VERTEX
  8
0
 10
289.0624466542
 20
479.1282925771
 30
0
  0
VERTEX
  8
0
 10
285.6596770886
 20
479.167976232
 30
0
  0
VERTEX
  8
0
 10
282.4615004662
 20
480.3313527273
 30
0
  0
SEQEND
  8
0
  0
POLYLINE
  8
0
 62
7
 66
1
  0
VERTEX
  8
0
 10
120.3067663315
 20
414.2565939592
 30
0
  0
VERTEX
  8
0
 10
125.273651183
 20
411.5503530966
 30
0
  0
VERTEX
  8
0
 10
129.8852401975
 20
408.2332763838
 30
0
  0
VERTEX
  8
0
 10
134.0802896026
 20
404.3324280547
 30
0
  0
VERTEX
  8
0
 10
139.1664880518
 20
399.053643273
 30
0
  0
VERTEX
  8
0
 10
144.5668253306
 20
394.1638123261
 30
0
  0
VERTEX
  8
0
 10
150.2660724524
 20
389.6834466623
 30
0
  0
SEQEND
  8
0
  0
POLYLINE
  8
0
 62
7
 66
1
  0
VERTEX
  8
0
 10
217.5653974715
 20
416.1018680798
 30
0
  0
VERTEX
  8
0
 10
218.4410856295
 20
416.2318769859
 30
0
  0
VERTEX
  8
0
 10
219.3968624066
 20
416.8174292909
 30
0
  0
SEQEND
  8
0
  0
POLYLINE
  8
0
 62
7
 66
1
  0
VERTEX
  8
0
 10
219.3968624066
 20
416.8174292909
 30
0
  0
VERTEX
  8
0
 10
219.9795513603
 20
417.9524675028
 30
0
  0
VERTEX
  8
0
 10
220.1509948078
 20
419.5825818943
 30
0
  0
SEQEND
  8
0
  0
POLYLINE
  8
0
 62
7
 66
1
  0
VERTEX
  8
0
 10
219.3250402067
 20
422.4554698931
 30
0
  0
VERTEX
  8
0
 10
218.621555921
 20
422.9177448915
 30
0
  0
VERTEX
  8
0
 10
217.5653974715
 20
423.1018692272
 30
0
  0
SEQEND
  8
0
  0
POLYLINE
  8
0
 62
7
 66
1
  0
VERTEX
  8
0
 10
218.7145522054
 20
417.2842733579
 30
0
  0
VERTEX
  8
0
 10
218.2606940347
 20
416.9481720792
 30
0
  0
VERTEX
  8
0
 10
217.5653974715
 20
416.7815193551
 30
0
  0
SEQEND
  8
0
  0
POLYLINE
  8
0
 62
7
 66
1
  0
VERTEX
  8
0
 10
217.5653974715
 20
422.4222179519
 30
0
  0
VERTEX
  8
0
 10
218.1013619717
 20
422.3305311071
 30
0
  0
VERTEX
  8
0
 10
218.6786408726
 20
421.9527140276
 30
0
  0
SEQEND
  8
0
  0
POLYLINE
  8
0
 62
7
 66
1
  0
VERTEX
  8
0
 10
272.7814491097
 20
494.4224607216
 30
0
  0
VERTEX
  8
0
 10
272.5718419257
 20
495.9089744853
 30
0
  0
VERTEX
  8
0
 10
272.462281138
 20
500.2522159384
 30
0
  0
VERTEX
  8
0
 10
272.462281138
 20
506.7933786677
 30
0
  0
VERTEX
  8
0
 10
272.3678636554
 20
508.9479785429
 30
0
  0
VERTEX
  8
0
 10
271.638798267
 20
510.621494429
 30
0
  0
VERTEX
  8
0
 10
271.2075772885
 20
511.0273871587
 30
0
  0
SEQEND
  8
0
  0
POLYLINE
  8
0
 62
7
 66
1
  0
VERTEX
  8
0
 10
140.7563227418
 20
491.6688006388
 30
0
  0
VERTEX
  8
0
 10
141.2174466256
 20
493.0510621535
 30
0
  0
VERTEX
  8
0
 10
141.4655882124
 20
493.5889456438
 30
0
  0
SEQEND
  8
0
  0
POLYLINE
  8
0
 62
7
 66
1
  0
VERTEX
  8
0
 10
201.7605711896
 20
479.9261119233
 30
0
  0
VERTEX
  8
0
 10
201.2773470211
 20
479.4883605109
 30
0
  0
VERTEX
  8
0
 10
199.9697365988
 20
477.5707542913
 30
0
  0
VERTEX
  8
0
 10
199.4225883115
 20
476.0056071
 30
0
  0
VERTEX
  8
0
 10
199.1258773211
 20
474.3666134791
 30
0
  0
VERTEX
  8
0
 10
199.0108086917
 20
472.2616624104
 30
0
  0
SEQEND
  8
0
  0
POINT
  8
0
 62
7
  6
DASHED
 10
211.9622814659
 20
651.6112635016
 30
0
  0
POINT
  8
0
 62
7
  6
DASHED
 10
211.9622814659
 20
795.6112635016
 30
0
  0
LINE
  8
1
 62
2
 10
422.2442057366991
 20
256.5648244987386
 30
0
 11
422.9108724033658
 21
256.1898244987386
 31
0
  0
LINE
  8
1
 62
2
 10
416.2442057366991
 20
256.5648244987386
 30
0
 11
422.2442057366991
 21
256.5648244987386
 31
0
  0
LINE
  8
1
 62
2
 10
415.5775390700325
 20
256.9398244987386
 30
0
 11
416.2442057366991
 21
256.5648244987386
 31
0
  0
LINE
  8
1
 62
2
 10
406.9108724033658
 20
257.6898244987386
 30
0
 11
409.5775390700325
 21
254.6898244987386
 31
0
  0
LINE
  8
1
 62
2
 10
405.9108724033658
 20
259.1898244987386
 30
0
 11
404.2442057366991
 21
257.3148244987386
 31
0
  0
LINE
  8
1
 62
2
 10
407.5775390700325
 20
261.4398244987386
 30
0
 11
405.9108724033658
 21
259.1898244987386
 31
0
  0
LINE
  8
1
 62
2
 10
410.9108724033658
 20
259.9398244987386
 30
0
 11
406.5775390700325
 21
259.9398244987386
 31
0
  0
LINE
  8
1
 62
2
 10
409.5775390700325
 20
257.3148244987386
 30
0
 11
410.9108724033658
 21
259.9398244987386
 31
0
  0
LINE
  8
1
 62
2
 10
406.9108724033658
 20
254.3148244987386
 30
0
 11
409.5775390700325
 21
257.3148244987386
 31
0
  0
LINE
  8
1
 62
2
 10
403.9108724033658
 20
252.0648244987386
 30
0
 11
406.9108724033658
 21
254.3148244987386
 31
0
  0
LINE
  8
1
 62
2
 10
398.2442057366991
 20
256.5648244987386
 30
0
 11
398.9108724033658
 21
256.1898244987386
 31
0
  0
LINE
  8
1
 62
2
 10
392.2442057366991
 20
256.5648244987386
 30
0
 11
398.2442057366991
 21
256.5648244987386
 31
0
  0
LINE
  8
1
 62
2
 10
391.5775390700325
 20
256.9398244987386
 30
0
 11
392.2442057366991
 21
256.5648244987386
 31
0
  0
LINE
  8
1
 62
2
 10
384.2442057366991
 20
256.5648244987386
 30
0
 11
385.9108724033658
 21
253.9398244987386
 31
0
  0
LINE
  8
1
 62
2
 10
382.5775390700325
 20
258.4398244987386
 30
0
 11
384.2442057366991
 21
256.5648244987386
 31
0
  0
LINE
  8
1
 62
2
 10
384.9108724033658
 20
257.3148244987386
 30
0
 11
386.5775390700325
 21
260.6898244987386
 31
0
  0
LINE
  8
1
 62
2
 10
382.2442057366991
 20
253.9398244987386
 30
0
 11
384.9108724033658
 21
257.3148244987386
 31
0
  0
LINE
  8
1
 62
2
 10
379.9108724033658
 20
252.0648244987386
 30
0
 11
382.2442057366991
 21
253.9398244987386
 31
0
  0
LINE
  8
1
 62
2
 10
372.2442057366991
 20
259.9398244987386
 30
0
 11
375.9108724033658
 21
259.9398244987386
 31
0
  0
LINE
  8
1
 62
2
 10
371.2442057366991
 20
258.0648244987386
 30
0
 11
370.5775390700325
 21
258.0648244987386
 31
0
  0
LINE
  8
1
 62
2
 10
370.5775390700325
 20
256.5648244987386
 30
0
 11
370.5775390700325
 21
254.6898244987386
 31
0
  0
LINE
  8
1
 62
2
 10
374.5775390700325
 20
254.6898244987386
 30
0
 11
374.5775390700325
 21
258.0648244987386
 31
0
  0
LINE
  8
1
 62
2
 10
370.5775390700325
 20
254.6898244987386
 30
0
 11
370.5775390700325
 21
253.1898244987386
 31
0
  0
LINE
  8
1
 62
2
 10
369.9108724033658
 20
251.6898244987386
 30
0
 11
376.2442057366991
 21
251.6898244987386
 31
0
  0
LINE
  8
1
 62
2
 10
368.5775390700325
 20
252.0648244987386
 30
0
 11
369.9108724033658
 21
251.6898244987386
 31
0
  0
LINE
  8
1
 62
2
 10
367.5775390700325
 20
252.8148244987386
 30
0
 11
368.5775390700325
 21
252.0648244987386
 31
0
  0
LINE
  8
1
 62
2
 10
374.5775390700325
 20
254.6898244987386
 30
0
 11
370.5775390700325
 21
254.6898244987386
 31
0
  0
LINE
  8
1
 62
2
 10
370.5775390700325
 20
256.5648244987386
 30
0
 11
374.5775390700325
 21
256.5648244987386
 31
0
  0
LINE
  8
1
 62
2
 10
374.5775390700325
 20
258.0648244987386
 30
0
 11
371.2442057366991
 21
258.0648244987386
 31
0
  0
LINE
  8
1
 62
2
 10
374.5775390700325
 20
253.1898244987386
 30
0
 11
374.5775390700325
 21
254.6898244987386
 31
0
  0
LINE
  8
1
 62
2
 10
370.5775390700325
 20
253.1898244987386
 30
0
 11
374.5775390700325
 21
253.1898244987386
 31
0
  0
LINE
  8
1
 62
2
 10
370.5775390700325
 20
258.0648244987386
 30
0
 11
370.5775390700325
 21
256.5648244987386
 31
0
  0
LINE
  8
1
 62
2
 10
372.2442057366991
 20
259.9398244987386
 30
0
 11
371.2442057366991
 21
258.0648244987386
 31
0
  0
LINE
  8
1
 62
2
 10
368.9108724033658
 20
259.9398244987386
 30
0
 11
372.2442057366991
 21
259.9398244987386
 31
0
  0
LINE
  8
1
 62
2
 10
374.2442057366991
 20
262.1898244987386
 30
0
 11
372.9108724033658
 21
259.9398244987386
 31
0
  0
LINE
  8
1
 62
2
 10
370.5775390700325
 20
262.1898244987386
 30
0
 11
371.5775390700325
 21
260.6898244987386
 31
0
  0
LINE
  8
1
 62
2
 10
366.9108724033658
 20
262.1898244987386
 30
0
 11
368.2442057366991
 21
260.6898244987386
 31
0
  0
LINE
  8
1
 62
2
 10
367.5775390700325
 20
257.3148244987386
 30
0
 11
366.2442057366991
 21
257.3148244987386
 31
0
  0
LINE
  8
1
 62
2
 10
367.5775390700325
 20
252.8148244987386
 30
0
 11
367.5775390700325
 21
257.3148244987386
 31
0
  0
LINE
  8
1
 62
2
 10
366.5775390700325
 20
251.6898244987386
 30
0
 11
367.5775390700325
 21
252.8148244987386
 31
0
  0
LINE
  8
1
 62
2
 10
362.9108724033658
 20
254.3148244987386
 30
0
 11
364.5775390700325
 21
252.4398244987386
 31
0
  0
LINE
  8
1
 62
2
 10
361.5775390700325
 20
256.5648244987386
 30
0
 11
362.9108724033658
 21
254.3148244987386
 31
0
  0
LINE
  8
1
 62
2
 10
360.5775390700325
 20
259.1898244987386
 30
0
 11
361.5775390700325
 21
256.5648244987386
 31
0
  0
LINE
  8
1
 62
2
 10
363.5775390700325
 20
259.5648244987386
 30
0
 11
361.2442057366991
 21
257.6898244987386
 31
0
  0
LINE
  8
1
 62
2
 10
359.5775390700325
 20
250.5648244987386
 30
0
 11
358.5775390700325
 21
250.9398244987386
 31
0
  0
LINE
  8
1
 62
2
 10
359.5775390700325
 20
262.1898244987386
 30
0
 11
359.5775390700325
 21
250.5648244987386
 31
0
  0
LINE
  8
1
 62
2
 10
357.9108724033658
 20
258.4398244987386
 30
0
 11
354.5775390700325
 21
258.4398244987386
 31
0
  0
LINE
  8
1
 62
2
 10
357.2442057366991
 20
256.1898244987386
 30
0
 11
357.9108724033658
 21
258.4398244987386
 31
0
  0
LINE
  8
1
 62
2
 10
355.9108724033658
 20
253.9398244987386
 30
0
 11
357.2442057366991
 21
256.1898244987386
 31
0
  0
LINE
  8
1
 62
2
 10
354.5775390700325
 20
252.4398244987386
 30
0
 11
355.9108724033658
 21
253.9398244987386
 31
0
  0
LINE
  8
1
 62
2
 10
346.1108724033658
 20
258.9648244987386
 30
0
 11
348.5108724033659
 21
258.9648244987386
 31
0
  0
LINE
  8
1
 62
2
 10
346.1108724033658
 20
258.9648244987386
 30
0
 11
346.1108724033658
 21
250.5648244987386
 31
0
  0
LINE
  8
1
 62
2
 10
350.3108724033658
 20
257.4648244987386
 30
0
 11
350.3108724033658
 21
250.5648244987386
 31
0
  0
LINE
  8
1
 62
2
 10
350.0108724033659
 20
258.0648244987386
 30
0
 11
350.3108724033658
 21
257.4648244987386
 31
0
  0
LINE
  8
1
 62
2
 10
349.4108724033658
 20
258.6648244987386
 30
0
 11
350.0108724033659
 21
258.0648244987386
 31
0
  0
LINE
  8
1
 62
2
 10
348.5108724033659
 20
258.9648244987386
 30
0
 11
349.4108724033658
 21
258.6648244987386
 31
0
  0
LINE
  8
1
 62
2
 10
341.9108724033658
 20
258.9648244987386
 30
0
 11
346.1108724033658
 21
258.9648244987386
 31
0
  0
LINE
  8
1
 62
2
 10
341.9108724033658
 20
250.5648244987386
 30
0
 11
341.9108724033658
 21
258.9648244987386
 31
0
  0
LINE
  8
1
 62
2
 10
334.1108724033658
 20
258.9648244987386
 30
0
 11
336.5108724033659
 21
258.9648244987386
 31
0
  0
LINE
  8
1
 62
2
 10
334.1108724033658
 20
258.9648244987386
 30
0
 11
334.1108724033658
 21
250.5648244987386
 31
0
  0
LINE
  8
1
 62
2
 10
338.3108724033658
 20
257.4648244987386
 30
0
 11
338.3108724033658
 21
250.5648244987386
 31
0
  0
LINE
  8
1
 62
2
 10
338.0108724033659
 20
258.0648244987386
 30
0
 11
338.3108724033658
 21
257.4648244987386
 31
0
  0
LINE
  8
1
 62
2
 10
337.4108724033658
 20
258.6648244987386
 30
0
 11
338.0108724033659
 21
258.0648244987386
 31
0
  0
LINE
  8
1
 62
2
 10
336.5108724033659
 20
258.9648244987386
 30
0
 11
337.4108724033658
 21
258.6648244987386
 31
0
  0
LINE
  8
1
 62
2
 10
329.9108724033658
 20
258.9648244987386
 30
0
 11
334.1108724033658
 21
258.9648244987386
 31
0
  0
LINE
  8
1
 62
2
 10
329.9108724033658
 20
250.5648244987386
 30
0
 11
329.9108724033658
 21
258.9648244987386
 31
0
  0
LINE
  8
1
 62
2
 10
326.3108724033658
 20
258.0648244987386
 30
0
 11
326.3108724033658
 21
255.0648244987386
 31
0
  0
LINE
  8
1
 62
2
 10
326.0108724033658
 20
259.8648244987386
 30
0
 11
326.3108724033658
 21
258.0648244987386
 31
0
  0
LINE
  8
1
 62
2
 10
325.4108724033658
 20
261.0648244987386
 30
0
 11
326.0108724033658
 21
259.8648244987386
 31
0
  0
LINE
  8
1
 62
2
 10
324.8108724033658
 20
261.6648244987386
 30
0
 11
325.4108724033658
 21
261.0648244987386
 31
0
  0
LINE
  8
1
 62
2
 10
323.9108724033658
 20
262.2648244987386
 30
0
 11
324.8108724033658
 21
261.6648244987386
 31
0
  0
LINE
  8
1
 62
2
 10
323.0108724033658
 20
262.5648244987386
 30
0
 11
323.9108724033658
 21
262.2648244987386
 31
0
  0
LINE
  8
1
 62
2
 10
322.4108724033658
 20
262.5648244987386
 30
0
 11
323.0108724033658
 21
262.5648244987386
 31
0
  0
LINE
  8
1
 62
2
 10
321.5108724033658
 20
262.2648244987386
 30
0
 11
322.4108724033658
 21
262.5648244987386
 31
0
  0
LINE
  8
1
 62
2
 10
320.6108724033658
 20
261.6648244987386
 30
0
 11
321.5108724033658
 21
262.2648244987386
 31
0
  0
LINE
  8
1
 62
2
 10
320.0108724033658
 20
261.0648244987386
 30
0
 11
320.6108724033658
 21
261.6648244987386
 31
0
  0
LINE
  8
1
 62
2
 10
319.4108724033658
 20
259.8648244987386
 30
0
 11
320.0108724033658
 21
261.0648244987386
 31
0
  0
LINE
  8
1
 62
2
 10
319.1108724033658
 20
258.0648244987386
 30
0
 11
319.4108724033658
 21
259.8648244987386
 31
0
  0
LINE
  8
1
 62
2
 10
319.1108724033658
 20
255.0648244987386
 30
0
 11
319.1108724033658
 21
258.0648244987386
 31
0
  0
LINE
  8
1
 62
2
 10
319.4108724033658
 20
253.2648244987386
 30
0
 11
319.1108724033658
 21
255.0648244987386
 31
0
  0
LINE
  8
1
 62
2
 10
320.0108724033658
 20
252.0648244987386
 30
0
 11
319.4108724033658
 21
253.2648244987386
 31
0
  0
LINE
  8
1
 62
2
 10
320.6108724033658
 20
251.4648244987386
 30
0
 11
320.0108724033658
 21
252.0648244987386
 31
0
  0
LINE
  8
1
 62
2
 10
321.5108724033658
 20
250.8648244987386
 30
0
 11
320.6108724033658
 21
251.4648244987386
 31
0
  0
LINE
  8
1
 62
2
 10
322.4108724033658
 20
250.5648244987386
 30
0
 11
321.5108724033658
 21
250.8648244987386
 31
0
  0
LINE
  8
1
 62
2
 10
323.0108724033658
 20
250.5648244987386
 30
0
 11
322.4108724033658
 21
250.5648244987386
 31
0
  0
LINE
  8
1
 62
2
 10
323.9108724033658
 20
250.8648244987386
 30
0
 11
323.0108724033658
 21
250.5648244987386
 31
0
  0
LINE
  8
1
 62
2
 10
324.8108724033658
 20
251.4648244987386
 30
0
 11
323.9108724033658
 21
250.8648244987386
 31
0
  0
LINE
  8
1
 62
2
 10
325.4108724033658
 20
252.0648244987386
 30
0
 11
324.8108724033658
 21
251.4648244987386
 31
0
  0
LINE
  8
1
 62
2
 10
326.0108724033658
 20
253.2648244987386
 30
0
 11
325.4108724033658
 21
252.0648244987386
 31
0
  0
LINE
  8
1
 62
2
 10
326.3108724033658
 20
255.0648244987386
 30
0
 11
326.0108724033658
 21
253.2648244987386
 31
0
  0
LINE
  8
1
 62
2
 10
312.8108724033658
 20
250.5648244987386
 30
0
 11
308.3108724033658
 21
250.5648244987386
 31
0
  0
LINE
  8
1
 62
2
 10
313.7108724033658
 20
250.8648244987386
 30
0
 11
312.8108724033658
 21
250.5648244987386
 31
0
  0
LINE
  8
1
 62
2
 10
314.6108724033658
 20
251.4648244987386
 30
0
 11
313.7108724033658
 21
250.8648244987386
 31
0
  0
LINE
  8
1
 62
2
 10
315.2108724033658
 20
252.3648244987386
 30
0
 11
314.6108724033658
 21
251.4648244987386
 31
0
  0
LINE
  8
1
 62
2
 10
315.5108724033658
 20
253.5648244987386
 30
0
 11
315.2108724033658
 21
252.3648244987386
 31
0
  0
LINE
  8
1
 62
2
 10
315.5108724033658
 20
255.3648244987386
 30
0
 11
315.5108724033658
 21
253.5648244987386
 31
0
  0
LINE
  8
1
 62
2
 10
315.2108724033658
 20
256.5648244987386
 30
0
 11
315.5108724033658
 21
255.3648244987386
 31
0
  0
LINE
  8
1
 62
2
 10
314.3108724033658
 20
257.4648244987386
 30
0
 11
315.2108724033658
 21
256.5648244987386
 31
0
  0
LINE
  8
1
 62
2
 10
312.8108724033658
 20
257.7648244987386
 30
0
 11
314.3108724033658
 21
257.4648244987386
 31
0
  0
LINE
  8
1
 62
2
 10
308.3108724033658
 20
257.7648244987386
 30
0
 11
312.8108724033658
 21
257.7648244987386
 31
0
  0
LINE
  8
1
 62
2
 10
308.3108724033658
 20
262.5648244987386
 30
0
 11
308.3108724033658
 21
257.7648244987386
 31
0
  0
LINE
  8
1
 62
2
 10
314.9108724033658
 20
262.5648244987386
 30
0
 11
308.3108724033658
 21
262.5648244987386
 31
0
  0
LINE
  8
1
 62
2
 10
300.3108724033658
 20
261.8148244987386
 30
0
 11
296.9775390700325
 21
261.8148244987386
 31
0
  0
LINE
  8
1
 62
2
 10
301.9775390700325
 20
250.9398244987386
 30
0
 11
306.6442057366991
 21
250.9398244987386
 31
0
  0
LINE
  8
1
 62
2
 10
301.9775390700325
 20
255.4398244987386
 30
0
 11
301.9775390700325
 21
250.9398244987386
 31
0
  0
LINE
  8
1
 62
2
 10
305.9775390700325
 20
255.4398244987386
 30
0
 11
304.9775390700325
 21
255.4398244987386
 31
0
  0
LINE
  8
1
 62
2
 10
305.9775390700325
 20
262.1898244987386
 30
0
 11
305.9775390700325
 21
255.4398244987386
 31
0
  0
LINE
  8
1
 62
2
 10
303.6442057366991
 20
256.9398244987386
 30
0
 11
303.6442057366991
 21
261.8148244987386
 31
0
  0
LINE
  8
1
 62
2
 10
300.3108724033658
 20
261.8148244987386
 30
0
 11
300.3108724033658
 21
255.4398244987386
 31
0
  0
LINE
  8
1
 62
2
 10
296.6442057366991
 20
259.1898244987386
 30
0
 11
302.3108724033658
 21
259.1898244987386
 31
0
  0
LINE
  8
1
 62
2
 10
301.9775390700325
 20
261.8148244987386
 30
0
 11
300.3108724033658
 21
261.8148244987386
 31
0
  0
LINE
  8
1
 62
2
 10
298.6442057366991
 20
259.1898244987386
 30
0
 11
298.6442057366991
 21
261.8148244987386
 31
0
  0
LINE
  8
1
 62
2
 10
297.9775390700325
 20
256.5648244987386
 30
0
 11
298.6442057366991
 21
259.1898244987386
 31
0
  0
LINE
  8
1
 62
2
 10
296.9775390700325
 20
255.0648244987386
 30
0
 11
297.9775390700325
 21
256.5648244987386
 31
0
  0
LINE
  8
1
 62
2
 10
305.3108724033658
 20
253.5648244987386
 30
0
 11
297.9775390700325
 21
253.5648244987386
 31
0
  0
LINE
  8
1
 62
2
 10
296.9775390700325
 20
250.9398244987386
 30
0
 11
301.9775390700325
 21
250.9398244987386
 31
0
  0
LINE
  8
1
 62
2
 10
288.5108724033658
 20
262.5648244987386
 30
0
 11
288.5108724033658
 21
250.5648244987386
 31
0
  0
LINE
  8
1
 62
2
 10
284.3108724033658
 20
262.5648244987386
 30
0
 11
288.5108724033658
 21
262.5648244987386
 31
0
  0
LINE
  8
1
 62
2
 10
288.5108724033658
 20
262.5648244987386
 30
0
 11
292.7108724033658
 21
262.5648244987386
 31
0
  0
LINE
  8
1
 62
2
 10
280.4108724033658
 20
260.1648244987386
 30
0
 11
280.7108724033658
 21
258.9648244987386
 31
0
  0
LINE
  8
1
 62
2
 10
279.8108724033658
 20
261.0648244987386
 30
0
 11
280.4108724033658
 21
260.1648244987386
 31
0
  0
LINE
  8
1
 62
2
 10
279.2108724033658
 20
261.6648244987386
 30
0
 11
279.8108724033658
 21
261.0648244987386
 31
0
  0
LINE
  8
1
 62
2
 10
278.3108724033658
 20
262.2648244987386
 30
0
 11
279.2108724033658
 21
261.6648244987386
 31
0
  0
LINE
  8
1
 62
2
 10
277.1108724033658
 20
262.5648244987386
 30
0
 11
278.3108724033658
 21
262.2648244987386
 31
0
  0
LINE
  8
1
 62
2
 10
272.3108724033658
 20
262.5648244987386
 30
0
 11
277.1108724033658
 21
262.5648244987386
 31
0
  0
LINE
  8
1
 62
2
 10
272.3108724033658
 20
250.5648244987386
 30
0
 11
272.3108724033658
 21
262.5648244987386
 31
0
  0
LINE
  8
1
 62
2
 10
277.1108724033658
 20
250.5648244987386
 30
0
 11
272.3108724033658
 21
250.5648244987386
 31
0
  0
LINE
  8
1
 62
2
 10
278.3108724033658
 20
250.8648244987386
 30
0
 11
277.1108724033658
 21
250.5648244987386
 31
0
  0
LINE
  8
1
 62
2
 10
279.2108724033658
 20
251.4648244987386
 30
0
 11
278.3108724033658
 21
250.8648244987386
 31
0
  0
LINE
  8
1
 62
2
 10
279.8108724033658
 20
252.0648244987386
 30
0
 11
279.2108724033658
 21
251.4648244987386
 31
0
  0
LINE
  8
1
 62
2
 10
280.4108724033658
 20
252.9648244987386
 30
0
 11
279.8108724033658
 21
252.0648244987386
 31
0
  0
LINE
  8
1
 62
2
 10
280.7108724033658
 20
254.1648244987386
 30
0
 11
280.4108724033658
 21
252.9648244987386
 31
0
  0
LINE
  8
1
 62
2
 10
280.7108724033658
 20
258.9648244987386
 30
0
 11
280.7108724033658
 21
254.1648244987386
 31
0
  0
LINE
  8
1
 62
2
 10
260.3108724033658
 20
257.1648244987386
 30
0
 11
260.3108724033658
 21
250.5648244987386
 31
0
  0
LINE
  8
1
 62
2
 10
260.3108724033658
 20
262.5648244987386
 30
0
 11
260.3108724033658
 21
257.1648244987386
 31
0
  0
LINE
  8
1
 62
2
 10
268.7108724033658
 20
262.5648244987386
 30
0
 11
260.3108724033658
 21
262.5648244987386
 31
0
  0
LINE
  8
1
 62
2
 10
260.3108724033658
 20
257.1648244987386
 30
0
 11
268.7108724033658
 21
257.1648244987386
 31
0
  0
LINE
  8
1
 62
2
 10
256.7108724033658
 20
257.1648244987386
 30
0
 11
253.7108724033658
 21
257.1648244987386
 31
0
  0
LINE
  8
1
 62
2
 10
256.7108724033658
 20
250.5648244987386
 30
0
 11
256.7108724033658
 21
257.1648244987386
 31
0
  0
LINE
  8
1
 62
2
 10
251.6108724033658
 20
250.5648244987386
 30
0
 11
256.7108724033658
 21
250.5648244987386
 31
0
  0
LINE
  8
1
 62
2
 10
250.7108724033658
 20
250.8648244987386
 30
0
 11
251.6108724033658
 21
250.5648244987386
 31
0
  0
LINE
  8
1
 62
2
 10
249.5108724033658
 20
251.4648244987386
 30
0
 11
250.7108724033658
 21
250.8648244987386
 31
0
  0
LINE
  8
1
 62
2
 10
248.9108724033658
 20
252.0648244987386
 30
0
 11
249.5108724033658
 21
251.4648244987386
 31
0
  0
LINE
  8
1
 62
2
 10
248.6108724033658
 20
252.9648244987386
 30
0
 11
248.9108724033658
 21
252.0648244987386
 31
0
  0
LINE
  8
1
 62
2
 10
248.3108724033658
 20
254.1648244987386
 30
0
 11
248.6108724033658
 21
252.9648244987386
 31
0
  0
LINE
  8
1
 62
2
 10
248.3108724033658
 20
258.9648244987386
 30
0
 11
248.3108724033658
 21
254.1648244987386
 31
0
  0
LINE
  8
1
 62
2
 10
248.6108724033658
 20
260.1648244987386
 30
0
 11
248.3108724033658
 21
258.9648244987386
 31
0
  0
LINE
  8
1
 62
2
 10
248.9108724033658
 20
261.0648244987386
 30
0
 11
248.6108724033658
 21
260.1648244987386
 31
0
  0
LINE
  8
1
 62
2
 10
249.5108724033658
 20
261.6648244987386
 30
0
 11
248.9108724033658
 21
261.0648244987386
 31
0
  0
LINE
  8
1
 62
2
 10
250.4108724033658
 20
262.2648244987386
 30
0
 11
249.5108724033658
 21
261.6648244987386
 31
0
  0
LINE
  8
1
 62
2
 10
251.6108724033658
 20
262.5648244987386
 30
0
 11
250.4108724033658
 21
262.2648244987386
 31
0
  0
LINE
  8
1
 62
2
 10
256.7108724033658
 20
262.5648244987386
 30
0
 11
251.6108724033658
 21
262.5648244987386
 31
0
  0
LINE
  8
1
 62
2
 10
386.9442057366992
 20
233.6898244987386
 30
0
 11
387.2775390700325
 21
234.0648244987386
 31
0
  0
LINE
  8
1
 62
2
 10
386.9442057366992
 20
235.9398244987386
 30
0
 11
384.9442057366992
 21
235.9398244987386
 31
0
  0
LINE
  8
1
 62
2
 10
391.9442057366992
 20
227.3148244987386
 30
0
 11
394.9442057366992
 21
227.3148244987386
 31
0
  0
LINE
  8
1
 62
2
 10
388.6108724033658
 20
227.3148244987386
 30
0
 11
391.9442057366992
 21
227.3148244987386
 31
0
  0
LINE
  8
1
 62
2
 10
391.9442057366992
 20
238.1898244987386
 30
0
 11
391.9442057366992
 21
227.3148244987386
 31
0
  0
LINE
  8
1
 62
2
 10
389.6108724033658
 20
233.6898244987386
 30
0
 11
394.2775390700325
 21
233.6898244987386
 31
0
  0
LINE
  8
1
 62
2
 10
387.6108724033658
 20
233.3148244987386
 30
0
 11
389.2775390700325
 21
231.4398244987386
 31
0
  0
LINE
  8
1
 62
2
 10
386.9442057366992
 20
235.9398244987386
 30
0
 11
386.9442057366992
 21
238.1898244987386
 31
0
  0
LINE
  8
1
 62
2
 10
388.6108724033658
 20
235.9398244987386
 30
0
 11
386.9442057366992
 21
235.9398244987386
 31
0
  0
LINE
  8
1
 62
2
 10
387.2775390700325
 20
234.0648244987386
 30
0
 11
388.6108724033658
 21
235.9398244987386
 31
0
  0
LINE
  8
1
 62
2
 10
385.6108724033658
 20
232.1898244987386
 30
0
 11
386.9442057366992
 21
233.6898244987386
 31
0
  0
LINE
  8
1
 62
2
 10
384.2775390700325
 20
231.0648244987386
 30
0
 11
385.6108724033658
 21
232.1898244987386
 31
0
  0
LINE
  8
1
 62
2
 10
386.9442057366992
 20
226.9398244987386
 30
0
 11
386.9442057366992
 21
233.6898244987386
 31
0
  0
LINE
  8
1
 62
2
 10
377.6108724033658
 20
231.0648244987386
 30
0
 11
374.2775390700325
 21
226.9398244987386
 31
0
  0
LINE
  8
1
 62
2
 10
380.6108724033658
 20
227.6898244987386
 30
0
 11
379.2775390700325
 21
229.1898244987386
 31
0
  0
LINE
  8
1
 62
2
 10
381.6108724033658
 20
226.5648244987386
 30
0
 11
380.6108724033658
 21
227.6898244987386
 31
0
  0
LINE
  8
1
 62
2
 10
373.2775390700325
 20
226.9398244987386
 30
0
 11
380.6108724033658
 21
227.6898244987386
 31
0
  0
LINE
  8
1
 62
2
 10
373.9442057366992
 20
231.4398244987386
 30
0
 11
381.6108724033658
 21
231.4398244987386
 31
0
  0
LINE
  8
1
 62
2
 10
375.2775390700325
 20
233.3148244987386
 30
0
 11
379.9442057366992
 21
233.3148244987386
 31
0
  0
LINE
  8
1
 62
2
 10
377.6108724033658
 20
238.1898244987386
 30
0
 11
382.9442057366992
 21
232.5648244987386
 31
0
  0
LINE
  8
1
 62
2
 10
377.6108724033658
 20
238.1898244987386
 30
0
 11
372.2775390700325
 21
232.5648244987386
 31
0
  0
LINE
  8
1
 62
2
 10
363.2775390700325
 20
232.9398244987386
 30
0
 11
360.9442057366992
 21
232.9398244987386
 31
0
  0
LINE
  8
1
 62
2
 10
363.2775390700325
 20
228.8148244987386
 30
0
 11
365.6108724033658
 21
229.5648244987386
 31
0
  0
LINE
  8
1
 62
2
 10
369.9442057366992
 20
226.9398244987386
 30
0
 11
370.9442057366992
 21
228.0648244987386
 31
0
  0
LINE
  8
1
 62
2
 10
368.6108724033658
 20
228.4398244987386
 30
0
 11
369.9442057366992
 21
226.9398244987386
 31
0
  0
LINE
  8
1
 62
2
 10
367.2775390700325
 20
231.0648244987386
 30
0
 11
368.6108724033658
 21
228.4398244987386
 31
0
  0
LINE
  8
1
 62
2
 10
366.6108724033658
 20
234.0648244987386
 30
0
 11
367.2775390700325
 21
231.0648244987386
 31
0
  0
LINE
  8
1
 62
2
 10
366.2775390700325
 20
238.5648244987386
 30
0
 11
366.6108724033658
 21
234.0648244987386
 31
0
  0
LINE
  8
1
 62
2
 10
368.2775390700325
 20
237.0648244987386
 30
0
 11
367.2775390700325
 21
238.1898244987386
 31
0
  0
LINE
  8
1
 62
2
 10
360.2775390700325
 20
235.9398244987386
 30
0
 11
369.9442057366992
 21
235.9398244987386
 31
0
  0
LINE
  8
1
 62
2
 10
363.2775390700325
 20
232.9398244987386
 30
0
 11
363.2775390700325
 21
228.8148244987386
 31
0
  0
LINE
  8
1
 62
2
 10
365.6108724033658
 20
232.9398244987386
 30
0
 11
363.2775390700325
 21
232.9398244987386
 31
0
  0
LINE
  8
1
 62
2
 10
360.9442057366992
 20
228.0648244987386
 30
0
 11
363.2775390700325
 21
228.8148244987386
 31
0
  0
LINE
  8
1
 62
2
 10
350.6108724033658
 20
235.1898244987386
 30
0
 11
350.6108724033658
 21
238.5648244987386
 31
0
  0
LINE
  8
1
 62
2
 10
350.6108724033658
 20
235.1898244987386
 30
0
 11
348.9442057366992
 21
235.1898244987386
 31
0
  0
LINE
  8
1
 62
2
 10
357.2775390700325
 20
229.5648244987386
 30
0
 11
358.6108724033658
 21
226.9398244987386
 31
0
  0
LINE
  8
1
 62
2
 10
355.6108724033658
 20
232.9398244987386
 30
0
 11
357.2775390700325
 21
229.5648244987386
 31
0
  0
LINE
  8
1
 62
2
 10
354.6108724033658
 20
230.3148244987386
 30
0
 11
355.6108724033658
 21
232.9398244987386
 31
0
  0
LINE
  8
1
 62
2
 10
353.2775390700325
 20
228.4398244987386
 30
0
 11
354.6108724033658
 21
230.3148244987386
 31
0
  0
LINE
  8
1
 62
2
 10
352.2775390700325
 20
226.9398244987386
 30
0
 11
353.2775390700325
 21
228.4398244987386
 31
0
  0
LINE
  8
1
 62
2
 10
355.6108724033658
 20
238.5648244987386
 30
0
 11
355.6108724033658
 21
226.5648244987386
 31
0
  0
LINE
  8
1
 62
2
 10
358.6108724033658
 20
232.9398244987386
 30
0
 11
352.9442057366992
 21
232.9398244987386
 31
0
  0
LINE
  8
1
 62
2
 10
353.9442057366992
 20
235.5648244987386
 30
0
 11
358.2775390700325
 21
235.5648244987386
 31
0
  0
LINE
  8
1
 62
2
 10
353.9442057366992
 20
235.5648244987386
 30
0
 11
354.2775390700325
 21
237.4398244987386
 31
0
  0
LINE
  8
1
 62
2
 10
352.9442057366992
 20
233.6898244987386
 30
0
 11
353.9442057366992
 21
235.5648244987386
 31
0
  0
LINE
  8
1
 62
2
 10
350.6108724033658
 20
235.1898244987386
 30
0
 11
352.2775390700325
 21
232.1898244987386
 31
0
  0
LINE
  8
1
 62
2
 10
348.6108724033658
 20
229.9398244987386
 30
0
 11
350.6108724033658
 21
235.1898244987386
 31
0
  0
LINE
  8
1
 62
2
 10
352.2775390700325
 20
235.1898244987386
 30
0
 11
350.6108724033658
 21
235.1898244987386
 31
0
  0
LINE
  8
1
 62
2
 10
350.6108724033658
 20
226.9398244987386
 30
0
 11
350.6108724033658
 21
235.1898244987386
 31
0
  0
LINE
  8
1
 62
2
 10
337.2775390700325
 20
234.0648244987386
 30
0
 11
337.2775390700325
 21
235.9398244987386
 31
0
  0
LINE
  8
1
 62
2
 10
340.6108724033658
 20
235.9398244987386
 30
0
 11
340.6108724033658
 21
234.0648244987386
 31
0
  0
LINE
  8
1
 62
2
 10
337.2775390700325
 20
235.9398244987386
 30
0
 11
337.2775390700325
 21
237.8148244987386
 31
0
  0
LINE
  8
1
 62
2
 10
345.9442057366992
 20
234.0648244987386
 30
0
 11
345.9442057366992
 21
235.9398244987386
 31
0
  0
LINE
  8
1
 62
2
 10
342.6108724033658
 20
235.9398244987386
 30
0
 11
342.6108724033658
 21
234.0648244987386
 31
0
  0
LINE
  8
1
 62
2
 10
345.9442057366992
 20
235.9398244987386
 30
0
 11
345.9442057366992
 21
237.8148244987386
 31
0
  0
LINE
  8
1
 62
2
 10
337.2775390700325
 20
227.3148244987386
 30
0
 11
337.2775390700325
 21
226.9398244987386
 31
0
  0
LINE
  8
1
 62
2
 10
342.6108724033658
 20
235.9398244987386
 30
0
 11
345.9442057366992
 21
235.9398244987386
 31
0
  0
LINE
  8
1
 62
2
 10
342.6108724033658
 20
234.0648244987386
 30
0
 11
345.9442057366992
 21
234.0648244987386
 31
0
  0
LINE
  8
1
 62
2
 10
342.6108724033658
 20
237.8148244987386
 30
0
 11
342.6108724033658
 21
235.9398244987386
 31
0
  0
LINE
  8
1
 62
2
 10
345.9442057366992
 20
237.8148244987386
 30
0
 11
342.6108724033658
 21
237.8148244987386
 31
0
  0
LINE
  8
1
 62
2
 10
345.9442057366992
 20
227.3148244987386
 30
0
 11
345.9442057366992
 21
234.0648244987386
 31
0
  0
LINE
  8
1
 62
2
 10
345.6108724033658
 20
226.9398244987386
 30
0
 11
345.9442057366992
 21
227.3148244987386
 31
0
  0
LINE
  8
1
 62
2
 10
344.6108724033658
 20
226.9398244987386
 30
0
 11
345.6108724033658
 21
226.9398244987386
 31
0
  0
LINE
  8
1
 62
2
 10
340.6108724033658
 20
235.9398244987386
 30
0
 11
337.2775390700325
 21
235.9398244987386
 31
0
  0
LINE
  8
1
 62
2
 10
340.6108724033658
 20
234.0648244987386
 30
0
 11
337.2775390700325
 21
234.0648244987386
 31
0
  0
LINE
  8
1
 62
2
 10
340.6108724033658
 20
237.8148244987386
 30
0
 11
340.6108724033658
 21
235.9398244987386
 31
0
  0
LINE
  8
1
 62
2
 10
337.2775390700325
 20
237.8148244987386
 30
0
 11
340.6108724033658
 21
237.8148244987386
 31
0
  0
LINE
  8
1
 62
2
 10
337.2775390700325
 20
227.3148244987386
 30
0
 11
337.2775390700325
 21
234.0648244987386
 31
0
  0
LINE
  8
1
 62
2
 10
329.6108724033658
 20
226.9398244987386
 30
0
 11
333.6108724033658
 21
226.9398244987386
 31
0
  0
LINE
  8
1
 62
2
 10
329.6108724033658
 20
234.0648244987386
 30
0
 11
331.9442057366992
 21
234.0648244987386
 31
0
  0
LINE
  8
1
 62
2
 10
333.6108724033658
 20
233.6898244987386
 30
0
 11
334.9442057366992
 21
232.5648244987386
 31
0
  0
LINE
  8
1
 62
2
 10
331.2775390700325
 20
236.3148244987386
 30
0
 11
333.6108724033658
 21
233.6898244987386
 31
0
  0
LINE
  8
1
 62
2
 10
329.6108724033658
 20
238.5648244987386
 30
0
 11
331.2775390700325
 21
236.3148244987386
 31
0
  0
LINE
  8
1
 62
2
 10
327.9442057366992
 20
236.3148244987386
 30
0
 11
329.6108724033658
 21
238.5648244987386
 31
0
  0
LINE
  8
1
 62
2
 10
325.6108724033658
 20
233.6898244987386
 30
0
 11
327.9442057366992
 21
236.3148244987386
 31
0
  0
LINE
  8
1
 62
2
 10
324.2775390700325
 20
232.5648244987386
 30
0
 11
325.6108724033658
 21
233.6898244987386
 31
0
  0
LINE
  8
1
 62
2
 10
331.2775390700325
 20
228.4398244987386
 30
0
 11
331.9442057366992
 21
230.3148244987386
 31
0
  0
LINE
  8
1
 62
2
 10
327.2775390700325
 20
230.3148244987386
 30
0
 11
327.9442057366992
 21
228.4398244987386
 31
0
  0
LINE
  8
1
 62
2
 10
332.9442057366992
 20
231.8148244987386
 30
0
 11
326.2775390700325
 21
231.8148244987386
 31
0
  0
LINE
  8
1
 62
2
 10
327.2775390700325
 20
234.0648244987386
 30
0
 11
329.6108724033658
 21
234.0648244987386
 31
0
  0
LINE
  8
1
 62
2
 10
329.6108724033658
 20
226.9398244987386
 30
0
 11
329.6108724033658
 21
234.0648244987386
 31
0
  0
LINE
  8
1
 62
2
 10
325.2775390700325
 20
226.9398244987386
 30
0
 11
329.6108724033658
 21
226.9398244987386
 31
0
  0
LINE
  8
1
 62
2
 10
320.6108724033658
 20
230.3148244987386
 30
0
 11
322.2775390700325
 21
232.5648244987386
 31
0
  0
LINE
  8
1
 62
2
 10
317.9442057366992
 20
228.8148244987386
 30
0
 11
320.6108724033658
 21
230.3148244987386
 31
0
  0
LINE
  8
1
 62
2
 10
317.9442057366992
 20
235.5648244987386
 30
0
 11
317.9442057366992
 21
228.8148244987386
 31
0
  0
LINE
  8
1
 62
2
 10
315.2775390700325
 20
232.5648244987386
 30
0
 11
315.6108724033658
 21
235.5648244987386
 31
0
  0
LINE
  8
1
 62
2
 10
314.6108724033658
 20
230.3148244987386
 30
0
 11
315.2775390700325
 21
232.5648244987386
 31
0
  0
LINE
  8
1
 62
2
 10
313.6108724033658
 20
228.4398244987386
 30
0
 11
314.6108724033658
 21
230.3148244987386
 31
0
  0
LINE
  8
1
 62
2
 10
302.2775390700325
 20
231.4398244987386
 30
0
 11
302.2775390700325
 21
229.1898244987386
 31
0
  0
LINE
  8
1
 62
2
 10
305.9442057366992
 20
227.6898244987386
 30
0
 11
307.9442057366992
 21
228.0648244987386
 31
0
  0
LINE
  8
1
 62
2
 10
302.6108724033658
 20
228.0648244987386
 30
0
 11
305.9442057366992
 21
227.6898244987386
 31
0
  0
LINE
  8
1
 62
2
 10
302.2775390700325
 20
229.1898244987386
 30
0
 11
302.6108724033658
 21
228.0648244987386
 31
0
  0
LINE
  8
1
 62
2
 10
302.2775390700325
 20
235.5648244987386
 30
0
 11
302.2775390700325
 21
231.4398244987386
 31
0
  0
LINE
  8
1
 62
2
 10
308.6108724033658
 20
236.3148244987386
 30
0
 11
309.6108724033658
 21
235.1898244987386
 31
0
  0
LINE
  8
1
 62
2
 10
308.9442057366992
 20
234.4398244987386
 30
0
 11
307.9442057366992
 21
235.5648244987386
 31
0
  0
LINE
  8
1
 62
2
 10
305.2775390700325
 20
232.5648244987386
 30
0
 11
307.2775390700325
 21
233.6898244987386
 31
0
  0
LINE
  8
1
 62
2
 10
302.2775390700325
 20
231.4398244987386
 30
0
 11
305.2775390700325
 21
232.5648244987386
 31
0
  0
LINE
  8
1
 62
2
 10
294.9442057366992
 20
230.3148244987386
 30
0
 11
296.9442057366992
 21
228.0648244987386
 31
0
  0
LINE
  8
1
 62
2
 10
293.2775390700325
 20
231.8148244987386
 30
0
 11
294.9442057366992
 21
230.3148244987386
 31
0
  0
LINE
  8
1
 62
2
 10
297.2775390700325
 20
237.0648244987386
 30
0
 11
298.2775390700325
 21
235.9398244987386
 31
0
  0
LINE
  8
1
 62
2
 10
296.6108724033658
 20
236.3148244987386
 30
0
 11
297.6108724033658
 21
235.1898244987386
 31
0
  0
LINE
  8
1
 62
2
 10
295.2775390700325
 20
235.5648244987386
 30
0
 11
290.9442057366992
 21
235.5648244987386
 31
0
  0
LINE
  8
1
 62
2
 10
294.2775390700325
 20
233.3148244987386
 30
0
 11
295.2775390700325
 21
235.5648244987386
 31
0
  0
LINE
  8
1
 62
2
 10
291.9442057366992
 20
229.9398244987386
 30
0
 11
294.2775390700325
 21
233.3148244987386
 31
0
  0
LINE
  8
1
 62
2
 10
289.6108724033658
 20
228.0648244987386
 30
0
 11
291.9442057366992
 21
229.9398244987386
 31
0
  0
LINE
  8
1
 62
2
 10
285.6108724033658
 20
235.1898244987386
 30
0
 11
282.6108724033658
 21
231.8148244987386
 31
0
  0
LINE
  8
1
 62
2
 10
277.9442057366992
 20
235.1898244987386
 30
0
 11
285.6108724033658
 21
235.1898244987386
 31
0
  0
LINE
  8
1
 62
2
 10
281.6108724033658
 20
231.8148244987386
 30
0
 11
281.9442057366992
 21
233.6898244987386
 31
0
  0
LINE
  8
1
 62
2
 10
280.9442057366992
 20
229.5648244987386
 30
0
 11
281.6108724033658
 21
231.8148244987386
 31
0
  0
LINE
  8
1
 62
2
 10
279.6108724033658
 20
227.3148244987386
 30
0
 11
280.9442057366992
 21
229.5648244987386
 31
0
  0
LINE
  8
1
 62
2
 10
584.0802093764236
 20
520.1878498808001
 30
0
 11
584.0802093764236
 21
521.0878498808
 31
0
  0
LINE
  8
1
 62
2
 10
584.0802093764236
 20
518.0878498808
 30
0
 11
584.0802093764236
 21
520.1878498808001
 31
0
  0
LINE
  8
1
 62
2
 10
583.2139593764237
 20
518.0878498808
 30
0
 11
584.0802093764236
 21
518.0878498808
 31
0
  0
LINE
  8
1
 62
2
 10
582.9829593764237
 20
518.1628498808001
 30
0
 11
583.2139593764237
 21
518.0878498808
 31
0
  0
LINE
  8
1
 62
2
 10
582.8674593764237
 20
518.2378498808
 30
0
 11
582.9829593764237
 21
518.1628498808001
 31
0
  0
LINE
  8
1
 62
2
 10
582.7519593764237
 20
518.3878498808
 30
0
 11
582.8674593764237
 21
518.2378498808
 31
0
  0
LINE
  8
1
 62
2
 10
582.6942093764236
 20
518.6878498808001
 30
0
 11
582.7519593764237
 21
518.3878498808
 31
0
  0
LINE
  8
1
 62
2
 10
582.6942093764236
 20
519.5878498808
 30
0
 11
582.6942093764236
 21
518.6878498808001
 31
0
  0
LINE
  8
1
 62
2
 10
582.7519593764237
 20
519.8878498808
 30
0
 11
582.6942093764236
 21
519.5878498808
 31
0
  0
LINE
  8
1
 62
2
 10
582.8674593764237
 20
520.0378498808001
 30
0
 11
582.7519593764237
 21
519.8878498808
 31
0
  0
LINE
  8
1
 62
2
 10
582.9829593764237
 20
520.1128498808
 30
0
 11
582.8674593764237
 21
520.0378498808001
 31
0
  0
LINE
  8
1
 62
2
 10
583.2139593764237
 20
520.1878498808001
 30
0
 11
582.9829593764237
 21
520.1128498808
 31
0
  0
LINE
  8
1
 62
2
 10
584.0802093764236
 20
520.1878498808001
 30
0
 11
583.2139593764237
 21
520.1878498808001
 31
0
  0
LINE
  8
1
 62
2
 10
581.4033270234824
 20
520.6878498808001
 30
0
 11
580.7239152587765
 21
517.2878498808001
 31
0
  0
LINE
  8
1
 62
2
 10
581.5392093764236
 20
519.8878498808
 30
0
 11
581.2674446705412
 21
519.9878498808
 31
0
  0
LINE
  8
1
 62
2
 10
581.6750917293648
 20
519.6878498808001
 30
0
 11
581.5392093764236
 21
519.8878498808
 31
0
  0
LINE
  8
1
 62
2
 10
581.7430329058353
 20
519.3878498808
 30
0
 11
581.6750917293648
 21
519.6878498808001
 31
0
  0
LINE
  8
1
 62
2
 10
581.7430329058353
 20
518.8878498808
 30
0
 11
581.7430329058353
 21
519.3878498808
 31
0
  0
LINE
  8
1
 62
2
 10
581.6750917293648
 20
518.6878498808001
 30
0
 11
581.7430329058353
 21
518.8878498808
 31
0
  0
LINE
  8
1
 62
2
 10
581.6071505528942
 20
518.4878498808
 30
0
 11
581.6750917293648
 21
518.6878498808001
 31
0
  0
LINE
  8
1
 62
2
 10
581.471268199953
 20
518.2878498808001
 30
0
 11
581.6071505528942
 21
518.4878498808
 31
0
  0
LINE
  8
1
 62
2
 10
581.1995034940707
 20
518.0878498808
 30
0
 11
581.471268199953
 21
518.2878498808001
 31
0
  0
LINE
  8
1
 62
2
 10
580.9277387881883
 20
517.9878498808
 30
0
 11
581.1995034940707
 21
518.0878498808
 31
0
  0
LINE
  8
1
 62
2
 10
580.7239152587765
 20
518.0878498808
 30
0
 11
580.9277387881883
 21
517.9878498808
 31
0
  0
LINE
  8
1
 62
2
 10
580.5200917293647
 20
518.2878498808001
 30
0
 11
580.7239152587765
 21
518.0878498808
 31
0
  0
LINE
  8
1
 62
2
 10
580.4521505528942
 20
518.5878498808
 30
0
 11
580.5200917293647
 21
518.2878498808001
 31
0
  0
LINE
  8
1
 62
2
 10
580.4521505528942
 20
518.9878498808
 30
0
 11
580.4521505528942
 21
518.5878498808
 31
0
  0
LINE
  8
1
 62
2
 10
580.5200917293647
 20
519.2878498808001
 30
0
 11
580.4521505528942
 21
518.9878498808
 31
0
  0
LINE
  8
1
 62
2
 10
580.7239152587765
 20
519.5878498808
 30
0
 11
580.5200917293647
 21
519.2878498808001
 31
0
  0
LINE
  8
1
 62
2
 10
580.9277387881883
 20
519.7878498808001
 30
0
 11
580.7239152587765
 21
519.5878498808
 31
0
  0
LINE
  8
1
 62
2
 10
581.2674446705412
 20
519.9878498808
 30
0
 11
580.9277387881883
 21
519.7878498808001
 31
0
  0
LINE
  8
1
 62
2
 10
578.1285623176
 20
519.1378498808
 30
0
 11
579.2835623175999
 21
519.1378498808
 31
0
  0
LINE
  8
1
 62
2
 10
577.4355623176
 20
519.8128498808001
 30
0
 11
577.4355623176
 21
518.0878498808
 31
0
  0
LINE
  8
1
 62
2
 10
577.3778123176001
 20
519.9628498808
 30
0
 11
577.4355623176
 21
519.8128498808001
 31
0
  0
LINE
  8
1
 62
2
 10
577.2623123176001
 20
520.1128498808
 30
0
 11
577.3778123176001
 21
519.9628498808
 31
0
  0
LINE
  8
1
 62
2
 10
577.0890623176
 20
520.1878498808001
 30
0
 11
577.2623123176001
 21
520.1128498808
 31
0
  0
LINE
  8
1
 62
2
 10
576.0495623176
 20
520.1878498808001
 30
0
 11
577.0890623176
 21
520.1878498808001
 31
0
  0
LINE
  8
1
 62
2
 10
576.0495623176
 20
518.0878498808
 30
0
 11
576.0495623176
 21
520.1878498808001
 31
0
  0
LINE
  8
1
 62
2
 10
158.6398711891706
 20
357.8827873419
 30
0
 11
160.4063417774059
 21
357.8827873419
 31
0
  0
LINE
  8
1
 62
2
 10
159.5231064832882
 20
359.8827873419
 30
0
 11
160.4063417774059
 21
359.8827873419
 31
0
  0
LINE
  8
1
 62
2
 10
159.5231064832882
 20
359.8827873419
 30
0
 11
159.5231064832882
 21
357.0827873419
 31
0
  0
LINE
  8
1
 62
2
 10
158.2322241303471
 20
357.8827873419
 30
0
 11
158.6398711891706
 21
357.8827873419
 31
0
  0
LINE
  8
1
 62
2
 10
158.6398711891706
 20
359.0827873419
 30
0
 11
158.6398711891706
 21
357.8827873419
 31
0
  0
LINE
  8
1
 62
2
 10
160.3384006009353
 20
359.0827873419
 30
0
 11
158.6398711891706
 21
359.0827873419
 31
0
  0
LINE
  8
1
 62
2
 10
158.7078123656412
 20
359.8827873419
 30
0
 11
159.5231064832882
 21
359.8827873419
 31
0
  0
LINE
  8
1
 62
2
 10
158.7078123656412
 20
359.8827873419
 30
0
 11
158.3681064832882
 21
359.2827873419
 31
0
  0
LINE
  8
1
 62
2
 10
158.8436947185824
 20
360.2827873419
 30
0
 11
158.7078123656412
 21
359.8827873419
 31
0
  0
LINE
  8
1
 62
2
 10
156.8734006009353
 20
358.9827873419
 30
0
 11
157.6207535421117
 21
358.9827873419
 31
0
  0
LINE
  8
1
 62
2
 10
156.3298711891706
 20
357.5827873419
 30
0
 11
156.3298711891706
 21
358.5827873419
 31
0
  0
LINE
  8
1
 62
2
 10
157.4169300127
 20
357.5827873419
 30
0
 11
156.3298711891706
 21
357.5827873419
 31
0
  0
LINE
  8
1
 62
2
 10
157.4169300127
 20
358.5827873419
 30
0
 11
157.4169300127
 21
357.5827873419
 31
0
  0
LINE
  8
1
 62
2
 10
156.3298711891706
 20
358.5827873419
 30
0
 11
157.4169300127
 21
358.5827873419
 31
0
  0
LINE
  8
1
 62
2
 10
156.8734006009353
 20
360.1827873419
 30
0
 11
156.8734006009353
 21
358.9827873419
 31
0
  0
LINE
  8
1
 62
2
 10
156.0581064832882
 20
358.9827873419
 30
0
 11
156.8734006009353
 21
358.9827873419
 31
0
  0
LINE
  8
1
 62
2
 10
156.2619300127
 20
359.6827873419
 30
0
 11
157.5528123656412
 21
359.6827873419
 31
0
  0
LINE
  8
1
 62
2
 10
156.2619300127
 20
359.6827873419
 30
0
 11
156.0581064832882
 21
359.2827873419
 31
0
  0
LINE
  8
1
 62
2
 10
156.3298711891706
 20
360.0827873419
 30
0
 11
156.2619300127
 21
359.6827873419
 31
0
  0
LINE
  8
1
 62
2
 10
156.5336947185824
 20
357.1827873419
 30
0
 11
157.6886947185824
 21
357.1827873419
 31
0
  0
LINE
  8
1
 62
2
 10
155.9222241303471
 20
357.8827873419
 30
0
 11
156.5336947185824
 21
357.1827873419
 31
0
  0
LINE
  8
1
 62
2
 10
155.9222241303471
 20
357.8827873419
 30
0
 11
155.5825182479941
 21
357.1827873419
 31
0
  0
LINE
  8
1
 62
2
 10
155.9222241303471
 20
358.8827873419
 30
0
 11
155.9222241303471
 21
357.8827873419
 31
0
  0
LINE
  8
1
 62
2
 10
155.5825182479941
 20
358.8827873419
 30
0
 11
155.9222241303471
 21
358.8827873419
 31
0
  0
LINE
  8
1
 62
2
 10
155.6504594244647
 20
360.0827873419
 30
0
 11
155.9901653068176
 21
359.5827873419
 31
0
  0
LINE
  8
1
 62
2
 10
153.2725182479941
 20
359.1827873419
 30
0
 11
153.612224130347
 21
359.1827873419
 31
0
  0
LINE
  8
1
 62
2
 10
153.2725182479941
 20
357.2827873419
 30
0
 11
153.6801653068176
 21
357.3827873419
 31
0
  0
LINE
  8
1
 62
2
 10
154.7672241303471
 20
359.0827873419
 30
0
 11
154.9710476597588
 21
359.0827873419
 31
0
  0
LINE
  8
1
 62
2
 10
154.2916358950529
 20
358.1827873419
 30
0
 11
154.4954594244647
 21
357.4827873419
 31
0
  0
LINE
  8
1
 62
2
 10
154.7672241303471
 20
357.1827873419
 30
0
 11
154.2236947185824
 21
357.3827873419
 31
0
  0
LINE
  8
1
 62
2
 10
154.7672241303471
 20
359.0827873419
 30
0
 11
154.7672241303471
 21
357.1827873419
 31
0
  0
LINE
  8
1
 62
2
 10
153.8160476597588
 20
358.3827873419
 30
0
 11
154.9710476597588
 21
358.3827873419
 31
0
  0
LINE
  8
1
 62
2
 10
154.2236947185824
 20
358.7827873419
 30
0
 11
153.8160476597588
 21
357.4827873419
 31
0
  0
LINE
  8
1
 62
2
 10
154.2916358950529
 20
360.1827873419
 30
0
 11
154.2236947185824
 21
358.7827873419
 31
0
  0
LINE
  8
1
 62
2
 10
153.7481064832882
 20
359.0827873419
 30
0
 11
154.7672241303471
 21
359.0827873419
 31
0
  0
LINE
  8
1
 62
2
 10
153.8839888362294
 20
359.4827873419
 30
0
 11
154.8351653068176
 21
359.4827873419
 31
0
  0
LINE
  8
1
 62
2
 10
153.8160476597588
 20
359.8827873419
 30
0
 11
154.9031064832882
 21
359.8827873419
 31
0
  0
LINE
  8
1
 62
2
 10
152.8648711891706
 20
357.1827873419
 30
0
 11
153.2725182479941
 21
357.2827873419
 31
0
  0
LINE
  8
1
 62
2
 10
153.6801653068176
 20
358.2827873419
 30
0
 11
153.5442829538765
 21
357.5827873419
 31
0
  0
LINE
  8
1
 62
2
 10
152.9328123656412
 20
358.2827873419
 30
0
 11
153.0686947185824
 21
357.4827873419
 31
0
  0
LINE
  8
1
 62
2
 10
153.2725182479941
 20
359.1827873419
 30
0
 11
153.2725182479941
 21
357.2827873419
 31
0
  0
LINE
  8
1
 62
2
 10
152.8648711891706
 20
358.5827873419
 30
0
 11
153.6801653068176
 21
358.5827873419
 31
0
  0
LINE
  8
1
 62
2
 10
152.9328123656412
 20
359.1827873419
 30
0
 11
153.2725182479941
 21
359.1827873419
 31
0
  0
LINE
  8
1
 62
2
 10
153.3404594244647
 20
360.0827873419
 30
0
 11
153.6801653068176
 21
359.4827873419
 31
0
  0
LINE
  8
1
 62
2
 10
152.8648711891706
 20
359.3827873419
 30
0
 11
153.3404594244647
 21
360.0827873419
 31
0
  0
LINE
  8
1
 62
2
 10
255.0178121713471
 20
356.0456895296
 30
0
 11
256.3766357007588
 21
356.0456895296
 31
0
  0
LINE
  8
1
 62
2
 10
255.6292827595823
 20
354.2456895296
 30
0
 11
254.6101651125235
 21
354.5456895296
 31
0
  0
LINE
  8
1
 62
2
 10
256.1048709948765
 20
354.6456895296
 30
0
 11
255.6292827595823
 21
354.2456895296
 31
0
  0
LINE
  8
1
 62
2
 10
256.1728121713471
 20
355.3456895296
 30
0
 11
256.1048709948765
 21
354.6456895296
 31
0
  0
LINE
  8
1
 62
2
 10
254.8819298184059
 20
355.3456895296
 30
0
 11
256.1728121713471
 21
355.3456895296
 31
0
  0
LINE
  8
1
 62
2
 10
255.0178121713471
 20
356.0456895296
 30
0
 11
254.8819298184059
 21
355.3456895296
 31
0
  0
LINE
  8
1
 62
2
 10
254.3384004066412
 20
356.0456895296
 30
0
 11
255.0178121713471
 21
356.0456895296
 31
0
  0
LINE
  8
1
 62
2
 10
254.6101651125235
 20
356.3456895296
 30
0
 11
254.6101651125235
 21
357.2456895296
 31
0
  0
LINE
  8
1
 62
2
 10
256.1728121713471
 20
356.3456895296
 30
0
 11
254.6101651125235
 21
356.3456895296
 31
0
  0
LINE
  8
1
 62
2
 10
256.1728121713471
 20
357.2456895296
 30
0
 11
256.1728121713471
 21
356.3456895296
 31
0
  0
LINE
  8
1
 62
2
 10
254.6101651125235
 20
357.2456895296
 30
0
 11
256.1728121713471
 21
357.2456895296
 31
0
  0
LINE
  8
1
 62
2
 10
253.6589886419353
 20
354.3456895296
 30
0
 11
253.6589886419353
 21
355.0456895296
 31
0
  0
LINE
  8
1
 62
2
 10
252.6398709948765
 20
354.3456895296
 30
0
 11
253.6589886419353
 21
354.3456895296
 31
0
  0
LINE
  8
1
 62
2
 10
252.6398709948765
 20
356.0456895296
 30
0
 11
252.6398709948765
 21
354.3456895296
 31
0
  0
LINE
  8
1
 62
2
 10
253.5231062889941
 20
356.0456895296
 30
0
 11
252.6398709948765
 21
356.0456895296
 31
0
  0
LINE
  8
1
 62
2
 10
253.5231062889941
 20
357.2456895296
 30
0
 11
253.5231062889941
 21
356.0456895296
 31
0
  0
LINE
  8
1
 62
2
 10
252.5719298184059
 20
357.2456895296
 30
0
 11
253.5231062889941
 21
357.2456895296
 31
0
  0
LINE
  8
1
 62
2
 10
251.6886945242882
 20
354.3456895296
 30
0
 11
251.6886945242882
 21
355.3456895296
 31
0
  0
LINE
  8
1
 62
2
 10
252.4360474654647
 20
354.3456895296
 30
0
 11
251.6886945242882
 21
354.3456895296
 31
0
  0
LINE
  8
1
 62
2
 10
252.4360474654647
 20
355.3456895296
 30
0
 11
252.4360474654647
 21
354.3456895296
 31
0
  0
LINE
  8
1
 62
2
 10
251.6886945242882
 20
355.3456895296
 30
0
 11
252.4360474654647
 21
355.3456895296
 31
0
  0
LINE
  8
1
 62
2
 10
251.7566357007588
 20
355.7456895296
 30
0
 11
252.3681062889941
 21
355.7456895296
 31
0
  0
LINE
  8
1
 62
2
 10
251.7566357007588
 20
356.2456895296
 30
0
 11
252.3681062889941
 21
356.2456895296
 31
0
  0
LINE
  8
1
 62
2
 10
251.6207533478176
 20
356.7456895296
 30
0
 11
252.5039886419353
 21
356.7456895296
 31
0
  0
LINE
  8
1
 62
2
 10
251.7566357007588
 20
357.2456895296
 30
0
 11
252.3681062889941
 21
357.2456895296
 31
0
  0
LINE
  8
1
 62
2
 10
249.3107533478176
 20
356.0456895296
 30
0
 11
249.7863415831118
 21
356.0456895296
 31
0
  0
LINE
  8
1
 62
2
 10
249.3107533478176
 20
356.0456895296
 30
0
 11
249.3107533478176
 21
354.3456895296
 31
0
  0
LINE
  8
1
 62
2
 10
250.7375180537
 20
357.2456895296
 30
0
 11
250.7375180537
 21
354.3456895296
 31
0
  0
LINE
  8
1
 62
2
 10
249.8542827595824
 20
354.8456895296
 30
0
 11
250.9413415831118
 21
355.1456895296
 31
0
  0
LINE
  8
1
 62
2
 10
249.9222239360529
 20
356.2456895296
 30
0
 11
250.5336945242882
 21
355.4456895296
 31
0
  0
LINE
  8
1
 62
2
 10
249.9901651125235
 20
357.1456895296
 30
0
 11
250.5336945242882
 21
356.4456895296
 31
0
  0
LINE
  8
1
 62
2
 10
249.3107533478176
 20
356.0456895296
 30
0
 11
249.7863415831118
 21
355.1456895296
 31
0
  0
LINE
  8
1
 62
2
 10
249.3107533478176
 20
356.0456895296
 30
0
 11
248.9031062889941
 21
354.8456895296
 31
0
  0
LINE
  8
1
 62
2
 10
249.3107533478176
 20
357.3456895296
 30
0
 11
249.3107533478176
 21
356.0456895296
 31
0
  0
LINE
  8
1
 62
2
 10
248.9031062889941
 20
356.0456895296
 30
0
 11
249.3107533478176
 21
356.0456895296
 31
0
  0
LINE
  8
1
 62
2
 10
249.7863415831118
 20
357.1456895296
 30
0
 11
249.5145768772294
 21
356.3456895296
 31
0
  0
LINE
  8
1
 62
2
 10
248.9710474654647
 20
357.1456895296
 30
0
 11
249.1069298184059
 21
356.2456895296
 31
0
  0
LINE
  8
1
 62
2
 10
246.5931062889941
 20
356.8456895296
 30
0
 11
247.0007533478176
 21
356.8456895296
 31
0
  0
LINE
  8
1
 62
2
 10
246.5931062889941
 20
356.8456895296
 30
0
 11
246.5931062889941
 21
354.3456895296
 31
0
  0
LINE
  8
1
 62
2
 10
247.9519298184059
 20
356.8456895296
 30
0
 11
247.9519298184059
 21
354.3456895296
 31
0
  0
LINE
  8
1
 62
2
 10
247.9519298184059
 20
356.8456895296
 30
0
 11
247.0007533478176
 21
355.0456895296
 31
0
  0
LINE
  8
1
 62
2
 10
247.9519298184059
 20
354.3456895296
 30
0
 11
247.3404592301706
 21
354.7456895296
 31
0
  0
LINE
  8
1
 62
2
 10
247.9519298184059
 20
357.3456895296
 30
0
 11
247.9519298184059
 21
356.8456895296
 31
0
  0
LINE
  8
1
 62
2
 10
247.1366357007588
 20
356.8456895296
 30
0
 11
248.2236945242882
 21
356.8456895296
 31
0
  0
LINE
  8
1
 62
2
 10
246.5931062889941
 20
356.8456895296
 30
0
 11
247.0007533478176
 21
355.6456895296
 31
0
  0
LINE
  8
1
 62
2
 10
246.5931062889941
 20
356.8456895296
 30
0
 11
246.1854592301706
 21
355.3456895296
 31
0
  0
LINE
  8
1
 62
2
 10
246.5931062889941
 20
357.3456895296
 30
0
 11
246.5931062889941
 21
356.8456895296
 31
0
  0
LINE
  8
1
 62
2
 10
246.1854592301706
 20
356.8456895296
 30
0
 11
246.5931062889941
 21
356.8456895296
 31
0
  0
LINE
  8
1
 62
2
 10
439.5476769237
 20
729.3065201868
 30
0
 11
439.5476769237
 21
723.3065201868
 31
0
  0
LINE
  8
1
 62
2
 10
438.1616769237
 20
727.5065201868
 30
0
 11
439.5476769237
 21
729.3065201868
 31
0
  0
LINE
  8
1
 62
2
 10
436.6601769237
 20
728.1065201867999
 30
0
 11
436.7756769237
 21
727.5065201868
 31
0
  0
LINE
  8
1
 62
2
 10
436.4291769237
 20
728.5565201868
 30
0
 11
436.6601769237
 21
728.1065201867999
 31
0
  0
LINE
  8
1
 62
2
 10
436.1981769237
 20
728.8565201867999
 30
0
 11
436.4291769237
 21
728.5565201868
 31
0
  0
LINE
  8
1
 62
2
 10
435.8516769237
 20
729.1565201868
 30
0
 11
436.1981769237
 21
728.8565201867999
 31
0
  0
LINE
  8
1
 62
2
 10
435.3896769237
 20
729.3065201868
 30
0
 11
435.8516769237
 21
729.1565201868
 31
0
  0
LINE
  8
1
 62
2
 10
433.5416769237
 20
729.3065201868
 30
0
 11
435.3896769237
 21
729.3065201868
 31
0
  0
LINE
  8
1
 62
2
 10
433.5416769237
 20
723.3065201868
 30
0
 11
433.5416769237
 21
729.3065201868
 31
0
  0
LINE
  8
1
 62
2
 10
435.3896769237
 20
723.3065201868
 30
0
 11
433.5416769237
 21
723.3065201868
 31
0
  0
LINE
  8
1
 62
2
 10
435.8516769237
 20
723.4565201867999
 30
0
 11
435.3896769237
 21
723.3065201868
 31
0
  0
LINE
  8
1
 62
2
 10
436.1981769237
 20
723.7565201868
 30
0
 11
435.8516769237
 21
723.4565201867999
 31
0
  0
LINE
  8
1
 62
2
 10
436.4291769237
 20
724.0565201868
 30
0
 11
436.1981769237
 21
723.7565201868
 31
0
  0
LINE
  8
1
 62
2
 10
436.6601769237
 20
724.5065201868
 30
0
 11
436.4291769237
 21
724.0565201868
 31
0
  0
LINE
  8
1
 62
2
 10
436.7756769237
 20
725.1065201867999
 30
0
 11
436.6601769237
 21
724.5065201868
 31
0
  0
LINE
  8
1
 62
2
 10
436.7756769237
 20
727.5065201868
 30
0
 11
436.7756769237
 21
725.1065201867999
 31
0
  0
LINE
  8
1
 62
2
 10
473.1983423287001
 20
723.3065201868
 30
0
 11
475.9703423287001
 21
723.3065201868
 31
0
  0
LINE
  8
1
 62
2
 10
475.7393423287001
 20
727.2065201867999
 30
0
 11
473.1983423287001
 21
723.3065201868
 31
0
  0
LINE
  8
1
 62
2
 10
475.9703423287001
 20
727.8065201868
 30
0
 11
475.7393423287001
 21
727.2065201867999
 31
0
  0
LINE
  8
1
 62
2
 10
475.9703423287001
 20
728.4065201868
 30
0
 11
475.9703423287001
 21
727.8065201868
 31
0
  0
LINE
  8
1
 62
2
 10
475.7393423287001
 20
728.8565201867999
 30
0
 11
475.9703423287001
 21
728.4065201868
 31
0
  0
LINE
  8
1
 62
2
 10
475.3928423287001
 20
729.1565201868
 30
0
 11
475.7393423287001
 21
728.8565201867999
 31
0
  0
LINE
  8
1
 62
2
 10
474.9308423287001
 20
729.3065201868
 30
0
 11
475.3928423287001
 21
729.1565201868
 31
0
  0
LINE
  8
1
 62
2
 10
474.2378423287001
 20
729.3065201868
 30
0
 11
474.9308423287001
 21
729.3065201868
 31
0
  0
LINE
  8
1
 62
2
 10
473.7758423287001
 20
729.1565201868
 30
0
 11
474.2378423287001
 21
729.3065201868
 31
0
  0
LINE
  8
1
 62
2
 10
473.4293423287001
 20
728.8565201867999
 30
0
 11
473.7758423287001
 21
729.1565201868
 31
0
  0
LINE
  8
1
 62
2
 10
473.1983423287001
 20
728.4065201868
 30
0
 11
473.4293423287001
 21
728.8565201867999
 31
0
  0
LINE
  8
1
 62
2
 10
471.6968423287001
 20
728.1065201867999
 30
0
 11
471.8123423287001
 21
727.5065201868
 31
0
  0
LINE
  8
1
 62
2
 10
471.4658423287001
 20
728.5565201868
 30
0
 11
471.6968423287001
 21
728.1065201867999
 31
0
  0
LINE
  8
1
 62
2
 10
471.2348423287001
 20
728.8565201867999
 30
0
 11
471.4658423287001
 21
728.5565201868
 31
0
  0
LINE
  8
1
 62
2
 10
470.8883423287001
 20
729.1565201868
 30
0
 11
471.2348423287001
 21
728.8565201867999
 31
0
  0
LINE
  8
1
 62
2
 10
470.4263423287001
 20
729.3065201868
 30
0
 11
470.8883423287001
 21
729.1565201868
 31
0
  0
LINE
  8
1
 62
2
 10
468.5783423287001
 20
729.3065201868
 30
0
 11
470.4263423287001
 21
729.3065201868
 31
0
  0
LINE
  8
1
 62
2
 10
468.5783423287001
 20
723.3065201868
 30
0
 11
468.5783423287001
 21
729.3065201868
 31
0
  0
LINE
  8
1
 62
2
 10
470.4263423287001
 20
723.3065201868
 30
0
 11
468.5783423287001
 21
723.3065201868
 31
0
  0
LINE
  8
1
 62
2
 10
470.8883423287001
 20
723.4565201867999
 30
0
 11
470.4263423287001
 21
723.3065201868
 31
0
  0
LINE
  8
1
 62
2
 10
471.2348423287001
 20
723.7565201868
 30
0
 11
470.8883423287001
 21
723.4565201867999
 31
0
  0
LINE
  8
1
 62
2
 10
471.4658423287001
 20
724.0565201868
 30
0
 11
471.2348423287001
 21
723.7565201868
 31
0
  0
LINE
  8
1
 62
2
 10
471.6968423287001
 20
724.5065201868
 30
0
 11
471.4658423287001
 21
724.0565201868
 31
0
  0
LINE
  8
1
 62
2
 10
471.8123423287001
 20
725.1065201867999
 30
0
 11
471.6968423287001
 21
724.5065201868
 31
0
  0
LINE
  8
1
 62
2
 10
471.8123423287001
 20
727.5065201868
 30
0
 11
471.8123423287001
 21
725.1065201867999
 31
0
  0
LINE
  8
1
 62
2
 10
509.9675077337001
 20
723.3065201868
 30
0
 11
508.2350077337001
 21
723.3065201868
 31
0
  0
LINE
  8
1
 62
2
 10
510.3140077337001
 20
723.4565201867999
 30
0
 11
509.9675077337001
 21
723.3065201868
 31
0
  0
LINE
  8
1
 62
2
 10
510.6605077337001
 20
723.7565201868
 30
0
 11
510.3140077337001
 21
723.4565201867999
 31
0
  0
LINE
  8
1
 62
2
 10
510.8915077337001
 20
724.2065201867999
 30
0
 11
510.6605077337001
 21
723.7565201868
 31
0
  0
LINE
  8
1
 62
2
 10
511.0070077337001
 20
724.8065201868
 30
0
 11
510.8915077337001
 21
724.2065201867999
 31
0
  0
LINE
  8
1
 62
2
 10
511.0070077337001
 20
725.5565201868
 30
0
 11
511.0070077337001
 21
724.8065201868
 31
0
  0
LINE
  8
1
 62
2
 10
510.8915077337001
 20
726.1565201868
 30
0
 11
511.0070077337001
 21
725.5565201868
 31
0
  0
LINE
  8
1
 62
2
 10
510.7760077337001
 20
726.4565201867999
 30
0
 11
510.8915077337001
 21
726.1565201868
 31
0
  0
LINE
  8
1
 62
2
 10
510.5450077337001
 20
726.7565201868
 30
0
 11
510.7760077337001
 21
726.4565201867999
 31
0
  0
LINE
  8
1
 62
2
 10
510.0830077337001
 20
726.9065201868
 30
0
 11
510.5450077337001
 21
726.7565201868
 31
0
  0
LINE
  8
1
 62
2
 10
510.4295077337001
 20
727.0565201868
 30
0
 11
510.0830077337001
 21
726.9065201868
 31
0
  0
LINE
  8
1
 62
2
 10
510.6605077337001
 20
727.2065201867999
 30
0
 11
510.4295077337001
 21
727.0565201868
 31
0
  0
LINE
  8
1
 62
2
 10
510.8915077337001
 20
727.5065201868
 30
0
 11
510.6605077337001
 21
727.2065201867999
 31
0
  0
LINE
  8
1
 62
2
 10
511.0070077337001
 20
727.9565201867999
 30
0
 11
510.8915077337001
 21
727.5065201868
 31
0
  0
LINE
  8
1
 62
2
 10
511.0070077337001
 20
728.4065201868
 30
0
 11
511.0070077337001
 21
727.9565201867999
 31
0
  0
LINE
  8
1
 62
2
 10
510.8915077337001
 20
728.8565201867999
 30
0
 11
511.0070077337001
 21
728.4065201868
 31
0
  0
LINE
  8
1
 62
2
 10
510.5450077337001
 20
729.1565201868
 30
0
 11
510.8915077337001
 21
728.8565201867999
 31
0
  0
LINE
  8
1
 62
2
 10
509.9675077337001
 20
729.3065201868
 30
0
 11
510.5450077337001
 21
729.1565201868
 31
0
  0
LINE
  8
1
 62
2
 10
508.2350077337001
 20
729.3065201868
 30
0
 11
509.9675077337001
 21
729.3065201868
 31
0
  0
LINE
  8
1
 62
2
 10
508.9280077337001
 20
726.9065201868
 30
0
 11
510.0830077337001
 21
726.9065201868
 31
0
  0
LINE
  8
1
 62
2
 10
506.7335077337001
 20
728.1065201867999
 30
0
 11
506.8490077337001
 21
727.5065201868
 31
0
  0
LINE
  8
1
 62
2
 10
506.5025077337001
 20
728.5565201868
 30
0
 11
506.7335077337001
 21
728.1065201867999
 31
0
  0
LINE
  8
1
 62
2
 10
506.2715077337001
 20
728.8565201867999
 30
0
 11
506.5025077337001
 21
728.5565201868
 31
0
  0
LINE
  8
1
 62
2
 10
505.9250077337001
 20
729.1565201868
 30
0
 11
506.2715077337001
 21
728.8565201867999
 31
0
  0
LINE
  8
1
 62
2
 10
505.4630077337001
 20
729.3065201868
 30
0
 11
505.9250077337001
 21
729.1565201868
 31
0
  0
LINE
  8
1
 62
2
 10
503.6150077337001
 20
729.3065201868
 30
0
 11
505.4630077337001
 21
729.3065201868
 31
0
  0
LINE
  8
1
 62
2
 10
503.6150077337001
 20
723.3065201868
 30
0
 11
503.6150077337001
 21
729.3065201868
 31
0
  0
LINE
  8
1
 62
2
 10
505.4630077337001
 20
723.3065201868
 30
0
 11
503.6150077337001
 21
723.3065201868
 31
0
  0
LINE
  8
1
 62
2
 10
505.9250077337001
 20
723.4565201867999
 30
0
 11
505.4630077337001
 21
723.3065201868
 31
0
  0
LINE
  8
1
 62
2
 10
506.2715077337001
 20
723.7565201868
 30
0
 11
505.9250077337001
 21
723.4565201867999
 31
0
  0
LINE
  8
1
 62
2
 10
506.5025077337001
 20
724.0565201868
 30
0
 11
506.2715077337001
 21
723.7565201868
 31
0
  0
LINE
  8
1
 62
2
 10
506.7335077337001
 20
724.5065201868
 30
0
 11
506.5025077337001
 21
724.0565201868
 31
0
  0
LINE
  8
1
 62
2
 10
506.8490077337001
 20
725.1065201867999
 30
0
 11
506.7335077337001
 21
724.5065201868
 31
0
  0
LINE
  8
1
 62
2
 10
506.8490077337001
 20
727.5065201868
 30
0
 11
506.8490077337001
 21
725.1065201867999
 31
0
  0
LINE
  8
1
 62
2
 10
564.1750059402998
 20
733.5065203768
 30
0
 11
566.2132412344175
 21
733.5065203768
 31
0
  0
LINE
  8
1
 62
2
 10
565.3979471167704
 20
729.9065203768
 30
0
 11
566.2132412344175
 21
728.3065203768
 31
0
  0
LINE
  8
1
 62
2
 10
564.9903000579469
 20
732.1065203768
 30
0
 11
565.3979471167704
 21
729.9065203768
 31
0
  0
LINE
  8
1
 62
2
 10
563.2238294697116
 20
732.1065203768
 30
0
 11
564.9903000579469
 21
732.1065203768
 31
0
  0
LINE
  8
1
 62
2
 10
563.2238294697116
 20
731.3065203768
 30
0
 11
562.1367706461822
 21
728.3065203768
 31
0
  0
LINE
  8
1
 62
2
 10
566.2132412344175
 20
733.5065203768
 30
0
 11
565.9414765285352
 21
732.1065203768
 31
0
  0
LINE
  8
1
 62
2
 10
562.1367706461822
 20
733.5065203768
 30
0
 11
564.1750059402998
 21
733.5065203768
 31
0
  0
LINE
  8
1
 62
2
 10
562.1367706461822
 20
732.1065203768
 30
0
 11
562.1367706461822
 21
733.5065203768
 31
0
  0
LINE
  8
1
 62
2
 10
564.1750059402998
 20
734.3065203768
 30
0
 11
564.1750059402998
 21
733.5065203768
 31
0
  0
LINE
  8
1
 62
2
 10
558.1961824108881
 20
731.9065203768
 30
0
 11
558.1961824108881
 21
728.9065203768
 31
0
  0
LINE
  8
1
 62
2
 10
558.1961824108881
 20
731.9065203768
 30
0
 11
560.0985353520646
 21
730.7065203768
 31
0
  0
LINE
  8
1
 62
2
 10
558.1961824108881
 20
733.9065203768
 30
0
 11
558.1961824108881
 21
731.9065203768
 31
0
  0
LINE
  8
1
 62
2
 10
554.9350059402998
 20
730.5065203768
 30
0
 11
555.2067706461822
 21
731.3065203768
 31
0
  0
LINE
  8
1
 62
2
 10
554.5273588814763
 20
729.7065203768
 30
0
 11
554.9350059402998
 21
730.5065203768
 31
0
  0
LINE
  8
1
 62
2
 10
553.7120647638293
 20
729.3065203768
 30
0
 11
554.5273588814763
 21
729.7065203768
 31
0
  0
LINE
  8
1
 62
2
 10
553.7120647638293
 20
733.3065203768
 30
0
 11
553.7120647638293
 21
729.3065203768
 31
0
  0
LINE
  8
1
 62
2
 10
552.2173588814763
 20
730.1065203768
 30
0
 11
551.5379471167704
 21
729.1065203768
 31
0
  0
LINE
  8
1
 62
2
 10
552.4891235873587
 20
731.1065203768
 30
0
 11
552.2173588814763
 21
730.1065203768
 31
0
  0
LINE
  8
1
 62
2
 10
552.4891235873587
 20
733.1065203768
 30
0
 11
552.4891235873587
 21
731.1065203768
 31
0
  0
LINE
  8
1
 62
2
 10
549.6355941755941
 20
734.3065203768
 30
0
 11
549.9073588814764
 21
733.5065203768
 31
0
  0
LINE
  8
1
 62
2
 10
549.0920647638293
 20
734.3065203768
 30
0
 11
549.3638294697116
 21
733.5065203768
 31
0
  0
LINE
  8
1
 62
2
 10
548.9561824108881
 20
731.1065203768
 30
0
 11
549.6355941755941
 21
729.3065203768
 31
0
  0
LINE
  8
1
 62
2
 10
546.9179471167705
 20
731.1065203768
 30
0
 11
546.2385353520646
 21
729.3065203768
 31
0
  0
LINE
  8
1
 62
2
 10
548.0050059402998
 20
733.9065203768
 30
0
 11
548.0050059402998
 21
728.7065203768
 31
0
  0
LINE
  8
1
 62
2
 10
546.3744177050057
 20
732.5065203768
 30
0
 11
549.6355941755941
 21
732.5065203768
 31
0
  0
LINE
  8
1
 62
2
 10
545.5484675387471
 20
719.5065199968
 30
0
 11
545.0864675387471
 21
718.3065199967999
 31
0
  0
LINE
  8
1
 62
2
 10
545.7794675387471
 20
720.7065199967999
 30
0
 11
545.5484675387471
 21
719.5065199968
 31
0
  0
LINE
  8
1
 62
2
 10
545.7794675387471
 20
721.9065199967999
 30
0
 11
545.7794675387471
 21
720.7065199967999
 31
0
  0
LINE
  8
1
 62
2
 10
545.5484675387471
 20
723.1065199967999
 30
0
 11
545.7794675387471
 21
721.9065199967999
 31
0
  0
LINE
  8
1
 62
2
 10
545.0864675387471
 20
724.3065199967999
 30
0
 11
545.5484675387471
 21
723.1065199967999
 31
0
  0
LINE
  8
1
 62
2
 10
540.8741145975706
 20
723.1065199967999
 30
0
 11
541.9611734210999
 21
723.1065199967999
 31
0
  0
LINE
  8
1
 62
2
 10
540.8741145975706
 20
723.1065199967999
 30
0
 11
540.8741145975706
 21
721.5065199968
 31
0
  0
LINE
  8
1
 62
2
 10
541.6894087152176
 20
720.7065199967999
 30
0
 11
542.0970557740412
 21
720.7065199967999
 31
0
  0
LINE
  8
1
 62
2
 10
543.4558793034529
 20
723.3065199967999
 30
0
 11
543.8635263622765
 21
723.3065199967999
 31
0
  0
LINE
  8
1
 62
2
 10
543.1841145975706
 20
719.7065199967999
 30
0
 11
543.8635263622765
 21
718.5065199968
 31
0
  0
LINE
  8
1
 62
2
 10
542.6405851858059
 20
721.1065199967999
 30
0
 11
543.1841145975706
 21
719.7065199967999
 31
0
  0
LINE
  8
1
 62
2
 10
542.3688204799236
 20
722.7065199967999
 30
0
 11
542.6405851858059
 21
721.1065199967999
 31
0
  0
LINE
  8
1
 62
2
 10
542.5047028328647
 20
719.7065199967999
 30
0
 11
541.6894087152176
 21
718.3065199967999
 31
0
  0
LINE
  8
1
 62
2
 10
543.1841145975706
 20
721.3065199967999
 30
0
 11
542.5047028328647
 21
719.7065199967999
 31
0
  0
LINE
  8
1
 62
2
 10
543.4558793034529
 20
723.3065199967999
 30
0
 11
543.1841145975706
 21
721.3065199967999
 31
0
  0
LINE
  8
1
 62
2
 10
542.5047028328647
 20
723.3065199967999
 30
0
 11
543.4558793034529
 21
723.3065199967999
 31
0
  0
LINE
  8
1
 62
2
 10
542.3688204799236
 20
722.7065199967999
 30
0
 11
541.9611734210999
 21
721.5065199968
 31
0
  0
LINE
  8
1
 62
2
 10
542.5047028328647
 20
723.3065199967999
 30
0
 11
542.3688204799236
 21
722.7065199967999
 31
0
  0
LINE
  8
1
 62
2
 10
542.5047028328647
 20
724.3065199967999
 30
0
 11
542.5047028328647
 21
723.3065199967999
 31
0
  0
LINE
  8
1
 62
2
 10
539.7870557740412
 20
720.7065199967999
 30
0
 11
541.6894087152176
 21
720.7065199967999
 31
0
  0
LINE
  8
1
 62
2
 10
541.0099969505118
 20
719.3065199967999
 30
0
 11
539.9229381269823
 21
718.3065199967999
 31
0
  0
LINE
  8
1
 62
2
 10
541.6894087152176
 20
720.7065199967999
 30
0
 11
541.0099969505118
 21
719.3065199967999
 31
0
  0
LINE
  8
1
 62
2
 10
540.0588204799235
 20
719.7065199967999
 30
0
 11
541.6894087152176
 21
718.9065199967999
 31
0
  0
LINE
  8
1
 62
2
 10
540.7382322446294
 20
721.1065199967999
 30
0
 11
540.0588204799235
 21
719.7065199967999
 31
0
  0
LINE
  8
1
 62
2
 10
540.8741145975706
 20
723.1065199967999
 30
0
 11
541.8252910681588
 21
721.7065199967999
 31
0
  0
LINE
  8
1
 62
2
 10
540.8741145975706
 20
723.1065199967999
 30
0
 11
539.7870557740412
 21
721.3065199967999
 31
0
  0
LINE
  8
1
 62
2
 10
540.8741145975706
 20
724.3065199967999
 30
0
 11
540.8741145975706
 21
723.1065199967999
 31
0
  0
LINE
  8
1
 62
2
 10
539.7870557740412
 20
723.1065199967999
 30
0
 11
540.8741145975706
 21
723.1065199967999
 31
0
  0
LINE
  8
1
 62
2
 10
541.8252910681588
 20
723.9065199967999
 30
0
 11
541.2817616563941
 21
723.3065199967999
 31
0
  0
LINE
  8
1
 62
2
 10
540.0588204799235
 20
723.9065199967999
 30
0
 11
540.4664675387471
 21
723.3065199967999
 31
0
  0
LINE
  8
1
 62
2
 10
537.8031734211
 20
719.5065199968
 30
0
 11
538.2651734211
 21
718.3065199967999
 31
0
  0
LINE
  8
1
 62
2
 10
537.5721734211001
 20
720.7065199967999
 30
0
 11
537.8031734211
 21
719.5065199968
 31
0
  0
LINE
  8
1
 62
2
 10
537.5721734211001
 20
721.9065199967999
 30
0
 11
537.5721734211001
 21
720.7065199967999
 31
0
  0
LINE
  8
1
 62
2
 10
537.8031734211
 20
723.1065199967999
 30
0
 11
537.5721734211001
 21
721.9065199967999
 31
0
  0
LINE
  8
1
 62
2
 10
538.2651734211
 20
724.3065199967999
 30
0
 11
537.8031734211
 21
723.1065199967999
 31
0
  0
LINE
  8
1
 62
2
 10
536.1861734211001
 20
721.7565199968
 30
0
 11
536.1861734211001
 21
718.3065199967999
 31
0
  0
LINE
  8
1
 62
2
 10
536.0706734211001
 20
722.0565199967999
 30
0
 11
536.1861734211001
 21
721.7565199968
 31
0
  0
LINE
  8
1
 62
2
 10
535.8396734211001
 20
722.3565199967999
 30
0
 11
536.0706734211001
 21
722.0565199967999
 31
0
  0
LINE
  8
1
 62
2
 10
535.4931734211
 20
722.5065199968
 30
0
 11
535.8396734211001
 21
722.3565199967999
 31
0
  0
LINE
  8
1
 62
2
 10
533.4141734211
 20
722.5065199968
 30
0
 11
535.4931734211
 21
722.5065199968
 31
0
  0
LINE
  8
1
 62
2
 10
533.4141734211
 20
718.3065199967999
 30
0
 11
533.4141734211
 21
722.5065199968
 31
0
  0
LINE
  8
1
 62
2
 10
584.4723879118411
 20
719.5065199968
 30
0
 11
584.0103879118411
 21
718.3065199967999
 31
0
  0
LINE
  8
1
 62
2
 10
584.7033879118411
 20
720.7065199967999
 30
0
 11
584.4723879118411
 21
719.5065199968
 31
0
  0
LINE
  8
1
 62
2
 10
584.7033879118411
 20
721.9065199967999
 30
0
 11
584.7033879118411
 21
720.7065199967999
 31
0
  0
LINE
  8
1
 62
2
 10
584.4723879118411
 20
723.1065199967999
 30
0
 11
584.7033879118411
 21
721.9065199967999
 31
0
  0
LINE
  8
1
 62
2
 10
584.0103879118411
 20
724.3065199967999
 30
0
 11
584.4723879118411
 21
723.1065199967999
 31
0
  0
LINE
  8
1
 62
2
 10
579.2545055588998
 20
721.3065199967999
 30
0
 11
578.9827408530175
 21
720.1065199967999
 31
0
  0
LINE
  8
1
 62
2
 10
581.2927408530176
 20
718.3065199967999
 30
0
 11
582.7874467353705
 21
718.3065199967999
 31
0
  0
LINE
  8
1
 62
2
 10
579.7980349706646
 20
718.3065199967999
 30
0
 11
581.2927408530176
 21
718.3065199967999
 31
0
  0
LINE
  8
1
 62
2
 10
581.2927408530176
 20
721.1065199967999
 30
0
 11
581.2927408530176
 21
718.3065199967999
 31
0
  0
LINE
  8
1
 62
2
 10
579.9339173236058
 20
720.1065199967999
 30
0
 11
582.6515643824293
 21
720.1065199967999
 31
0
  0
LINE
  8
1
 62
2
 10
581.8362702647822
 20
721.7065199967999
 30
0
 11
582.7874467353705
 21
721.3065199967999
 31
0
  0
LINE
  8
1
 62
2
 10
580.885093794194
 20
722.5065199968
 30
0
 11
581.8362702647822
 21
721.7065199967999
 31
0
  0
LINE
  8
1
 62
2
 10
580.2056820294881
 20
723.7065199967999
 30
0
 11
580.885093794194
 21
722.5065199968
 31
0
  0
LINE
  8
1
 62
2
 10
581.0209761471352
 20
721.9065199967999
 30
0
 11
579.7980349706646
 21
721.3065199967999
 31
0
  0
LINE
  8
1
 62
2
 10
581.9721526177234
 20
722.9065199967999
 30
0
 11
581.0209761471352
 21
721.9065199967999
 31
0
  0
LINE
  8
1
 62
2
 10
582.5156820294882
 20
724.1065199967999
 30
0
 11
581.9721526177234
 21
722.9065199967999
 31
0
  0
LINE
  8
1
 62
2
 10
580.069799676547
 20
724.1065199967999
 30
0
 11
582.5156820294882
 21
724.1065199967999
 31
0
  0
LINE
  8
1
 62
2
 10
579.2545055588998
 20
721.3065199967999
 30
0
 11
579.2545055588998
 21
718.3065199967999
 31
0
  0
LINE
  8
1
 62
2
 10
579.5262702647823
 20
722.5065199968
 30
0
 11
579.2545055588998
 21
721.3065199967999
 31
0
  0
LINE
  8
1
 62
2
 10
579.5262702647823
 20
724.1065199967999
 30
0
 11
578.9827408530175
 21
722.5065199968
 31
0
  0
LINE
  8
1
 62
2
 10
575.3139173236058
 20
723.5065199968
 30
0
 11
577.3521526177235
 21
723.5065199968
 31
0
  0
LINE
  8
1
 62
2
 10
576.5368585000764
 20
719.9065199967999
 30
0
 11
577.3521526177235
 21
718.3065199967999
 31
0
  0
LINE
  8
1
 62
2
 10
576.1292114412529
 20
722.1065199967999
 30
0
 11
576.5368585000764
 21
719.9065199967999
 31
0
  0
LINE
  8
1
 62
2
 10
574.3627408530176
 20
722.1065199967999
 30
0
 11
576.1292114412529
 21
722.1065199967999
 31
0
  0
LINE
  8
1
 62
2
 10
574.3627408530176
 20
721.3065199967999
 30
0
 11
573.2756820294882
 21
718.3065199967999
 31
0
  0
LINE
  8
1
 62
2
 10
577.3521526177235
 20
723.5065199968
 30
0
 11
577.0803879118412
 21
722.1065199967999
 31
0
  0
LINE
  8
1
 62
2
 10
573.2756820294882
 20
723.5065199968
 30
0
 11
575.3139173236058
 21
723.5065199968
 31
0
  0
LINE
  8
1
 62
2
 10
573.2756820294882
 20
722.1065199967999
 30
0
 11
573.2756820294882
 21
723.5065199968
 31
0
  0
LINE
  8
1
 62
2
 10
575.3139173236058
 20
724.3065199967999
 30
0
 11
575.3139173236058
 21
723.5065199968
 31
0
  0
LINE
  8
1
 62
2
 10
571.2917996765469
 20
719.5065199968
 30
0
 11
571.7537996765469
 21
718.3065199967999
 31
0
  0
LINE
  8
1
 62
2
 10
571.0607996765469
 20
720.7065199967999
 30
0
 11
571.2917996765469
 21
719.5065199968
 31
0
  0
LINE
  8
1
 62
2
 10
571.0607996765469
 20
721.9065199967999
 30
0
 11
571.0607996765469
 21
720.7065199967999
 31
0
  0
LINE
  8
1
 62
2
 10
571.2917996765469
 20
723.1065199967999
 30
0
 11
571.0607996765469
 21
721.9065199967999
 31
0
  0
LINE
  8
1
 62
2
 10
571.7537996765469
 20
724.3065199967999
 30
0
 11
571.2917996765469
 21
723.1065199967999
 31
0
  0
LINE
  8
1
 62
2
 10
569.674799676547
 20
722.5065199968
 30
0
 11
569.674799676547
 21
724.3065199967999
 31
0
  0
LINE
  8
1
 62
2
 10
569.674799676547
 20
718.3065199967999
 30
0
 11
569.674799676547
 21
722.5065199968
 31
0
  0
LINE
  8
1
 62
2
 10
567.9422996765469
 20
718.3065199967999
 30
0
 11
569.674799676547
 21
718.3065199967999
 31
0
  0
LINE
  8
1
 62
2
 10
567.4802996765469
 20
718.4565199967999
 30
0
 11
567.9422996765469
 21
718.3065199967999
 31
0
  0
LINE
  8
1
 62
2
 10
567.2492996765469
 20
718.6065199967999
 30
0
 11
567.4802996765469
 21
718.4565199967999
 31
0
  0
LINE
  8
1
 62
2
 10
567.0182996765469
 20
718.9065199967999
 30
0
 11
567.2492996765469
 21
718.6065199967999
 31
0
  0
LINE
  8
1
 62
2
 10
566.9027996765469
 20
719.5065199968
 30
0
 11
567.0182996765469
 21
718.9065199967999
 31
0
  0
LINE
  8
1
 62
2
 10
566.9027996765469
 20
721.3065199967999
 30
0
 11
566.9027996765469
 21
719.5065199968
 31
0
  0
LINE
  8
1
 62
2
 10
567.0182996765469
 20
721.9065199967999
 30
0
 11
566.9027996765469
 21
721.3065199967999
 31
0
  0
LINE
  8
1
 62
2
 10
567.2492996765469
 20
722.2065199967999
 30
0
 11
567.0182996765469
 21
721.9065199967999
 31
0
  0
LINE
  8
1
 62
2
 10
567.4802996765469
 20
722.3565199967999
 30
0
 11
567.2492996765469
 21
722.2065199967999
 31
0
  0
LINE
  8
1
 62
2
 10
567.9422996765469
 20
722.5065199968
 30
0
 11
567.4802996765469
 21
722.3565199967999
 31
0
  0
LINE
  8
1
 62
2
 10
569.674799676547
 20
722.5065199968
 30
0
 11
567.9422996765469
 21
722.5065199968
 31
0
  0
LINE
  8
1
 62
2
 10
564.3210349706646
 20
723.5065199968
 30
0
 11
562.9622114412529
 21
716.7065199967999
 31
0
  0
LINE
  8
1
 62
2
 10
564.592799676547
 20
721.9065199967999
 30
0
 11
564.0492702647823
 21
722.1065199967999
 31
0
  0
LINE
  8
1
 62
2
 10
564.8645643824293
 20
721.5065199968
 30
0
 11
564.592799676547
 21
721.9065199967999
 31
0
  0
LINE
  8
1
 62
2
 10
565.0004467353705
 20
720.9065199967999
 30
0
 11
564.8645643824293
 21
721.5065199968
 31
0
  0
LINE
  8
1
 62
2
 10
565.0004467353705
 20
719.9065199967999
 30
0
 11
565.0004467353705
 21
720.9065199967999
 31
0
  0
LINE
  8
1
 62
2
 10
564.8645643824293
 20
719.5065199968
 30
0
 11
565.0004467353705
 21
719.9065199967999
 31
0
  0
LINE
  8
1
 62
2
 10
564.7286820294881
 20
719.1065199967999
 30
0
 11
564.8645643824293
 21
719.5065199968
 31
0
  0
LINE
  8
1
 62
2
 10
564.4569173236058
 20
718.7065199967999
 30
0
 11
564.7286820294881
 21
719.1065199967999
 31
0
  0
LINE
  8
1
 62
2
 10
563.9133879118411
 20
718.3065199967999
 30
0
 11
564.4569173236058
 21
718.7065199967999
 31
0
  0
LINE
  8
1
 62
2
 10
563.3698585000764
 20
718.1065199967999
 30
0
 11
563.9133879118411
 21
718.3065199967999
 31
0
  0
LINE
  8
1
 62
2
 10
562.9622114412529
 20
718.3065199967999
 30
0
 11
563.3698585000764
 21
718.1065199967999
 31
0
  0
LINE
  8
1
 62
2
 10
562.5545643824294
 20
718.7065199967999
 30
0
 11
562.9622114412529
 21
718.3065199967999
 31
0
  0
LINE
  8
1
 62
2
 10
562.4186820294882
 20
719.3065199967999
 30
0
 11
562.5545643824294
 21
718.7065199967999
 31
0
  0
LINE
  8
1
 62
2
 10
562.4186820294882
 20
720.1065199967999
 30
0
 11
562.4186820294882
 21
719.3065199967999
 31
0
  0
LINE
  8
1
 62
2
 10
562.5545643824294
 20
720.7065199967999
 30
0
 11
562.4186820294882
 21
720.1065199967999
 31
0
  0
LINE
  8
1
 62
2
 10
562.9622114412529
 20
721.3065199967999
 30
0
 11
562.5545643824294
 21
720.7065199967999
 31
0
  0
LINE
  8
1
 62
2
 10
563.3698585000764
 20
721.7065199967999
 30
0
 11
562.9622114412529
 21
721.3065199967999
 31
0
  0
LINE
  8
1
 62
2
 10
564.0492702647823
 20
722.1065199967999
 30
0
 11
563.3698585000764
 21
721.7065199967999
 31
0
  0
LINE
  8
1
 62
2
 10
402.6227566496059
 20
713.7065196168001
 30
0
 11
402.6227566496059
 21
708.1065196168
 31
0
  0
LINE
  8
1
 62
2
 10
403.8456978260765
 20
709.9065196168001
 30
0
 11
404.7968742966647
 21
708.5065196168001
 31
0
  0
LINE
  8
1
 62
2
 10
403.1662860613706
 20
711.5065196168001
 30
0
 11
403.8456978260765
 21
709.9065196168001
 31
0
  0
LINE
  8
1
 62
2
 10
402.6227566496059
 20
713.7065196168001
 30
0
 11
403.1662860613706
 21
711.5065196168001
 31
0
  0
LINE
  8
1
 62
2
 10
404.5251095907823
 20
713.7065196168001
 30
0
 11
403.438050767253
 21
711.7065196168001
 31
0
  0
LINE
  8
1
 62
2
 10
401.3998154731353
 20
710.1065196168
 30
0
 11
400.5845213554882
 21
708.7065196168001
 31
0
  0
LINE
  8
1
 62
2
 10
401.8074625319588
 20
711.5065196168001
 30
0
 11
401.3998154731353
 21
710.1065196168
 31
0
  0
LINE
  8
1
 62
2
 10
401.9433448849
 20
713.1065196168
 30
0
 11
401.8074625319588
 21
711.5065196168001
 31
0
  0
LINE
  8
1
 62
2
 10
400.5845213554882
 20
713.1065196168
 30
0
 11
401.9433448849
 21
713.1065196168
 31
0
  0
LINE
  8
1
 62
2
 10
402.6227566496059
 20
708.1065196168
 30
0
 11
401.6715801790177
 21
708.9065196168001
 31
0
  0
LINE
  8
1
 62
2
 10
402.6227566496059
 20
714.3065196168001
 30
0
 11
402.6227566496059
 21
713.7065196168001
 31
0
  0
LINE
  8
1
 62
2
 10
396.7798154731353
 20
712.3065196168001
 30
0
 11
396.7798154731353
 21
708.3065196168001
 31
0
  0
LINE
  8
1
 62
2
 10
396.7798154731353
 20
708.3065196168001
 30
0
 11
399.2256978260764
 21
708.3065196168001
 31
0
  0
LINE
  8
1
 62
2
 10
395.1492272378412
 20
708.3065196168001
 30
0
 11
396.7798154731353
 21
708.3065196168001
 31
0
  0
LINE
  8
1
 62
2
 10
396.7798154731353
 20
714.1065196168
 30
0
 11
396.7798154731353
 21
712.3065196168001
 31
0
  0
LINE
  8
1
 62
2
 10
396.7798154731353
 20
712.3065196168001
 30
0
 11
398.9539331201941
 21
712.3065196168001
 31
0
  0
LINE
  8
1
 62
2
 10
439.5343433739
 20
712.9565196168001
 30
0
 11
440.8048433739
 21
714.3065196168001
 31
0
  0
LINE
  8
1
 62
2
 10
439.0723433739
 20
712.2065196168001
 30
0
 11
439.5343433739
 21
712.9565196168001
 31
0
  0
LINE
  8
1
 62
2
 10
438.8413433739
 20
711.6065196168
 30
0
 11
439.0723433739
 21
712.2065196168001
 31
0
  0
LINE
  8
1
 62
2
 10
438.7258433739
 20
710.4065196168001
 30
0
 11
438.8413433739
 21
711.6065196168
 31
0
  0
LINE
  8
1
 62
2
 10
438.7258433739
 20
709.8065196168001
 30
0
 11
438.7258433739
 21
710.4065196168001
 31
0
  0
LINE
  8
1
 62
2
 10
438.8413433739
 20
709.2065196168001
 30
0
 11
438.7258433739
 21
709.8065196168001
 31
0
  0
LINE
  8
1
 62
2
 10
439.0723433739
 20
708.7565196168001
 30
0
 11
438.8413433739
 21
709.2065196168001
 31
0
  0
LINE
  8
1
 62
2
 10
439.4188433739
 20
708.4565196168001
 30
0
 11
439.0723433739
 21
708.7565196168001
 31
0
  0
LINE
  8
1
 62
2
 10
439.7653433739
 20
708.3065196168001
 30
0
 11
439.4188433739
 21
708.4565196168001
 31
0
  0
LINE
  8
1
 62
2
 10
440.4583433739001
 20
708.3065196168001
 30
0
 11
439.7653433739
 21
708.3065196168001
 31
0
  0
LINE
  8
1
 62
2
 10
440.8048433739
 20
708.4565196168001
 30
0
 11
440.4583433739001
 21
708.3065196168001
 31
0
  0
LINE
  8
1
 62
2
 10
441.1513433739
 20
708.7565196168001
 30
0
 11
440.8048433739
 21
708.4565196168001
 31
0
  0
LINE
  8
1
 62
2
 10
441.3823433739
 20
709.2065196168001
 30
0
 11
441.1513433739
 21
708.7565196168001
 31
0
  0
LINE
  8
1
 62
2
 10
441.4978433739
 20
709.8065196168001
 30
0
 11
441.3823433739
 21
709.2065196168001
 31
0
  0
LINE
  8
1
 62
2
 10
441.4978433739
 20
710.4065196168001
 30
0
 11
441.4978433739
 21
709.8065196168001
 31
0
  0
LINE
  8
1
 62
2
 10
441.3823433739
 20
711.0065196168001
 30
0
 11
441.4978433739
 21
710.4065196168001
 31
0
  0
LINE
  8
1
 62
2
 10
441.1513433739
 20
711.4565196168001
 30
0
 11
441.3823433739
 21
711.0065196168001
 31
0
  0
LINE
  8
1
 62
2
 10
440.8048433739
 20
711.7565196168001
 30
0
 11
441.1513433739
 21
711.4565196168001
 31
0
  0
LINE
  8
1
 62
2
 10
440.4583433739001
 20
711.9065196168001
 30
0
 11
440.8048433739
 21
711.7565196168001
 31
0
  0
LINE
  8
1
 62
2
 10
439.7653433739
 20
711.9065196168001
 30
0
 11
440.4583433739001
 21
711.9065196168001
 31
0
  0
LINE
  8
1
 62
2
 10
439.4188433739
 20
711.7565196168001
 30
0
 11
439.7653433739
 21
711.9065196168001
 31
0
  0
LINE
  8
1
 62
2
 10
439.0723433739
 20
711.4565196168001
 30
0
 11
439.4188433739
 21
711.7565196168001
 31
0
  0
LINE
  8
1
 62
2
 10
438.8413433739
 20
711.0065196168001
 30
0
 11
439.0723433739
 21
711.4565196168001
 31
0
  0
LINE
  8
1
 62
2
 10
438.7258433739
 20
710.4065196168001
 30
0
 11
438.8413433739
 21
711.0065196168001
 31
0
  0
LINE
  8
1
 62
2
 10
435.0298433739
 20
713.8565196168
 30
0
 11
435.3763433739
 21
714.1565196168001
 31
0
  0
LINE
  8
1
 62
2
 10
434.7988433739
 20
713.4065196168001
 30
0
 11
435.0298433739
 21
713.8565196168
 31
0
  0
LINE
  8
1
 62
2
 10
434.7988433739
 20
712.8065196168001
 30
0
 11
434.7988433739
 21
713.4065196168001
 31
0
  0
LINE
  8
1
 62
2
 10
435.0298433739
 20
712.3565196168
 30
0
 11
434.7988433739
 21
712.8065196168001
 31
0
  0
LINE
  8
1
 62
2
 10
435.3763433739
 20
712.0565196168001
 30
0
 11
435.0298433739
 21
712.3565196168
 31
0
  0
LINE
  8
1
 62
2
 10
435.7228433739
 20
711.9065196168001
 30
0
 11
435.3763433739
 21
712.0565196168001
 31
0
  0
LINE
  8
1
 62
2
 10
436.1848433739
 20
711.9065196168001
 30
0
 11
435.7228433739
 21
711.9065196168001
 31
0
  0
LINE
  8
1
 62
2
 10
436.5313433739
 20
712.0565196168001
 30
0
 11
436.1848433739
 21
711.9065196168001
 31
0
  0
LINE
  8
1
 62
2
 10
436.8778433739
 20
712.3565196168
 30
0
 11
436.5313433739
 21
712.0565196168001
 31
0
  0
LINE
  8
1
 62
2
 10
437.1088433739
 20
712.8065196168001
 30
0
 11
436.8778433739
 21
712.3565196168
 31
0
  0
LINE
  8
1
 62
2
 10
437.1088433739
 20
713.4065196168001
 30
0
 11
437.1088433739
 21
712.8065196168001
 31
0
  0
LINE
  8
1
 62
2
 10
436.8778433739
 20
713.8565196168
 30
0
 11
437.1088433739
 21
713.4065196168001
 31
0
  0
LINE
  8
1
 62
2
 10
436.5313433739
 20
714.1565196168001
 30
0
 11
436.8778433739
 21
713.8565196168
 31
0
  0
LINE
  8
1
 62
2
 10
436.1848433739
 20
714.3065196168001
 30
0
 11
436.5313433739
 21
714.1565196168001
 31
0
  0
LINE
  8
1
 62
2
 10
435.7228433739
 20
714.3065196168001
 30
0
 11
436.1848433739
 21
714.3065196168001
 31
0
  0
LINE
  8
1
 62
2
 10
435.3763433739
 20
714.1565196168001
 30
0
 11
435.7228433739
 21
714.3065196168001
 31
0
  0
LINE
  8
1
 62
2
 10
436.7623433739
 20
711.6065196168
 30
0
 11
436.1848433739
 21
711.9065196168001
 31
0
  0
LINE
  8
1
 62
2
 10
437.1088433739
 20
711.1565196168001
 30
0
 11
436.7623433739
 21
711.6065196168
 31
0
  0
LINE
  8
1
 62
2
 10
437.3398433739
 20
710.5565196168001
 30
0
 11
437.1088433739
 21
711.1565196168001
 31
0
  0
LINE
  8
1
 62
2
 10
437.3398433739
 20
709.6565196168001
 30
0
 11
437.3398433739
 21
710.5565196168001
 31
0
  0
LINE
  8
1
 62
2
 10
437.1088433739
 20
709.0565196168001
 30
0
 11
437.3398433739
 21
709.6565196168001
 31
0
  0
LINE
  8
1
 62
2
 10
436.7623433739
 20
708.6065196168
 30
0
 11
437.1088433739
 21
709.0565196168001
 31
0
  0
LINE
  8
1
 62
2
 10
436.3003433739
 20
708.3065196168001
 30
0
 11
436.7623433739
 21
708.6065196168
 31
0
  0
LINE
  8
1
 62
2
 10
435.6073433739
 20
708.3065196168001
 30
0
 11
436.3003433739
 21
708.3065196168001
 31
0
  0
LINE
  8
1
 62
2
 10
435.1453433739
 20
708.6065196168
 30
0
 11
435.6073433739
 21
708.3065196168001
 31
0
  0
LINE
  8
1
 62
2
 10
434.7988433739
 20
709.0565196168001
 30
0
 11
435.1453433739
 21
708.6065196168
 31
0
  0
LINE
  8
1
 62
2
 10
434.5678433739
 20
709.6565196168001
 30
0
 11
434.7988433739
 21
709.0565196168001
 31
0
  0
LINE
  8
1
 62
2
 10
434.5678433739
 20
710.5565196168001
 30
0
 11
434.5678433739
 21
709.6565196168001
 31
0
  0
LINE
  8
1
 62
2
 10
434.7988433739
 20
711.1565196168001
 30
0
 11
434.5678433739
 21
710.5565196168001
 31
0
  0
LINE
  8
1
 62
2
 10
435.1453433739
 20
711.6065196168
 30
0
 11
434.7988433739
 21
711.1565196168001
 31
0
  0
LINE
  8
1
 62
2
 10
435.7228433739
 20
711.9065196168001
 30
0
 11
435.1453433739
 21
711.6065196168
 31
0
  0
LINE
  8
1
 62
2
 10
433.1818433739001
 20
714.3065196168001
 30
0
 11
433.1818433739001
 21
708.3065196168001
 31
0
  0
LINE
  8
1
 62
2
 10
431.7958433739
 20
712.5065196168001
 30
0
 11
433.1818433739001
 21
714.3065196168001
 31
0
  0
LINE
  8
1
 62
2
 10
475.4950087791002
 20
708.3065196168001
 30
0
 11
473.7625087791001
 21
708.3065196168001
 31
0
  0
LINE
  8
1
 62
2
 10
475.8415087791001
 20
708.4565196168001
 30
0
 11
475.4950087791002
 21
708.3065196168001
 31
0
  0
LINE
  8
1
 62
2
 10
476.1880087791001
 20
708.7565196168001
 30
0
 11
475.8415087791001
 21
708.4565196168001
 31
0
  0
LINE
  8
1
 62
2
 10
476.4190087791001
 20
709.2065196168001
 30
0
 11
476.1880087791001
 21
708.7565196168001
 31
0
  0
LINE
  8
1
 62
2
 10
476.5345087791001
 20
709.8065196168001
 30
0
 11
476.4190087791001
 21
709.2065196168001
 31
0
  0
LINE
  8
1
 62
2
 10
476.5345087791001
 20
710.5565196168001
 30
0
 11
476.5345087791001
 21
709.8065196168001
 31
0
  0
LINE
  8
1
 62
2
 10
476.4190087791001
 20
711.1565196168001
 30
0
 11
476.5345087791001
 21
710.5565196168001
 31
0
  0
LINE
  8
1
 62
2
 10
476.3035087791001
 20
711.4565196168001
 30
0
 11
476.4190087791001
 21
711.1565196168001
 31
0
  0
LINE
  8
1
 62
2
 10
476.0725087791001
 20
711.7565196168001
 30
0
 11
476.3035087791001
 21
711.4565196168001
 31
0
  0
LINE
  8
1
 62
2
 10
475.6105087791001
 20
711.9065196168001
 30
0
 11
476.0725087791001
 21
711.7565196168001
 31
0
  0
LINE
  8
1
 62
2
 10
475.9570087791001
 20
712.0565196168001
 30
0
 11
475.6105087791001
 21
711.9065196168001
 31
0
  0
LINE
  8
1
 62
2
 10
476.1880087791001
 20
712.2065196168001
 30
0
 11
475.9570087791001
 21
712.0565196168001
 31
0
  0
LINE
  8
1
 62
2
 10
476.4190087791001
 20
712.5065196168001
 30
0
 11
476.1880087791001
 21
712.2065196168001
 31
0
  0
LINE
  8
1
 62
2
 10
476.5345087791001
 20
712.9565196168001
 30
0
 11
476.4190087791001
 21
712.5065196168001
 31
0
  0
LINE
  8
1
 62
2
 10
476.5345087791001
 20
713.4065196168001
 30
0
 11
476.5345087791001
 21
712.9565196168001
 31
0
  0
LINE
  8
1
 62
2
 10
476.4190087791001
 20
713.8565196168
 30
0
 11
476.5345087791001
 21
713.4065196168001
 31
0
  0
LINE
  8
1
 62
2
 10
476.0725087791001
 20
714.1565196168001
 30
0
 11
476.4190087791001
 21
713.8565196168
 31
0
  0
LINE
  8
1
 62
2
 10
475.4950087791002
 20
714.3065196168001
 30
0
 11
476.0725087791001
 21
714.1565196168001
 31
0
  0
LINE
  8
1
 62
2
 10
473.7625087791001
 20
714.3065196168001
 30
0
 11
475.4950087791002
 21
714.3065196168001
 31
0
  0
LINE
  8
1
 62
2
 10
474.4555087791001
 20
711.9065196168001
 30
0
 11
475.6105087791001
 21
711.9065196168001
 31
0
  0
LINE
  8
1
 62
2
 10
471.6835087791001
 20
710.7065196168001
 30
0
 11
471.6835087791001
 21
708.3065196168001
 31
0
  0
LINE
  8
1
 62
2
 10
469.6045087791001
 20
709.5065196168001
 30
0
 11
472.3765087791001
 21
709.5065196168001
 31
0
  0
LINE
  8
1
 62
2
 10
471.6835087791001
 20
714.3065196168001
 30
0
 11
469.6045087791001
 21
709.5065196168001
 31
0
  0
LINE
  8
1
 62
2
 10
468.2185087791002
 20
714.3065196168001
 30
0
 11
468.2185087791002
 21
708.3065196168001
 31
0
  0
LINE
  8
1
 62
2
 10
466.8325087791001
 20
712.5065196168001
 30
0
 11
468.2185087791002
 21
714.3065196168001
 31
0
  0
LINE
  8
1
 62
2
 10
511.5711741841
 20
712.0565196168001
 30
0
 11
511.5711741841
 21
710.5565196168001
 31
0
  0
LINE
  8
1
 62
2
 10
511.4556741841
 20
712.9565196168001
 30
0
 11
511.5711741841
 21
712.0565196168001
 31
0
  0
LINE
  8
1
 62
2
 10
511.2246741841
 20
713.5565196168001
 30
0
 11
511.4556741841
 21
712.9565196168001
 31
0
  0
LINE
  8
1
 62
2
 10
510.9936741841
 20
713.8565196168
 30
0
 11
511.2246741841
 21
713.5565196168001
 31
0
  0
LINE
  8
1
 62
2
 10
510.6471741841
 20
714.1565196168001
 30
0
 11
510.9936741841
 21
713.8565196168
 31
0
  0
LINE
  8
1
 62
2
 10
510.3006741841001
 20
714.3065196168001
 30
0
 11
510.6471741841
 21
714.1565196168001
 31
0
  0
LINE
  8
1
 62
2
 10
510.0696741841001
 20
714.3065196168001
 30
0
 11
510.3006741841001
 21
714.3065196168001
 31
0
  0
LINE
  8
1
 62
2
 10
509.7231741841
 20
714.1565196168001
 30
0
 11
510.0696741841001
 21
714.3065196168001
 31
0
  0
LINE
  8
1
 62
2
 10
509.3766741841
 20
713.8565196168
 30
0
 11
509.7231741841
 21
714.1565196168001
 31
0
  0
LINE
  8
1
 62
2
 10
509.1456741841
 20
713.5565196168001
 30
0
 11
509.3766741841
 21
713.8565196168
 31
0
  0
LINE
  8
1
 62
2
 10
508.9146741841
 20
712.9565196168001
 30
0
 11
509.1456741841
 21
713.5565196168001
 31
0
  0
LINE
  8
1
 62
2
 10
508.7991741841
 20
712.0565196168001
 30
0
 11
508.9146741841
 21
712.9565196168001
 31
0
  0
LINE
  8
1
 62
2
 10
508.7991741841
 20
710.5565196168001
 30
0
 11
508.7991741841
 21
712.0565196168001
 31
0
  0
LINE
  8
1
 62
2
 10
508.9146741841
 20
709.6565196168001
 30
0
 11
508.7991741841
 21
710.5565196168001
 31
0
  0
LINE
  8
1
 62
2
 10
509.1456741841
 20
709.0565196168001
 30
0
 11
508.9146741841
 21
709.6565196168001
 31
0
  0
LINE
  8
1
 62
2
 10
509.3766741841
 20
708.7565196168001
 30
0
 11
509.1456741841
 21
709.0565196168001
 31
0
  0
LINE
  8
1
 62
2
 10
509.7231741841
 20
708.4565196168001
 30
0
 11
509.3766741841
 21
708.7565196168001
 31
0
  0
LINE
  8
1
 62
2
 10
510.0696741841001
 20
708.3065196168001
 30
0
 11
509.7231741841
 21
708.4565196168001
 31
0
  0
LINE
  8
1
 62
2
 10
510.3006741841001
 20
708.3065196168001
 30
0
 11
510.0696741841001
 21
708.3065196168001
 31
0
  0
LINE
  8
1
 62
2
 10
510.6471741841
 20
708.4565196168001
 30
0
 11
510.3006741841001
 21
708.3065196168001
 31
0
  0
LINE
  8
1
 62
2
 10
510.9936741841
 20
708.7565196168001
 30
0
 11
510.6471741841
 21
708.4565196168001
 31
0
  0
LINE
  8
1
 62
2
 10
511.2246741841
 20
709.0565196168001
 30
0
 11
510.9936741841
 21
708.7565196168001
 31
0
  0
LINE
  8
1
 62
2
 10
511.4556741841
 20
709.6565196168001
 30
0
 11
511.2246741841
 21
709.0565196168001
 31
0
  0
LINE
  8
1
 62
2
 10
511.5711741841
 20
710.5565196168001
 30
0
 11
511.4556741841
 21
709.6565196168001
 31
0
  0
LINE
  8
1
 62
2
 10
507.4131741841
 20
712.0565196168001
 30
0
 11
507.4131741841
 21
710.5565196168001
 31
0
  0
LINE
  8
1
 62
2
 10
507.2976741841
 20
712.9565196168001
 30
0
 11
507.4131741841
 21
712.0565196168001
 31
0
  0
LINE
  8
1
 62
2
 10
507.0666741841
 20
713.5565196168001
 30
0
 11
507.2976741841
 21
712.9565196168001
 31
0
  0
LINE
  8
1
 62
2
 10
506.8356741841
 20
713.8565196168
 30
0
 11
507.0666741841
 21
713.5565196168001
 31
0
  0
LINE
  8
1
 62
2
 10
506.4891741841
 20
714.1565196168001
 30
0
 11
506.8356741841
 21
713.8565196168
 31
0
  0
LINE
  8
1
 62
2
 10
506.1426741841
 20
714.3065196168001
 30
0
 11
506.4891741841
 21
714.1565196168001
 31
0
  0
LINE
  8
1
 62
2
 10
505.9116741841
 20
714.3065196168001
 30
0
 11
506.1426741841
 21
714.3065196168001
 31
0
  0
LINE
  8
1
 62
2
 10
505.5651741841
 20
714.1565196168001
 30
0
 11
505.9116741841
 21
714.3065196168001
 31
0
  0
LINE
  8
1
 62
2
 10
505.2186741841
 20
713.8565196168
 30
0
 11
505.5651741841
 21
714.1565196168001
 31
0
  0
LINE
  8
1
 62
2
 10
504.9876741841
 20
713.5565196168001
 30
0
 11
505.2186741841
 21
713.8565196168
 31
0
  0
LINE
  8
1
 62
2
 10
504.7566741841
 20
712.9565196168001
 30
0
 11
504.9876741841
 21
713.5565196168001
 31
0
  0
LINE
  8
1
 62
2
 10
504.6411741841
 20
712.0565196168001
 30
0
 11
504.7566741841
 21
712.9565196168001
 31
0
  0
LINE
  8
1
 62
2
 10
504.6411741841
 20
710.5565196168001
 30
0
 11
504.6411741841
 21
712.0565196168001
 31
0
  0
LINE
  8
1
 62
2
 10
504.7566741841
 20
709.6565196168001
 30
0
 11
504.6411741841
 21
710.5565196168001
 31
0
  0
LINE
  8
1
 62
2
 10
504.9876741841
 20
709.0565196168001
 30
0
 11
504.7566741841
 21
709.6565196168001
 31
0
  0
LINE
  8
1
 62
2
 10
505.2186741841
 20
708.7565196168001
 30
0
 11
504.9876741841
 21
709.0565196168001
 31
0
  0
LINE
  8
1
 62
2
 10
505.5651741841
 20
708.4565196168001
 30
0
 11
505.2186741841
 21
708.7565196168001
 31
0
  0
LINE
  8
1
 62
2
 10
505.9116741841
 20
708.3065196168001
 30
0
 11
505.5651741841
 21
708.4565196168001
 31
0
  0
LINE
  8
1
 62
2
 10
506.1426741841
 20
708.3065196168001
 30
0
 11
505.9116741841
 21
708.3065196168001
 31
0
  0
LINE
  8
1
 62
2
 10
506.4891741841
 20
708.4565196168001
 30
0
 11
506.1426741841
 21
708.3065196168001
 31
0
  0
LINE
  8
1
 62
2
 10
506.8356741841
 20
708.7565196168001
 30
0
 11
506.4891741841
 21
708.4565196168001
 31
0
  0
LINE
  8
1
 62
2
 10
507.0666741841
 20
709.0565196168001
 30
0
 11
506.8356741841
 21
708.7565196168001
 31
0
  0
LINE
  8
1
 62
2
 10
507.2976741841
 20
709.6565196168001
 30
0
 11
507.0666741841
 21
709.0565196168001
 31
0
  0
LINE
  8
1
 62
2
 10
507.4131741841
 20
710.5565196168001
 30
0
 11
507.2976741841
 21
709.6565196168001
 31
0
  0
LINE
  8
1
 62
2
 10
503.2551741841
 20
714.3065196168001
 30
0
 11
503.2551741841
 21
708.3065196168001
 31
0
  0
LINE
  8
1
 62
2
 10
501.8691741841
 20
712.5065196168001
 30
0
 11
503.2551741841
 21
714.3065196168001
 31
0
  0
LINE
  8
1
 62
2
 10
542.4765064555
 20
710.7065196168001
 30
0
 11
542.4765064555
 21
708.3065196168001
 31
0
  0
LINE
  8
1
 62
2
 10
540.3975064555001
 20
709.5065196168001
 30
0
 11
543.1695064555001
 21
709.5065196168001
 31
0
  0
LINE
  8
1
 62
2
 10
542.4765064555
 20
714.3065196168001
 30
0
 11
540.3975064555001
 21
709.5065196168001
 31
0
  0
LINE
  8
1
 62
2
 10
577.8463385437001
 20
708.9065196168001
 30
0
 11
576.8068385437001
 21
708.3065196168001
 31
0
  0
LINE
  8
1
 62
2
 10
578.6548385437001
 20
709.8065196168001
 30
0
 11
577.8463385437001
 21
708.9065196168001
 31
0
  0
LINE
  8
1
 62
2
 10
579.0013385437002
 20
710.4065196168001
 30
0
 11
578.6548385437001
 21
709.8065196168001
 31
0
  0
LINE
  8
1
 62
2
 10
579.1168385437002
 20
711.0065196168001
 30
0
 11
579.0013385437002
 21
710.4065196168001
 31
0
  0
LINE
  8
1
 62
2
 10
579.2323385437002
 20
711.7565196168001
 30
0
 11
579.1168385437002
 21
711.0065196168001
 31
0
  0
LINE
  8
1
 62
2
 10
579.2323385437002
 20
712.8065196168001
 30
0
 11
579.2323385437002
 21
711.7565196168001
 31
0
  0
LINE
  8
1
 62
2
 10
579.1168385437002
 20
713.4065196168001
 30
0
 11
579.2323385437002
 21
712.8065196168001
 31
0
  0
LINE
  8
1
 62
2
 10
578.8858385437002
 20
713.8565196168
 30
0
 11
579.1168385437002
 21
713.4065196168001
 31
0
  0
LINE
  8
1
 62
2
 10
578.5393385437001
 20
714.1565196168001
 30
0
 11
578.8858385437002
 21
713.8565196168
 31
0
  0
LINE
  8
1
 62
2
 10
578.1928385437001
 20
714.3065196168001
 30
0
 11
578.5393385437001
 21
714.1565196168001
 31
0
  0
LINE
  8
1
 62
2
 10
577.4998385437001
 20
714.3065196168001
 30
0
 11
578.1928385437001
 21
714.3065196168001
 31
0
  0
LINE
  8
1
 62
2
 10
577.1533385437001
 20
714.1565196168001
 30
0
 11
577.4998385437001
 21
714.3065196168001
 31
0
  0
LINE
  8
1
 62
2
 10
576.8068385437001
 20
713.8565196168
 30
0
 11
577.1533385437001
 21
714.1565196168001
 31
0
  0
LINE
  8
1
 62
2
 10
576.5758385437001
 20
713.4065196168001
 30
0
 11
576.8068385437001
 21
713.8565196168
 31
0
  0
LINE
  8
1
 62
2
 10
576.4603385437001
 20
712.8065196168001
 30
0
 11
576.5758385437001
 21
713.4065196168001
 31
0
  0
LINE
  8
1
 62
2
 10
576.4603385437001
 20
712.5065196168001
 30
0
 11
576.4603385437001
 21
712.8065196168001
 31
0
  0
LINE
  8
1
 62
2
 10
576.5758385437001
 20
711.9065196168001
 30
0
 11
576.4603385437001
 21
712.5065196168001
 31
0
  0
LINE
  8
1
 62
2
 10
576.8068385437001
 20
711.4565196168001
 30
0
 11
576.5758385437001
 21
711.9065196168001
 31
0
  0
LINE
  8
1
 62
2
 10
577.1533385437001
 20
711.1565196168001
 30
0
 11
576.8068385437001
 21
711.4565196168001
 31
0
  0
LINE
  8
1
 62
2
 10
577.4998385437001
 20
711.0065196168001
 30
0
 11
577.1533385437001
 21
711.1565196168001
 31
0
  0
LINE
  8
1
 62
2
 10
579.1168385437002
 20
711.0065196168001
 30
0
 11
577.4998385437001
 21
711.0065196168001
 31
0
  0
LINE
  8
1
 62
2
 10
575.0743385437
 20
714.3065196168001
 30
0
 11
575.0743385437
 21
708.3065196168001
 31
0
  0
LINE
  8
1
 62
2
 10
573.6883385437001
 20
712.5065196168001
 30
0
 11
575.0743385437
 21
714.3065196168001
 31
0
  0
LINE
  8
1
 62
2
 10
407.6916787169001
 20
700.1065192368
 30
0
 11
407.6916787169001
 21
704.3065192368
 31
0
  0
LINE
  8
1
 62
2
 10
407.6916787169001
 20
698.3065192368
 30
0
 11
407.6916787169001
 21
700.1065192368
 31
0
  0
LINE
  8
1
 62
2
 10
408.6156787169001
 20
701.3065192368
 30
0
 11
410.9256787169001
 21
698.3065192368
 31
0
  0
LINE
  8
1
 62
2
 10
410.9256787169001
 20
704.3065192368
 30
0
 11
408.6156787169001
 21
701.3065192368
 31
0
  0
LINE
  8
1
 62
2
 10
408.6156787169001
 20
701.3065192368
 30
0
 11
407.6916787169001
 21
700.1065192368
 31
0
  0
LINE
  8
1
 62
2
 10
406.3056787169001
 20
702.0565192368
 30
0
 11
406.3056787169001
 21
700.5565192368
 31
0
  0
LINE
  8
1
 62
2
 10
406.1901787169001
 20
702.9565192368
 30
0
 11
406.3056787169001
 21
702.0565192368
 31
0
  0
LINE
  8
1
 62
2
 10
405.9591787169001
 20
703.5565192368
 30
0
 11
406.1901787169001
 21
702.9565192368
 31
0
  0
LINE
  8
1
 62
2
 10
405.7281787169001
 20
703.8565192368
 30
0
 11
405.9591787169001
 21
703.5565192368
 31
0
  0
LINE
  8
1
 62
2
 10
405.3816787169001
 20
704.1565192368
 30
0
 11
405.7281787169001
 21
703.8565192368
 31
0
  0
LINE
  8
1
 62
2
 10
405.0351787169001
 20
704.3065192368
 30
0
 11
405.3816787169001
 21
704.1565192368
 31
0
  0
LINE
  8
1
 62
2
 10
404.8041787169001
 20
704.3065192368
 30
0
 11
405.0351787169001
 21
704.3065192368
 31
0
  0
LINE
  8
1
 62
2
 10
404.4576787169001
 20
704.1565192368
 30
0
 11
404.8041787169001
 21
704.3065192368
 31
0
  0
LINE
  8
1
 62
2
 10
404.1111787169001
 20
703.8565192368
 30
0
 11
404.4576787169001
 21
704.1565192368
 31
0
  0
LINE
  8
1
 62
2
 10
403.8801787169001
 20
703.5565192368
 30
0
 11
404.1111787169001
 21
703.8565192368
 31
0
  0
LINE
  8
1
 62
2
 10
403.6491787169001
 20
702.9565192368
 30
0
 11
403.8801787169001
 21
703.5565192368
 31
0
  0
LINE
  8
1
 62
2
 10
403.5336787169001
 20
702.0565192368
 30
0
 11
403.6491787169001
 21
702.9565192368
 31
0
  0
LINE
  8
1
 62
2
 10
403.5336787169001
 20
700.5565192368
 30
0
 11
403.5336787169001
 21
702.0565192368
 31
0
  0
LINE
  8
1
 62
2
 10
403.6491787169001
 20
699.6565192368
 30
0
 11
403.5336787169001
 21
700.5565192368
 31
0
  0
LINE
  8
1
 62
2
 10
403.8801787169001
 20
699.0565192368
 30
0
 11
403.6491787169001
 21
699.6565192368
 31
0
  0
LINE
  8
1
 62
2
 10
404.1111787169001
 20
698.7565192368001
 30
0
 11
403.8801787169001
 21
699.0565192368
 31
0
  0
LINE
  8
1
 62
2
 10
404.4576787169001
 20
698.4565192368
 30
0
 11
404.1111787169001
 21
698.7565192368001
 31
0
  0
LINE
  8
1
 62
2
 10
404.8041787169001
 20
698.3065192368
 30
0
 11
404.4576787169001
 21
698.4565192368
 31
0
  0
LINE
  8
1
 62
2
 10
405.0351787169001
 20
698.3065192368
 30
0
 11
404.8041787169001
 21
698.3065192368
 31
0
  0
LINE
  8
1
 62
2
 10
405.3816787169001
 20
698.4565192368
 30
0
 11
405.0351787169001
 21
698.3065192368
 31
0
  0
LINE
  8
1
 62
2
 10
405.7281787169001
 20
698.7565192368001
 30
0
 11
405.3816787169001
 21
698.4565192368
 31
0
  0
LINE
  8
1
 62
2
 10
405.9591787169001
 20
699.0565192368
 30
0
 11
405.7281787169001
 21
698.7565192368001
 31
0
  0
LINE
  8
1
 62
2
 10
406.1901787169001
 20
699.6565192368
 30
0
 11
405.9591787169001
 21
699.0565192368
 31
0
  0
LINE
  8
1
 62
2
 10
406.3056787169001
 20
700.5565192368
 30
0
 11
406.1901787169001
 21
699.6565192368
 31
0
  0
LINE
  8
1
 62
2
 10
402.1476787169002
 20
704.3065192368
 30
0
 11
402.1476787169002
 21
698.3065192368
 31
0
  0
LINE
  8
1
 62
2
 10
400.7616787169001
 20
702.5065192368001
 30
0
 11
402.1476787169002
 21
704.3065192368
 31
0
  0
LINE
  8
1
 62
2
 10
396.3726787169001
 20
698.7565192368001
 30
0
 11
396.1416787169001
 21
699.0565192368
 31
0
  0
LINE
  8
1
 62
2
 10
396.8346787169001
 20
698.4565192368
 30
0
 11
396.3726787169001
 21
698.7565192368001
 31
0
  0
LINE
  8
1
 62
2
 10
397.4121787169001
 20
698.3065192368
 30
0
 11
396.8346787169001
 21
698.4565192368
 31
0
  0
LINE
  8
1
 62
2
 10
398.1051787169001
 20
698.3065192368
 30
0
 11
397.4121787169001
 21
698.3065192368
 31
0
  0
LINE
  8
1
 62
2
 10
398.6826787169001
 20
698.4565192368
 30
0
 11
398.1051787169001
 21
698.3065192368
 31
0
  0
LINE
  8
1
 62
2
 10
399.0291787169001
 20
698.7565192368001
 30
0
 11
398.6826787169001
 21
698.4565192368
 31
0
  0
LINE
  8
1
 62
2
 10
399.2601787169001
 20
699.2065192368
 30
0
 11
399.0291787169001
 21
698.7565192368001
 31
0
  0
LINE
  8
1
 62
2
 10
399.3756787169001
 20
699.6565192368
 30
0
 11
399.2601787169001
 21
699.2065192368
 31
0
  0
LINE
  8
1
 62
2
 10
399.3756787169001
 20
699.9565192368
 30
0
 11
399.3756787169001
 21
699.6565192368
 31
0
  0
LINE
  8
1
 62
2
 10
399.2601787169001
 20
700.4065192368
 30
0
 11
399.3756787169001
 21
699.9565192368
 31
0
  0
LINE
  8
1
 62
2
 10
399.0291787169001
 20
700.8565192368
 30
0
 11
399.2601787169001
 21
700.4065192368
 31
0
  0
LINE
  8
1
 62
2
 10
398.6826787169001
 20
701.1565192368
 30
0
 11
399.0291787169001
 21
700.8565192368
 31
0
  0
LINE
  8
1
 62
2
 10
396.7191787169001
 20
702.2065192368
 30
0
 11
398.6826787169001
 21
701.1565192368
 31
0
  0
LINE
  8
1
 62
2
 10
396.3726787169001
 20
702.5065192368001
 30
0
 11
396.7191787169001
 21
702.2065192368
 31
0
  0
LINE
  8
1
 62
2
 10
396.2571787169001
 20
702.9565192368
 30
0
 11
396.3726787169001
 21
702.5065192368001
 31
0
  0
LINE
  8
1
 62
2
 10
396.2571787169001
 20
703.2565192368001
 30
0
 11
396.2571787169001
 21
702.9565192368
 31
0
  0
LINE
  8
1
 62
2
 10
396.3726787169001
 20
703.7065192368
 30
0
 11
396.2571787169001
 21
703.2565192368001
 31
0
  0
LINE
  8
1
 62
2
 10
396.7191787169001
 20
704.0065192368001
 30
0
 11
396.3726787169001
 21
703.7065192368
 31
0
  0
LINE
  8
1
 62
2
 10
397.0656787169001
 20
704.1565192368
 30
0
 11
396.7191787169001
 21
704.0065192368001
 31
0
  0
LINE
  8
1
 62
2
 10
397.5276787169001
 20
704.3065192368
 30
0
 11
397.0656787169001
 21
704.1565192368
 31
0
  0
LINE
  8
1
 62
2
 10
397.9896787169001
 20
704.3065192368
 30
0
 11
397.5276787169001
 21
704.3065192368
 31
0
  0
LINE
  8
1
 62
2
 10
398.5671787169001
 20
704.1565192368
 30
0
 11
397.9896787169001
 21
704.3065192368
 31
0
  0
LINE
  8
1
 62
2
 10
398.9136787169001
 20
704.0065192368001
 30
0
 11
398.5671787169001
 21
704.1565192368
 31
0
  0
LINE
  8
1
 62
2
 10
399.2601787169001
 20
703.7065192368
 30
0
 11
398.9136787169001
 21
704.0065192368001
 31
0
  0
LINE
  8
1
 62
2
 10
394.7556787169001
 20
698.3065192368
 30
0
 11
394.7556787169001
 21
704.3065192368
 31
0
  0
LINE
  8
1
 62
2
 10
392.4456787169001
 20
698.3065192368
 30
0
 11
391.5216787169001
 21
698.3065192368
 31
0
  0
LINE
  8
1
 62
2
 10
392.7921787169001
 20
698.4565192368
 30
0
 11
392.4456787169001
 21
698.3065192368
 31
0
  0
LINE
  8
1
 62
2
 10
393.1386787169001
 20
698.7565192368001
 30
0
 11
392.7921787169001
 21
698.4565192368
 31
0
  0
LINE
  8
1
 62
2
 10
393.3696787169001
 20
699.3565192368
 30
0
 11
393.1386787169001
 21
698.7565192368001
 31
0
  0
LINE
  8
1
 62
2
 10
393.3696787169001
 20
704.3065192368
 30
0
 11
393.3696787169001
 21
699.3565192368
 31
0
  0
LINE
  8
1
 62
2
 10
439.5343433739
 20
702.9565192368
 30
0
 11
440.8048433739
 21
704.3065192368
 31
0
  0
LINE
  8
1
 62
2
 10
439.0723433739
 20
702.2065192368
 30
0
 11
439.5343433739
 21
702.9565192368
 31
0
  0
LINE
  8
1
 62
2
 10
438.8413433739
 20
701.6065192368
 30
0
 11
439.0723433739
 21
702.2065192368
 31
0
  0
LINE
  8
1
 62
2
 10
438.7258433739
 20
700.4065192368
 30
0
 11
438.8413433739
 21
701.6065192368
 31
0
  0
LINE
  8
1
 62
2
 10
438.7258433739
 20
699.8065192368
 30
0
 11
438.7258433739
 21
700.4065192368
 31
0
  0
LINE
  8
1
 62
2
 10
438.8413433739
 20
699.2065192368
 30
0
 11
438.7258433739
 21
699.8065192368
 31
0
  0
LINE
  8
1
 62
2
 10
439.0723433739
 20
698.7565192368001
 30
0
 11
438.8413433739
 21
699.2065192368
 31
0
  0
LINE
  8
1
 62
2
 10
439.4188433739
 20
698.4565192368
 30
0
 11
439.0723433739
 21
698.7565192368001
 31
0
  0
LINE
  8
1
 62
2
 10
439.7653433739
 20
698.3065192368
 30
0
 11
439.4188433739
 21
698.4565192368
 31
0
  0
LINE
  8
1
 62
2
 10
440.4583433739001
 20
698.3065192368
 30
0
 11
439.7653433739
 21
698.3065192368
 31
0
  0
LINE
  8
1
 62
2
 10
440.8048433739
 20
698.4565192368
 30
0
 11
440.4583433739001
 21
698.3065192368
 31
0
  0
LINE
  8
1
 62
2
 10
441.1513433739
 20
698.7565192368001
 30
0
 11
440.8048433739
 21
698.4565192368
 31
0
  0
LINE
  8
1
 62
2
 10
441.3823433739
 20
699.2065192368
 30
0
 11
441.1513433739
 21
698.7565192368001
 31
0
  0
LINE
  8
1
 62
2
 10
441.4978433739
 20
699.8065192368
 30
0
 11
441.3823433739
 21
699.2065192368
 31
0
  0
LINE
  8
1
 62
2
 10
441.4978433739
 20
700.4065192368
 30
0
 11
441.4978433739
 21
699.8065192368
 31
0
  0
LINE
  8
1
 62
2
 10
441.3823433739
 20
701.0065192368001
 30
0
 11
441.4978433739
 21
700.4065192368
 31
0
  0
LINE
  8
1
 62
2
 10
441.1513433739
 20
701.4565192368
 30
0
 11
441.3823433739
 21
701.0065192368001
 31
0
  0
LINE
  8
1
 62
2
 10
440.8048433739
 20
701.7565192368001
 30
0
 11
441.1513433739
 21
701.4565192368
 31
0
  0
LINE
  8
1
 62
2
 10
440.4583433739001
 20
701.9065192368
 30
0
 11
440.8048433739
 21
701.7565192368001
 31
0
  0
LINE
  8
1
 62
2
 10
439.7653433739
 20
701.9065192368
 30
0
 11
440.4583433739001
 21
701.9065192368
 31
0
  0
LINE
  8
1
 62
2
 10
439.4188433739
 20
701.7565192368001
 30
0
 11
439.7653433739
 21
701.9065192368
 31
0
  0
LINE
  8
1
 62
2
 10
439.0723433739
 20
701.4565192368
 30
0
 11
439.4188433739
 21
701.7565192368001
 31
0
  0
LINE
  8
1
 62
2
 10
438.8413433739
 20
701.0065192368001
 30
0
 11
439.0723433739
 21
701.4565192368
 31
0
  0
LINE
  8
1
 62
2
 10
438.7258433739
 20
700.4065192368
 30
0
 11
438.8413433739
 21
701.0065192368001
 31
0
  0
LINE
  8
1
 62
2
 10
435.0298433739
 20
703.8565192368
 30
0
 11
435.3763433739
 21
704.1565192368
 31
0
  0
LINE
  8
1
 62
2
 10
434.7988433739
 20
703.4065192368
 30
0
 11
435.0298433739
 21
703.8565192368
 31
0
  0
LINE
  8
1
 62
2
 10
434.7988433739
 20
702.8065192368
 30
0
 11
434.7988433739
 21
703.4065192368
 31
0
  0
LINE
  8
1
 62
2
 10
435.0298433739
 20
702.3565192368
 30
0
 11
434.7988433739
 21
702.8065192368
 31
0
  0
LINE
  8
1
 62
2
 10
435.3763433739
 20
702.0565192368
 30
0
 11
435.0298433739
 21
702.3565192368
 31
0
  0
LINE
  8
1
 62
2
 10
435.7228433739
 20
701.9065192368
 30
0
 11
435.3763433739
 21
702.0565192368
 31
0
  0
LINE
  8
1
 62
2
 10
436.1848433739
 20
701.9065192368
 30
0
 11
435.7228433739
 21
701.9065192368
 31
0
  0
LINE
  8
1
 62
2
 10
436.5313433739
 20
702.0565192368
 30
0
 11
436.1848433739
 21
701.9065192368
 31
0
  0
LINE
  8
1
 62
2
 10
436.8778433739
 20
702.3565192368
 30
0
 11
436.5313433739
 21
702.0565192368
 31
0
  0
LINE
  8
1
 62
2
 10
437.1088433739
 20
702.8065192368
 30
0
 11
436.8778433739
 21
702.3565192368
 31
0
  0
LINE
  8
1
 62
2
 10
437.1088433739
 20
703.4065192368
 30
0
 11
437.1088433739
 21
702.8065192368
 31
0
  0
LINE
  8
1
 62
2
 10
436.8778433739
 20
703.8565192368
 30
0
 11
437.1088433739
 21
703.4065192368
 31
0
  0
LINE
  8
1
 62
2
 10
436.5313433739
 20
704.1565192368
 30
0
 11
436.8778433739
 21
703.8565192368
 31
0
  0
LINE
  8
1
 62
2
 10
436.1848433739
 20
704.3065192368
 30
0
 11
436.5313433739
 21
704.1565192368
 31
0
  0
LINE
  8
1
 62
2
 10
435.7228433739
 20
704.3065192368
 30
0
 11
436.1848433739
 21
704.3065192368
 31
0
  0
LINE
  8
1
 62
2
 10
435.3763433739
 20
704.1565192368
 30
0
 11
435.7228433739
 21
704.3065192368
 31
0
  0
LINE
  8
1
 62
2
 10
436.7623433739
 20
701.6065192368
 30
0
 11
436.1848433739
 21
701.9065192368
 31
0
  0
LINE
  8
1
 62
2
 10
437.1088433739
 20
701.1565192368
 30
0
 11
436.7623433739
 21
701.6065192368
 31
0
  0
LINE
  8
1
 62
2
 10
437.3398433739
 20
700.5565192368
 30
0
 11
437.1088433739
 21
701.1565192368
 31
0
  0
LINE
  8
1
 62
2
 10
437.3398433739
 20
699.6565192368
 30
0
 11
437.3398433739
 21
700.5565192368
 31
0
  0
LINE
  8
1
 62
2
 10
437.1088433739
 20
699.0565192368
 30
0
 11
437.3398433739
 21
699.6565192368
 31
0
  0
LINE
  8
1
 62
2
 10
436.7623433739
 20
698.6065192368
 30
0
 11
437.1088433739
 21
699.0565192368
 31
0
  0
LINE
  8
1
 62
2
 10
436.3003433739
 20
698.3065192368
 30
0
 11
436.7623433739
 21
698.6065192368
 31
0
  0
LINE
  8
1
 62
2
 10
435.6073433739
 20
698.3065192368
 30
0
 11
436.3003433739
 21
698.3065192368
 31
0
  0
LINE
  8
1
 62
2
 10
435.1453433739
 20
698.6065192368
 30
0
 11
435.6073433739
 21
698.3065192368
 31
0
  0
LINE
  8
1
 62
2
 10
434.7988433739
 20
699.0565192368
 30
0
 11
435.1453433739
 21
698.6065192368
 31
0
  0
LINE
  8
1
 62
2
 10
434.5678433739
 20
699.6565192368
 30
0
 11
434.7988433739
 21
699.0565192368
 31
0
  0
LINE
  8
1
 62
2
 10
434.5678433739
 20
700.5565192368
 30
0
 11
434.5678433739
 21
699.6565192368
 31
0
  0
LINE
  8
1
 62
2
 10
434.7988433739
 20
701.1565192368
 30
0
 11
434.5678433739
 21
700.5565192368
 31
0
  0
LINE
  8
1
 62
2
 10
435.1453433739
 20
701.6065192368
 30
0
 11
434.7988433739
 21
701.1565192368
 31
0
  0
LINE
  8
1
 62
2
 10
435.7228433739
 20
701.9065192368
 30
0
 11
435.1453433739
 21
701.6065192368
 31
0
  0
LINE
  8
1
 62
2
 10
433.1818433739001
 20
704.3065192368
 30
0
 11
433.1818433739001
 21
698.3065192368
 31
0
  0
LINE
  8
1
 62
2
 10
431.7958433739
 20
702.5065192368001
 30
0
 11
433.1818433739001
 21
704.3065192368
 31
0
  0
LINE
  8
1
 62
2
 10
476.5345087791001
 20
702.0565192368
 30
0
 11
476.5345087791001
 21
700.5565192368
 31
0
  0
LINE
  8
1
 62
2
 10
476.4190087791001
 20
702.9565192368
 30
0
 11
476.5345087791001
 21
702.0565192368
 31
0
  0
LINE
  8
1
 62
2
 10
476.1880087791001
 20
703.5565192368
 30
0
 11
476.4190087791001
 21
702.9565192368
 31
0
  0
LINE
  8
1
 62
2
 10
475.9570087791001
 20
703.8565192368
 30
0
 11
476.1880087791001
 21
703.5565192368
 31
0
  0
LINE
  8
1
 62
2
 10
475.6105087791001
 20
704.1565192368
 30
0
 11
475.9570087791001
 21
703.8565192368
 31
0
  0
LINE
  8
1
 62
2
 10
475.2640087791002
 20
704.3065192368
 30
0
 11
475.6105087791001
 21
704.1565192368
 31
0
  0
LINE
  8
1
 62
2
 10
475.0330087791002
 20
704.3065192368
 30
0
 11
475.2640087791002
 21
704.3065192368
 31
0
  0
LINE
  8
1
 62
2
 10
474.6865087791001
 20
704.1565192368
 30
0
 11
475.0330087791002
 21
704.3065192368
 31
0
  0
LINE
  8
1
 62
2
 10
474.3400087791001
 20
703.8565192368
 30
0
 11
474.6865087791001
 21
704.1565192368
 31
0
  0
LINE
  8
1
 62
2
 10
474.1090087791001
 20
703.5565192368
 30
0
 11
474.3400087791001
 21
703.8565192368
 31
0
  0
LINE
  8
1
 62
2
 10
473.8780087791001
 20
702.9565192368
 30
0
 11
474.1090087791001
 21
703.5565192368
 31
0
  0
LINE
  8
1
 62
2
 10
473.7625087791001
 20
702.0565192368
 30
0
 11
473.8780087791001
 21
702.9565192368
 31
0
  0
LINE
  8
1
 62
2
 10
473.7625087791001
 20
700.5565192368
 30
0
 11
473.7625087791001
 21
702.0565192368
 31
0
  0
LINE
  8
1
 62
2
 10
473.8780087791001
 20
699.6565192368
 30
0
 11
473.7625087791001
 21
700.5565192368
 31
0
  0
LINE
  8
1
 62
2
 10
474.1090087791001
 20
699.0565192368
 30
0
 11
473.8780087791001
 21
699.6565192368
 31
0
  0
LINE
  8
1
 62
2
 10
474.3400087791001
 20
698.7565192368001
 30
0
 11
474.1090087791001
 21
699.0565192368
 31
0
  0
LINE
  8
1
 62
2
 10
474.6865087791001
 20
698.4565192368
 30
0
 11
474.3400087791001
 21
698.7565192368001
 31
0
  0
LINE
  8
1
 62
2
 10
475.0330087791002
 20
698.3065192368
 30
0
 11
474.6865087791001
 21
698.4565192368
 31
0
  0
LINE
  8
1
 62
2
 10
475.2640087791002
 20
698.3065192368
 30
0
 11
475.0330087791002
 21
698.3065192368
 31
0
  0
LINE
  8
1
 62
2
 10
475.6105087791001
 20
698.4565192368
 30
0
 11
475.2640087791002
 21
698.3065192368
 31
0
  0
LINE
  8
1
 62
2
 10
475.9570087791001
 20
698.7565192368001
 30
0
 11
475.6105087791001
 21
698.4565192368
 31
0
  0
LINE
  8
1
 62
2
 10
476.1880087791001
 20
699.0565192368
 30
0
 11
475.9570087791001
 21
698.7565192368001
 31
0
  0
LINE
  8
1
 62
2
 10
476.4190087791001
 20
699.6565192368
 30
0
 11
476.1880087791001
 21
699.0565192368
 31
0
  0
LINE
  8
1
 62
2
 10
476.5345087791001
 20
700.5565192368
 30
0
 11
476.4190087791001
 21
699.6565192368
 31
0
  0
LINE
  8
1
 62
2
 10
469.6045087791001
 20
698.3065192368
 30
0
 11
472.3765087791001
 21
698.3065192368
 31
0
  0
LINE
  8
1
 62
2
 10
472.1455087791001
 20
702.2065192368
 30
0
 11
469.6045087791001
 21
698.3065192368
 31
0
  0
LINE
  8
1
 62
2
 10
472.3765087791001
 20
702.8065192368
 30
0
 11
472.1455087791001
 21
702.2065192368
 31
0
  0
LINE
  8
1
 62
2
 10
472.3765087791001
 20
703.4065192368
 30
0
 11
472.3765087791001
 21
702.8065192368
 31
0
  0
LINE
  8
1
 62
2
 10
472.1455087791001
 20
703.8565192368
 30
0
 11
472.3765087791001
 21
703.4065192368
 31
0
  0
LINE
  8
1
 62
2
 10
471.7990087791001
 20
704.1565192368
 30
0
 11
472.1455087791001
 21
703.8565192368
 31
0
  0
LINE
  8
1
 62
2
 10
471.3370087791001
 20
704.3065192368
 30
0
 11
471.7990087791001
 21
704.1565192368
 31
0
  0
LINE
  8
1
 62
2
 10
470.6440087791001
 20
704.3065192368
 30
0
 11
471.3370087791001
 21
704.3065192368
 31
0
  0
LINE
  8
1
 62
2
 10
470.1820087791001
 20
704.1565192368
 30
0
 11
470.6440087791001
 21
704.3065192368
 31
0
  0
LINE
  8
1
 62
2
 10
469.8355087791001
 20
703.8565192368
 30
0
 11
470.1820087791001
 21
704.1565192368
 31
0
  0
LINE
  8
1
 62
2
 10
469.6045087791001
 20
703.4065192368
 30
0
 11
469.8355087791001
 21
703.8565192368
 31
0
  0
LINE
  8
1
 62
2
 10
468.2185087791002
 20
704.3065192368
 30
0
 11
468.2185087791002
 21
698.3065192368
 31
0
  0
LINE
  8
1
 62
2
 10
466.8325087791001
 20
702.5065192368001
 30
0
 11
468.2185087791002
 21
704.3065192368
 31
0
  0
LINE
  8
1
 62
2
 10
508.5815077337001
 20
702.9565192368
 30
0
 11
509.8520077337001
 21
704.3065192368
 31
0
  0
LINE
  8
1
 62
2
 10
508.1195077337001
 20
702.2065192368
 30
0
 11
508.5815077337001
 21
702.9565192368
 31
0
  0
LINE
  8
1
 62
2
 10
507.8885077337001
 20
701.6065192368
 30
0
 11
508.1195077337001
 21
702.2065192368
 31
0
  0
LINE
  8
1
 62
2
 10
507.7730077337001
 20
700.4065192368
 30
0
 11
507.8885077337001
 21
701.6065192368
 31
0
  0
LINE
  8
1
 62
2
 10
507.7730077337001
 20
699.8065192368
 30
0
 11
507.7730077337001
 21
700.4065192368
 31
0
  0
LINE
  8
1
 62
2
 10
507.8885077337001
 20
699.2065192368
 30
0
 11
507.7730077337001
 21
699.8065192368
 31
0
  0
LINE
  8
1
 62
2
 10
508.1195077337001
 20
698.7565192368001
 30
0
 11
507.8885077337001
 21
699.2065192368
 31
0
  0
LINE
  8
1
 62
2
 10
508.4660077337001
 20
698.4565192368
 30
0
 11
508.1195077337001
 21
698.7565192368001
 31
0
  0
LINE
  8
1
 62
2
 10
508.8125077337001
 20
698.3065192368
 30
0
 11
508.4660077337001
 21
698.4565192368
 31
0
  0
LINE
  8
1
 62
2
 10
509.5055077337001
 20
698.3065192368
 30
0
 11
508.8125077337001
 21
698.3065192368
 31
0
  0
LINE
  8
1
 62
2
 10
509.8520077337001
 20
698.4565192368
 30
0
 11
509.5055077337001
 21
698.3065192368
 31
0
  0
LINE
  8
1
 62
2
 10
510.1985077337001
 20
698.7565192368001
 30
0
 11
509.8520077337001
 21
698.4565192368
 31
0
  0
LINE
  8
1
 62
2
 10
510.4295077337001
 20
699.2065192368
 30
0
 11
510.1985077337001
 21
698.7565192368001
 31
0
  0
LINE
  8
1
 62
2
 10
510.5450077337001
 20
699.8065192368
 30
0
 11
510.4295077337001
 21
699.2065192368
 31
0
  0
LINE
  8
1
 62
2
 10
510.5450077337001
 20
700.4065192368
 30
0
 11
510.5450077337001
 21
699.8065192368
 31
0
  0
LINE
  8
1
 62
2
 10
510.4295077337001
 20
701.0065192368001
 30
0
 11
510.5450077337001
 21
700.4065192368
 31
0
  0
LINE
  8
1
 62
2
 10
510.1985077337001
 20
701.4565192368
 30
0
 11
510.4295077337001
 21
701.0065192368001
 31
0
  0
LINE
  8
1
 62
2
 10
509.8520077337001
 20
701.7565192368001
 30
0
 11
510.1985077337001
 21
701.4565192368
 31
0
  0
LINE
  8
1
 62
2
 10
509.5055077337001
 20
701.9065192368
 30
0
 11
509.8520077337001
 21
701.7565192368001
 31
0
  0
LINE
  8
1
 62
2
 10
508.8125077337001
 20
701.9065192368
 30
0
 11
509.5055077337001
 21
701.9065192368
 31
0
  0
LINE
  8
1
 62
2
 10
508.4660077337001
 20
701.7565192368001
 30
0
 11
508.8125077337001
 21
701.9065192368
 31
0
  0
LINE
  8
1
 62
2
 10
508.1195077337001
 20
701.4565192368
 30
0
 11
508.4660077337001
 21
701.7565192368001
 31
0
  0
LINE
  8
1
 62
2
 10
507.8885077337001
 20
701.0065192368001
 30
0
 11
508.1195077337001
 21
701.4565192368
 31
0
  0
LINE
  8
1
 62
2
 10
507.7730077337001
 20
700.4065192368
 30
0
 11
507.8885077337001
 21
701.0065192368001
 31
0
  0
LINE
  8
1
 62
2
 10
505.0010077337001
 20
698.9065192368
 30
0
 11
503.9615077337001
 21
698.3065192368
 31
0
  0
LINE
  8
1
 62
2
 10
505.8095077337001
 20
699.8065192368
 30
0
 11
505.0010077337001
 21
698.9065192368
 31
0
  0
LINE
  8
1
 62
2
 10
506.1560077337001
 20
700.4065192368
 30
0
 11
505.8095077337001
 21
699.8065192368
 31
0
  0
LINE
  8
1
 62
2
 10
506.2715077337001
 20
701.0065192368001
 30
0
 11
506.1560077337001
 21
700.4065192368
 31
0
  0
LINE
  8
1
 62
2
 10
506.3870077337001
 20
701.7565192368001
 30
0
 11
506.2715077337001
 21
701.0065192368001
 31
0
  0
LINE
  8
1
 62
2
 10
506.3870077337001
 20
702.8065192368
 30
0
 11
506.3870077337001
 21
701.7565192368001
 31
0
  0
LINE
  8
1
 62
2
 10
506.2715077337001
 20
703.4065192368
 30
0
 11
506.3870077337001
 21
702.8065192368
 31
0
  0
LINE
  8
1
 62
2
 10
506.0405077337001
 20
703.8565192368
 30
0
 11
506.2715077337001
 21
703.4065192368
 31
0
  0
LINE
  8
1
 62
2
 10
505.6940077337001
 20
704.1565192368
 30
0
 11
506.0405077337001
 21
703.8565192368
 31
0
  0
LINE
  8
1
 62
2
 10
505.3475077337001
 20
704.3065192368
 30
0
 11
505.6940077337001
 21
704.1565192368
 31
0
  0
LINE
  8
1
 62
2
 10
504.6545077337001
 20
704.3065192368
 30
0
 11
505.3475077337001
 21
704.3065192368
 31
0
  0
LINE
  8
1
 62
2
 10
504.3080077337001
 20
704.1565192368
 30
0
 11
504.6545077337001
 21
704.3065192368
 31
0
  0
LINE
  8
1
 62
2
 10
503.9615077337001
 20
703.8565192368
 30
0
 11
504.3080077337001
 21
704.1565192368
 31
0
  0
LINE
  8
1
 62
2
 10
503.7305077337001
 20
703.4065192368
 30
0
 11
503.9615077337001
 21
703.8565192368
 31
0
  0
LINE
  8
1
 62
2
 10
503.6150077337001
 20
702.8065192368
 30
0
 11
503.7305077337001
 21
703.4065192368
 31
0
  0
LINE
  8
1
 62
2
 10
503.6150077337001
 20
702.5065192368001
 30
0
 11
503.6150077337001
 21
702.8065192368
 31
0
  0
LINE
  8
1
 62
2
 10
503.7305077337001
 20
701.9065192368
 30
0
 11
503.6150077337001
 21
702.5065192368001
 31
0
  0
LINE
  8
1
 62
2
 10
503.9615077337001
 20
701.4565192368
 30
0
 11
503.7305077337001
 21
701.9065192368
 31
0
  0
LINE
  8
1
 62
2
 10
504.3080077337001
 20
701.1565192368
 30
0
 11
503.9615077337001
 21
701.4565192368
 31
0
  0
LINE
  8
1
 62
2
 10
504.6545077337001
 20
701.0065192368001
 30
0
 11
504.3080077337001
 21
701.1565192368
 31
0
  0
LINE
  8
1
 62
2
 10
506.2715077337001
 20
701.0065192368001
 30
0
 11
504.6545077337001
 21
701.0065192368001
 31
0
  0
LINE
  8
1
 62
2
 10
542.4765064555
 20
700.7065192368
 30
0
 11
542.4765064555
 21
698.3065192368
 31
0
  0
LINE
  8
1
 62
2
 10
540.3975064555001
 20
699.5065192368001
 30
0
 11
543.1695064555001
 21
699.5065192368001
 31
0
  0
LINE
  8
1
 62
2
 10
542.4765064555
 20
704.3065192368
 30
0
 11
540.3975064555001
 21
699.5065192368001
 31
0
  0
LINE
  8
1
 62
2
 10
577.8463385437001
 20
698.9065192368
 30
0
 11
576.8068385437001
 21
698.3065192368
 31
0
  0
LINE
  8
1
 62
2
 10
578.6548385437001
 20
699.8065192368
 30
0
 11
577.8463385437001
 21
698.9065192368
 31
0
  0
LINE
  8
1
 62
2
 10
579.0013385437002
 20
700.4065192368
 30
0
 11
578.6548385437001
 21
699.8065192368
 31
0
  0
LINE
  8
1
 62
2
 10
579.1168385437002
 20
701.0065192368001
 30
0
 11
579.0013385437002
 21
700.4065192368
 31
0
  0
LINE
  8
1
 62
2
 10
579.2323385437002
 20
701.7565192368001
 30
0
 11
579.1168385437002
 21
701.0065192368001
 31
0
  0
LINE
  8
1
 62
2
 10
579.2323385437002
 20
702.8065192368
 30
0
 11
579.2323385437002
 21
701.7565192368001
 31
0
  0
LINE
  8
1
 62
2
 10
579.1168385437002
 20
703.4065192368
 30
0
 11
579.2323385437002
 21
702.8065192368
 31
0
  0
LINE
  8
1
 62
2
 10
578.8858385437002
 20
703.8565192368
 30
0
 11
579.1168385437002
 21
703.4065192368
 31
0
  0
LINE
  8
1
 62
2
 10
578.5393385437001
 20
704.1565192368
 30
0
 11
578.8858385437002
 21
703.8565192368
 31
0
  0
LINE
  8
1
 62
2
 10
578.1928385437001
 20
704.3065192368
 30
0
 11
578.5393385437001
 21
704.1565192368
 31
0
  0
LINE
  8
1
 62
2
 10
577.4998385437001
 20
704.3065192368
 30
0
 11
578.1928385437001
 21
704.3065192368
 31
0
  0
LINE
  8
1
 62
2
 10
577.1533385437001
 20
704.1565192368
 30
0
 11
577.4998385437001
 21
704.3065192368
 31
0
  0
LINE
  8
1
 62
2
 10
576.8068385437001
 20
703.8565192368
 30
0
 11
577.1533385437001
 21
704.1565192368
 31
0
  0
LINE
  8
1
 62
2
 10
576.5758385437001
 20
703.4065192368
 30
0
 11
576.8068385437001
 21
703.8565192368
 31
0
  0
LINE
  8
1
 62
2
 10
576.4603385437001
 20
702.8065192368
 30
0
 11
576.5758385437001
 21
703.4065192368
 31
0
  0
LINE
  8
1
 62
2
 10
576.4603385437001
 20
702.5065192368001
 30
0
 11
576.4603385437001
 21
702.8065192368
 31
0
  0
LINE
  8
1
 62
2
 10
576.5758385437001
 20
701.9065192368
 30
0
 11
576.4603385437001
 21
702.5065192368001
 31
0
  0
LINE
  8
1
 62
2
 10
576.8068385437001
 20
701.4565192368
 30
0
 11
576.5758385437001
 21
701.9065192368
 31
0
  0
LINE
  8
1
 62
2
 10
577.1533385437001
 20
701.1565192368
 30
0
 11
576.8068385437001
 21
701.4565192368
 31
0
  0
LINE
  8
1
 62
2
 10
577.4998385437001
 20
701.0065192368001
 30
0
 11
577.1533385437001
 21
701.1565192368
 31
0
  0
LINE
  8
1
 62
2
 10
579.1168385437002
 20
701.0065192368001
 30
0
 11
577.4998385437001
 21
701.0065192368001
 31
0
  0
LINE
  8
1
 62
2
 10
575.0743385437
 20
704.3065192368
 30
0
 11
575.0743385437
 21
698.3065192368
 31
0
  0
LINE
  8
1
 62
2
 10
573.6883385437001
 20
702.5065192368001
 30
0
 11
575.0743385437
 21
704.3065192368
 31
0
  0
LINE
  8
1
 62
2
 10
252.3919442553
 20
351.5005445673
 30
0
 11
252.4496942553
 21
351.2005445673
 31
0
  0
LINE
  8
1
 62
2
 10
252.2764442553
 20
351.7255445673
 30
0
 11
252.3919442553
 21
351.5005445673
 31
0
  0
LINE
  8
1
 62
2
 10
252.1609442553
 20
351.8755445673
 30
0
 11
252.2764442553
 21
351.7255445673
 31
0
  0
LINE
  8
1
 62
2
 10
251.9876942553
 20
352.0255445673
 30
0
 11
252.1609442553
 21
351.8755445673
 31
0
  0
LINE
  8
1
 62
2
 10
251.7566942553
 20
352.1005445673
 30
0
 11
251.9876942553
 21
352.0255445673
 31
0
  0
LINE
  8
1
 62
2
 10
250.8326942553
 20
352.1005445673
 30
0
 11
251.7566942553
 21
352.1005445673
 31
0
  0
LINE
  8
1
 62
2
 10
250.8326942553
 20
349.1005445673
 30
0
 11
250.8326942553
 21
352.1005445673
 31
0
  0
LINE
  8
1
 62
2
 10
251.7566942553
 20
349.1005445673
 30
0
 11
250.8326942553
 21
349.1005445673
 31
0
  0
LINE
  8
1
 62
2
 10
251.9876942553
 20
349.1755445673
 30
0
 11
251.7566942553
 21
349.1005445673
 31
0
  0
LINE
  8
1
 62
2
 10
252.1609442553
 20
349.3255445673
 30
0
 11
251.9876942553
 21
349.1755445673
 31
0
  0
LINE
  8
1
 62
2
 10
252.2764442553
 20
349.4755445673
 30
0
 11
252.1609442553
 21
349.3255445673
 31
0
  0
LINE
  8
1
 62
2
 10
252.3919442553
 20
349.7005445673
 30
0
 11
252.2764442553
 21
349.4755445673
 31
0
  0
LINE
  8
1
 62
2
 10
252.4496942553
 20
350.0005445673
 30
0
 11
252.3919442553
 21
349.7005445673
 31
0
  0
LINE
  8
1
 62
2
 10
252.4496942553
 20
351.2005445673
 30
0
 11
252.4496942553
 21
350.0005445673
 31
0
  0
LINE
  8
1
 62
2
 10
162.9014242534941
 20
353.3871188352
 30
0
 11
162.6704242534941
 21
352.7871188352
 31
0
  0
LINE
  8
1
 62
2
 10
163.0169242534941
 20
353.9871188352
 30
0
 11
162.9014242534941
 21
353.3871188352
 31
0
  0
LINE
  8
1
 62
2
 10
163.0169242534941
 20
354.5871188352
 30
0
 11
163.0169242534941
 21
353.9871188352
 31
0
  0
LINE
  8
1
 62
2
 10
162.9014242534941
 20
355.1871188352
 30
0
 11
163.0169242534941
 21
354.5871188352
 31
0
  0
LINE
  8
1
 62
2
 10
162.6704242534941
 20
355.7871188352
 30
0
 11
162.9014242534941
 21
355.1871188352
 31
0
  0
LINE
  8
1
 62
2
 10
160.3604242534941
 20
355.0871188352
 30
0
 11
160.7001301358471
 21
355.0871188352
 31
0
  0
LINE
  8
1
 62
2
 10
160.3604242534941
 20
355.0871188352
 30
0
 11
160.3604242534941
 21
352.7871188352
 31
0
  0
LINE
  8
1
 62
2
 10
160.9039536652588
 20
354.3871188352
 30
0
 11
160.7001301358471
 21
353.7871188352
 31
0
  0
LINE
  8
1
 62
2
 10
161.7871889593765
 20
354.6871188352
 30
0
 11
162.0589536652588
 21
354.6871188352
 31
0
  0
LINE
  8
1
 62
2
 10
161.7871889593765
 20
352.7871188352
 30
0
 11
161.3116007240824
 21
353.0871188352
 31
0
  0
LINE
  8
1
 62
2
 10
161.7871889593765
 20
354.6871188352
 30
0
 11
161.7871889593765
 21
352.7871188352
 31
0
  0
LINE
  8
1
 62
2
 10
161.1757183711412
 20
354.6871188352
 30
0
 11
161.7871889593765
 21
354.6871188352
 31
0
  0
LINE
  8
1
 62
2
 10
161.1757183711412
 20
355.5871188352
 30
0
 11
161.9910124887882
 21
355.5871188352
 31
0
  0
LINE
  8
1
 62
2
 10
160.9039536652588
 20
354.3871188352
 30
0
 11
160.9039536652588
 21
352.7871188352
 31
0
  0
LINE
  8
1
 62
2
 10
161.1077771946706
 20
354.9871188352
 30
0
 11
160.9039536652588
 21
354.3871188352
 31
0
  0
LINE
  8
1
 62
2
 10
161.0398360182
 20
355.7871188352
 30
0
 11
160.7001301358471
 21
354.7871188352
 31
0
  0
LINE
  8
1
 62
2
 10
160.3604242534941
 20
355.0871188352
 30
0
 11
160.7001301358471
 21
353.9871188352
 31
0
  0
LINE
  8
1
 62
2
 10
160.3604242534941
 20
355.0871188352
 30
0
 11
160.0207183711412
 21
353.6871188352
 31
0
  0
LINE
  8
1
 62
2
 10
160.3604242534941
 20
355.7871188352
 30
0
 11
160.3604242534941
 21
355.0871188352
 31
0
  0
LINE
  8
1
 62
2
 10
160.0207183711412
 20
355.0871188352
 30
0
 11
160.3604242534941
 21
355.0871188352
 31
0
  0
LINE
  8
1
 62
2
 10
157.8737771946706
 20
352.7871188352
 30
0
 11
159.2597771946706
 21
352.7871188352
 31
0
  0
LINE
  8
1
 62
2
 10
159.1442771946706
 20
354.7371188352
 30
0
 11
157.8737771946706
 21
352.7871188352
 31
0
  0
LINE
  8
1
 62
2
 10
159.2597771946706
 20
355.0371188352
 30
0
 11
159.1442771946706
 21
354.7371188352
 31
0
  0
LINE
  8
1
 62
2
 10
159.2597771946706
 20
355.3371188352
 30
0
 11
159.2597771946706
 21
355.0371188352
 31
0
  0
LINE
  8
1
 62
2
 10
159.1442771946706
 20
355.5621188352
 30
0
 11
159.2597771946706
 21
355.3371188352
 31
0
  0
LINE
  8
1
 62
2
 10
158.9710271946706
 20
355.7121188352
 30
0
 11
159.1442771946706
 21
355.5621188352
 31
0
  0
LINE
  8
1
 62
2
 10
158.7400271946706
 20
355.7871188352
 30
0
 11
158.9710271946706
 21
355.7121188352
 31
0
  0
LINE
  8
1
 62
2
 10
158.3935271946706
 20
355.7871188352
 30
0
 11
158.7400271946706
 21
355.7871188352
 31
0
  0
LINE
  8
1
 62
2
 10
158.1625271946706
 20
355.7121188352
 30
0
 11
158.3935271946706
 21
355.7871188352
 31
0
  0
LINE
  8
1
 62
2
 10
157.9892771946706
 20
355.5621188352
 30
0
 11
158.1625271946706
 21
355.7121188352
 31
0
  0
LINE
  8
1
 62
2
 10
157.8737771946706
 20
355.3371188352
 30
0
 11
157.9892771946706
 21
355.5621188352
 31
0
  0
LINE
  8
1
 62
2
 10
156.2431889593765
 20
355.7871188352
 30
0
 11
157.2623066064353
 21
355.7871188352
 31
0
  0
LINE
  8
1
 62
2
 10
156.2431889593765
 20
355.0871188352
 30
0
 11
156.2431889593765
 21
352.7871188352
 31
0
  0
LINE
  8
1
 62
2
 10
156.2431889593765
 20
355.0871188352
 30
0
 11
157.1943654299647
 21
354.0871188352
 31
0
  0
LINE
  8
1
 62
2
 10
156.2431889593765
 20
355.7871188352
 30
0
 11
156.2431889593765
 21
355.0871188352
 31
0
  0
LINE
  8
1
 62
2
 10
155.2240713123177
 20
355.7871188352
 30
0
 11
156.2431889593765
 21
355.7871188352
 31
0
  0
LINE
  8
1
 62
2
 10
153.2537771946706
 20
355.1871188352
 30
0
 11
153.5934830770235
 21
355.1871188352
 31
0
  0
LINE
  8
1
 62
2
 10
153.2537771946706
 20
355.1871188352
 30
0
 11
153.2537771946706
 21
354.0871188352
 31
0
  0
LINE
  8
1
 62
2
 10
154.1370124887882
 20
355.1871188352
 30
0
 11
154.5446595476118
 21
355.1871188352
 31
0
  0
LINE
  8
1
 62
2
 10
154.1370124887882
 20
355.1871188352
 30
0
 11
154.1370124887882
 21
354.0871188352
 31
0
  0
LINE
  8
1
 62
2
 10
152.9820124887882
 20
353.1871188352
 30
0
 11
152.9820124887882
 21
353.2871188352
 31
0
  0
LINE
  8
1
 62
2
 10
154.4087771946706
 20
353.2871188352
 30
0
 11
154.4087771946706
 21
352.7871188352
 31
0
  0
LINE
  8
1
 62
2
 10
152.9820124887882
 20
353.2871188352
 30
0
 11
154.4087771946706
 21
353.2871188352
 31
0
  0
LINE
  8
1
 62
2
 10
152.9820124887882
 20
352.7871188352
 30
0
 11
152.9820124887882
 21
353.1871188352
 31
0
  0
LINE
  8
1
 62
2
 10
154.4087771946706
 20
352.7871188352
 30
0
 11
152.9820124887882
 21
352.7871188352
 31
0
  0
LINE
  8
1
 62
2
 10
154.4087771946706
 20
353.7871188352
 30
0
 11
154.4087771946706
 21
353.2871188352
 31
0
  0
LINE
  8
1
 62
2
 10
152.9820124887882
 20
353.7871188352
 30
0
 11
154.4087771946706
 21
353.7871188352
 31
0
  0
LINE
  8
1
 62
2
 10
152.9820124887882
 20
353.1871188352
 30
0
 11
152.9820124887882
 21
353.7871188352
 31
0
  0
LINE
  8
1
 62
2
 10
154.1370124887882
 20
355.1871188352
 30
0
 11
154.6126007240824
 21
354.1871188352
 31
0
  0
LINE
  8
1
 62
2
 10
154.1370124887882
 20
355.1871188352
 30
0
 11
153.7293654299647
 21
354.1871188352
 31
0
  0
LINE
  8
1
 62
2
 10
154.1370124887882
 20
355.5871188352
 30
0
 11
154.1370124887882
 21
355.1871188352
 31
0
  0
LINE
  8
1
 62
2
 10
153.7293654299647
 20
355.1871188352
 30
0
 11
154.1370124887882
 21
355.1871188352
 31
0
  0
LINE
  8
1
 62
2
 10
153.2537771946706
 20
355.1871188352
 30
0
 11
153.5934830770235
 21
354.4871188352
 31
0
  0
LINE
  8
1
 62
2
 10
153.2537771946706
 20
355.1871188352
 30
0
 11
152.8461301358471
 21
354.1871188352
 31
0
  0
LINE
  8
1
 62
2
 10
153.2537771946706
 20
355.5871188352
 30
0
 11
153.2537771946706
 21
355.1871188352
 31
0
  0
LINE
  8
1
 62
2
 10
152.8461301358471
 20
355.1871188352
 30
0
 11
153.2537771946706
 21
355.1871188352
 31
0
  0
LINE
  8
1
 62
2
 10
152.7102477829059
 20
355.6871188352
 30
0
 11
154.6126007240824
 21
355.6871188352
 31
0
  0
LINE
  8
1
 62
2
 10
152.7102477829059
 20
353.7871188352
 30
0
 11
152.7102477829059
 21
355.6871188352
 31
0
  0
LINE
  8
1
 62
2
 10
152.5064242534941
 20
352.9871188352
 30
0
 11
152.7102477829059
 21
353.7871188352
 31
0
  0
LINE
  8
1
 62
2
 10
150.5361301358471
 20
355.6871188352
 30
0
 11
151.0796595476118
 21
355.6871188352
 31
0
  0
LINE
  8
1
 62
2
 10
151.0796595476118
 20
355.6871188352
 30
0
 11
151.8270124887882
 21
355.6871188352
 31
0
  0
LINE
  8
1
 62
2
 10
151.7590713123176
 20
353.5871188352
 30
0
 11
151.7590713123176
 21
352.7871188352
 31
0
  0
LINE
  8
1
 62
2
 10
151.0796595476118
 20
353.5871188352
 30
0
 11
151.7590713123176
 21
353.5871188352
 31
0
  0
LINE
  8
1
 62
2
 10
151.0796595476118
 20
355.6871188352
 30
0
 11
151.0796595476118
 21
353.5871188352
 31
0
  0
LINE
  8
1
 62
2
 10
150.5361301358471
 20
354.2871188352
 30
0
 11
150.060541900553
 21
353.5871188352
 31
0
  0
LINE
  8
1
 62
2
 10
150.5361301358471
 20
355.6871188352
 30
0
 11
150.5361301358471
 21
354.2871188352
 31
0
  0
LINE
  8
1
 62
2
 10
149.8567183711412
 20
352.7871188352
 30
0
 11
149.8567183711412
 21
354.8871188352
 31
0
  0
LINE
  8
1
 62
2
 10
151.7590713123176
 20
352.7871188352
 30
0
 11
149.8567183711412
 21
352.7871188352
 31
0
  0
LINE
  8
1
 62
2
 10
151.7590713123176
 20
354.8871188352
 30
0
 11
151.7590713123176
 21
353.5871188352
 31
0
  0
LINE
  8
1
 62
2
 10
149.8567183711412
 20
354.8871188352
 30
0
 11
151.7590713123176
 21
354.8871188352
 31
0
  0
LINE
  8
1
 62
2
 10
149.7887771946706
 20
355.6871188352
 30
0
 11
150.5361301358471
 21
355.6871188352
 31
0
  0
LINE
  8
1
 62
2
 10
148.7968360182
 20
353.3871188352
 30
0
 11
149.0278360182
 21
352.7871188352
 31
0
  0
LINE
  8
1
 62
2
 10
148.6813360182
 20
353.9871188352
 30
0
 11
148.7968360182
 21
353.3871188352
 31
0
  0
LINE
  8
1
 62
2
 10
148.6813360182
 20
354.5871188352
 30
0
 11
148.6813360182
 21
353.9871188352
 31
0
  0
LINE
  8
1
 62
2
 10
148.7968360182
 20
355.1871188352
 30
0
 11
148.6813360182
 21
354.5871188352
 31
0
  0
LINE
  8
1
 62
2
 10
149.0278360182
 20
355.7871188352
 30
0
 11
148.7968360182
 21
355.1871188352
 31
0
  0
LINE
  8
1
 62
7
 10
154.151554257
 20
680.7853635638001
 30
0
 11
148.6667236689
 21
671.2853629380001
 31
0
  0
LINE
  8
1
 62
7
 10
148.6667236689
 20
671.2853629380001
 30
0
 11
154.151554257
 21
661.7853585868
 31
0
  0
LINE
  8
1
 62
7
 10
275.2578398589
 20
671.2853629380001
 30
0
 11
269.773012996
 21
680.7853635638001
 31
0
  0
LINE
  8
1
 62
7
 10
269.773012996
 20
680.7853635638001
 30
0
 11
258.8033592704
 21
680.7853635638001
 31
0
  0
LINE
  8
1
 62
7
 10
269.773012996
 20
661.7853585868
 30
0
 11
275.2578398589
 21
671.2853629380001
 31
0
  0
LINE
  8
1
 62
7
 10
258.8033592704
 20
661.7853585868
 30
0
 11
269.773012996
 21
661.7853585868
 31
0
  0
LINE
  8
1
 62
7
 10
258.8033592704
 20
680.7853635638001
 30
0
 11
253.3185286823
 21
671.2853629380001
 31
0
  0
LINE
  8
1
 62
7
 10
253.3185286823
 20
671.2853629380001
 30
0
 11
258.8033592704
 21
661.7853585868
 31
0
  0
LINE
  8
1
 62
7
 10
170.6060348455
 20
671.2853629380001
 30
0
 11
165.1212079826
 21
680.7853635638001
 31
0
  0
LINE
  8
1
 62
7
 10
165.1212079826
 20
680.7853635638001
 30
0
 11
154.151554257
 21
680.7853635638001
 31
0
  0
LINE
  8
1
 62
7
 10
165.1212079826
 20
661.7853585868
 30
0
 11
170.6060348455
 21
671.2853629380001
 31
0
  0
LINE
  8
1
 62
7
 10
154.151554257
 20
661.7853585868
 30
0
 11
165.1212079826
 21
661.7853585868
 31
0
  0
LINE
  8
1
 62
7
 10
258.8033592704
 20
785.4371667146
 30
0
 11
253.3185286823
 21
775.9371660888
 31
0
  0
LINE
  8
1
 62
7
 10
253.3185286823
 20
775.9371660888
 30
0
 11
258.8033592704
 21
766.4371617376
 31
0
  0
LINE
  8
1
 62
7
 10
275.2578398589
 20
775.9371660888
 30
0
 11
269.773012996
 21
785.4371667146
 31
0
  0
LINE
  8
1
 62
7
 10
269.773012996
 20
785.4371667146
 30
0
 11
258.8033592704
 21
785.4371667146
 31
0
  0
LINE
  8
1
 62
7
 10
269.773012996
 20
766.4371617376
 30
0
 11
275.2578398589
 21
775.9371660888
 31
0
  0
LINE
  8
1
 62
7
 10
258.8033592704
 20
766.4371617376
 30
0
 11
269.773012996
 21
766.4371617376
 31
0
  0
LINE
  8
1
 62
7
 10
170.6060348455
 20
775.9371660888
 30
0
 11
165.1212079826
 21
785.4371667146
 31
0
  0
LINE
  8
1
 62
7
 10
154.151554257
 20
785.4371667146
 30
0
 11
148.6667236689
 21
775.9371660888
 31
0
  0
LINE
  8
1
 62
7
 10
165.1212079826
 20
785.4371667146
 30
0
 11
154.151554257
 21
785.4371667146
 31
0
  0
LINE
  8
1
 62
7
 10
165.1212079826
 20
766.4371617376
 30
0
 11
170.6060348455
 21
775.9371660888
 31
0
  0
LINE
  8
1
 62
7
 10
154.151554257
 20
766.4371617376
 30
0
 11
165.1212079826
 21
766.4371617376
 31
0
  0
LINE
  8
1
 62
7
 10
148.6667236689
 20
775.9371660888
 30
0
 11
154.151554257
 21
766.4371617376
 31
0
  0
LINE
  8
0
 62
7
 10
158.9622820917
 20
577.0244262131389
 30
0
 11
158.9622820917
 21
575.5273837613
 31
0
  0
LINE
  8
0
 62
7
 10
196.9622818011
 20
557.5273845361
 30
0
 11
253.3185283843
 21
557.5273845361
 31
0
  0
LINE
  8
1
 62
7
 10
192.8713253889273
 20
573.7605083750001
 30
0
 11
196.9622818011
 21
557.5273845361
 31
0
  0
LINE
  8
1
 62
7
 10
231.9622810188
 20
493.0273879336
 30
0
 11
219.9622818458
 21
489.027387278
 31
0
  0
LINE
  8
1
 62
7
 10
219.9622818458
 20
497.027384864
 30
0
 11
231.9622810188
 21
493.0273879336
 31
0
  0
LINE
  8
1
 62
2
  6
DASHDOT
 10
567.7594563803452
 20
448.0273861455
 30
0
 11
602.5633071908
 21
448.0273861455
 31
0
  0
LINE
  8
1
 62
2
  6
DASHDOT
 10
555.6433626339335
 20
389.3264332408195
 30
0
 11
538.5749320453488
 21
406.1985619292494
 31
0
  0
LINE
  8
1
 62
2
  6
DASHDOT
 10
555.6433735357718
 20
506.7283280215034
 30
0
 11
538.5749441945637
 21
489.8561980711841
 31
0
  0
LINE
  8
1
 62
2
  6
DASHDOT
 10
436.8755371754818
 20
506.7283246906489
 30
0
 11
453.9439677640667
 21
489.856196002219
 31
0
  0
LINE
  8
1
 62
2
  6
DASHDOT
 10
436.8755567569827
 20
389.3264277910276
 30
0
 11
453.9439860981909
 21
406.198557741347
 31
0
  0
LINE
  8
1
 62
2
  6
DASHDOT
 10
211.9622812982
 20
808.3684221147
 30
0
 11
211.9622812982
 21
642.0496776937
 31
0
  0
LINE
  8
1
 62
2
  6
DASHDOT
 10
68.7861764207
 20
723.611263582
 30
0
 11
336.9622814659
 21
723.611263582
 31
0
  0
LINE
  8
1
 62
2
  6
DASHDOT
 10
496.2594570019
 20
592.0372195737
 30
0
 11
496.2594570019
 21
356.1209328668
 31
0
  0
LINE
  8
1
 62
2
  6
DASHDOT
 10
386.4031960615
 20
448.0273861455
 30
0
 11
567.7594563803452
 21
448.0273861455
 31
0
  0
LINE
  8
0
 62
2
 10
384.4783454497
 20
735.6141518168
 30
0
 11
384.4783454497
 21
695.6141502968
 31
0
  0
LINE
  8
0
 62
2
 10
384.4783454497
 20
695.6141502968
 30
0
 11
594.6983378798999
 21
695.6141502968
 31
0
  0
LINE
  8
0
 62
2
 10
594.6983378798999
 20
695.6141502968
 30
0
 11
594.6983378798999
 21
735.6141518168
 31
0
  0
LINE
  8
0
 62
2
 10
594.6983378798999
 20
735.6141518168
 30
0
 11
384.4783454497
 21
735.6141518168
 31
0
  0
LINE
  8
0
 62
2
 10
419.5150108547
 20
735.6141518168
 30
0
 11
419.5150108547
 21
695.6141502968
 31
0
  0
LINE
  8
0
 62
2
 10
454.5516762597
 20
735.6141518168
 30
0
 11
454.5516762597
 21
695.6141502968
 31
0
  0
LINE
  8
0
 62
2
 10
489.5883416649
 20
735.6141518168
 30
0
 11
489.5883416649
 21
695.6141502968
 31
0
  0
LINE
  8
0
 62
2
 10
524.6250070699
 20
735.6141518168
 30
0
 11
524.6250070699
 21
695.6141502968
 31
0
  0
LINE
  8
0
 62
2
 10
559.6616724749
 20
725.6141514367999
 30
0
 11
559.6616724749
 21
695.6141502968
 31
0
  0
LINE
  8
0
 62
2
 10
524.6250070699
 20
725.6141514367999
 30
0
 11
594.6983378798999
 21
725.6141514367999
 31
0
  0
LINE
  8
0
 62
2
 10
384.4783454497
 20
715.6141510568001
 30
0
 11
594.6983378798999
 21
715.6141510568001
 31
0
  0
LINE
  8
0
 62
2
 10
384.4783454497
 20
705.6141506768
 30
0
 11
594.6983378798999
 21
705.6141506768
 31
0
  0
LINE
  8
0
 62
7
 10
486.1076162555
 20
550.5273826616
 30
0
 11
486.1076162555
 21
557.5273819463
 31
0
  0
LINE
  8
0
 62
7
 10
506.4112977483
 20
557.5273819463
 30
0
 11
506.4112977483
 21
550.5273826616
 31
0
  0
LINE
  8
0
 62
7
 10
467.3532960364
 20
550.5273826616
 30
0
 11
467.3532960364
 21
547.5273840325
 31
0
  0
LINE
  8
0
 62
7
 10
525.1656179675
 20
550.5273826616
 30
0
 11
525.1656179675
 21
547.5273840325
 31
0
  0
LINE
  8
0
 62
7
 10
484.2878287085
 20
544.0273843901
 30
0
 11
484.2878287085
 21
547.5273840325
 31
0
  0
LINE
  8
0
 62
7
 10
508.2310852953
 20
544.0273843901
 30
0
 11
508.2310852953
 21
547.5273840325
 31
0
  0
LINE
  8
0
 62
7
 10
454.0784457126
 20
550.5273826616
 30
0
 11
454.0784457126
 21
547.5273840325
 31
0
  0
LINE
  8
0
 62
7
 10
432.2210592576
 20
536.0273830788
 30
0
 11
432.2210592576
 21
547.5273840325
 31
0
  0
LINE
  8
0
 62
7
 10
560.2978547462
 20
547.5273840325
 30
0
 11
560.2978547462
 21
536.0273830788
 31
0
  0
LINE
  8
0
 62
7
 10
538.4404664286
 20
550.5273826616
 30
0
 11
538.4404664286
 21
547.5273840325
 31
0
  0
LINE
  8
0
 62
7
 10
475.2858528295
 20
544.0273843901
 30
0
 11
475.2858528295
 21
547.5273840325
 31
0
  0
LINE
  8
0
 62
7
 10
517.2330593118001
 20
544.0273843901
 30
0
 11
517.2330593118001
 21
547.5273840325
 31
0
  0
LINE
  8
0
 62
7
 10
440.3912690827
 20
547.5273840325
 30
0
 11
440.3912690827
 21
536.0273830788
 31
0
  0
LINE
  8
0
 62
7
 10
552.1276449212
 20
536.0273830788
 30
0
 11
552.1276449212
 21
547.5273840325
 31
0
  0
LINE
  8
0
 62
7
 10
432.4388993331
 20
521.0273862080001
 30
0
 11
432.4388993331
 21
536.0273830788
 31
0
  0
LINE
  8
0
 62
7
 10
560.0800146707001
 20
521.0273862080001
 30
0
 11
560.0800146707001
 21
536.0273830788
 31
0
  0
LINE
  8
0
 62
7
 10
552.0310779461
 20
522.4486664133
 30
0
 11
552.0310779461
 21
536.0273830788
 31
0
  0
LINE
  8
0
 62
7
 10
440.4878360578
 20
522.4486664133
 30
0
 11
440.4878360578
 21
536.0273830788
 31
0
  0
LINE
  8
0
 62
7
 10
484.6958206394
 20
575.0273876087
 30
0
 11
484.6958206394
 21
577.0273767607
 31
0
  0
LINE
  8
0
 62
7
 10
507.8230933645
 20
577.0273767607
 30
0
 11
507.8230933645
 21
575.0273876087
 31
0
  0
LINE
  8
0
 62
7
 10
487.9737426885
 20
577.0273767607
 30
0
 11
487.9737426885
 21
575.0273876087
 31
0
  0
LINE
  8
0
 62
7
 10
504.5451713153
 20
575.0273876087
 30
0
 11
504.5451713153
 21
577.0273767607
 31
0
  0
LINE
  8
0
 62
7
 10
426.1591029712
 20
547.5273840325
 30
0
 11
432.2210592576
 21
547.5273840325
 31
0
  0
LINE
  8
0
 62
7
 10
426.1591029712
 20
544.0273843901
 30
0
 11
426.1591029712
 21
547.5273840325
 31
0
  0
LINE
  8
0
 62
7
 10
424.2594582387
 20
544.0273843901
 30
0
 11
426.1591029712
 21
544.0273843901
 31
0
  0
LINE
  8
0
 62
7
 10
566.3598110327
 20
544.0273843901
 30
0
 11
568.2594557651
 21
544.0273843901
 31
0
  0
LINE
  8
0
 62
7
 10
566.3598110327
 20
544.0273843901
 30
0
 11
566.3598110327
 21
547.5273840325
 31
0
  0
LINE
  8
0
 62
7
 10
560.2978547462
 20
547.5273840325
 30
0
 11
566.3598110327
 21
547.5273840325
 31
0
  0
LINE
  8
0
 62
7
 10
431.7433652827
 20
550.5273826616
 30
0
 11
488.6713498631
 21
550.5273826616
 31
0
  0
LINE
  8
0
 62
7
 10
503.8475641408
 20
550.5273826616
 30
0
 11
560.7755487212
 21
550.5273826616
 31
0
  0
LINE
  8
0
 62
7
 10
453.4335569837
 20
557.5273819463
 30
0
 11
539.0853551575
 21
557.5273819463
 31
0
  0
LINE
  8
0
 62
7
 10
488.6713498631
 20
544.0273843901
 30
0
 11
488.6713498631
 21
550.5273826616
 31
0
  0
LINE
  8
0
 62
7
 10
503.8475641408
 20
550.5273826616
 30
0
 11
503.8475641408
 21
544.0273843901
 31
0
  0
LINE
  8
0
 62
7
 10
526.3426755914001
 20
536.0273830788
 30
0
 11
568.2594557651
 21
536.0273830788
 31
0
  0
LINE
  8
0
 62
7
 10
424.2594582387
 20
536.0273830788
 30
0
 11
466.1762384125
 21
536.0273830788
 31
0
  0
LINE
  8
0
 62
7
 10
508.2310852953
 20
547.5273840325
 30
0
 11
552.1276449212
 21
547.5273840325
 31
0
  0
LINE
  8
0
 62
7
 10
523.7594549903
 20
544.0273843901
 30
0
 11
523.7594549903
 21
547.5273840325
 31
0
  0
LINE
  8
0
 62
7
 10
468.7594571509
 20
544.0273843901
 30
0
 11
523.7594549903
 21
544.0273843901
 31
0
  0
LINE
  8
0
 62
7
 10
468.7594571509
 20
544.0273843901
 30
0
 11
468.7594571509
 21
547.5273840325
 31
0
  0
LINE
  8
0
 62
7
 10
440.3912690827
 20
547.5273840325
 30
0
 11
484.2878287085
 21
547.5273840325
 31
0
  0
LINE
  8
0
 62
7
 10
539.0853551575
 20
558.5273839729
 30
0
 11
539.0853551575
 21
550.5273826616
 31
0
  0
LINE
  8
0
 62
7
 10
558.0853601345
 20
558.5273839729
 30
0
 11
539.0853551575
 21
558.5273839729
 31
0
  0
LINE
  8
0
 62
7
 10
558.0853601345
 20
558.5273839729
 30
0
 11
558.0853601345
 21
550.5273826616
 31
0
  0
LINE
  8
0
 62
7
 10
548.5853557833
 20
557.6788746016
 30
0
 11
548.5853557833
 21
550.5273826616
 31
0
  0
LINE
  8
0
 62
7
 10
434.4335538694
 20
558.5273839729
 30
0
 11
434.4335538694
 21
550.5273826616
 31
0
  0
LINE
  8
0
 62
7
 10
453.4335569837
 20
558.5273839729
 30
0
 11
434.4335538694
 21
558.5273839729
 31
0
  0
LINE
  8
0
 62
7
 10
453.4335569837
 20
558.5273839729
 30
0
 11
453.4335569837
 21
550.5273826616
 31
0
  0
LINE
  8
0
 62
7
 10
443.9335544952
 20
557.6788746016
 30
0
 11
443.9335544952
 21
550.5273826616
 31
0
  0
LINE
  8
0
 62
7
 10
558.0853601345
 20
517.5008177953
 30
0
 11
558.0853601345
 21
521.0273862080001
 31
0
  0
LINE
  8
0
 62
7
 10
434.4335538694
 20
517.5008177953
 30
0
 11
434.4335538694
 21
521.0273862080001
 31
0
  0
LINE
  8
0
 62
7
 10
495.9387430348
 20
423.0589755075
 30
0
 11
496.2594570019
 21
423.0273850457
 31
0
  0
LINE
  8
0
 62
7
 10
424.2594582387
 20
521.0273862080001
 30
0
 11
438.6400138387
 21
521.0273862080001
 31
0
  0
LINE
  8
0
 62
7
 10
568.2594557651
 20
521.0273862080001
 30
0
 11
553.8788964399
 21
521.0273862080001
 31
0
  0
LINE
  8
0
 62
7
 10
448.8358334997
 20
368.0273853438
 30
0
 11
543.6830823668
 21
368.0273853438
 31
0
  0
LINE
  8
0
 62
7
 10
523.2594577023
 20
585.027378072
 30
0
 11
523.2594577023
 21
584.0273909466
 31
0
  0
LINE
  8
0
 62
7
 10
469.2594563016
 20
585.027378072
 30
0
 11
469.2594563016
 21
584.0273909466
 31
0
  0
LINE
  8
0
 62
7
 10
507.683853189
 20
585.027378072
 30
0
 11
507.683853189
 21
584.0273909466
 31
0
  0
LINE
  8
0
 62
7
 10
510.396868492
 20
585.027378072
 30
0
 11
510.396868492
 21
584.0273909466
 31
0
  0
LINE
  8
0
 62
7
 10
516.6838546642
 20
585.027378072
 30
0
 11
516.6838546642
 21
584.0273909466
 31
0
  0
LINE
  8
0
 62
7
 10
519.3968681046
 20
585.027378072
 30
0
 11
519.3968681046
 21
584.0273909466
 31
0
  0
LINE
  8
0
 62
7
 10
508.0879186639
 20
585.027378072
 30
0
 11
508.0879186639
 21
584.0273909466
 31
0
  0
LINE
  8
0
 62
7
 10
517.0879182764001
 20
585.027378072
 30
0
 11
517.0879182764001
 21
584.0273909466
 31
0
  0
LINE
  8
0
 62
7
 10
510.8586592027
 20
585.027378072
 30
0
 11
510.8586592027
 21
584.0273909466
 31
0
  0
LINE
  8
0
 62
7
 10
519.8586588153
 20
585.027378072
 30
0
 11
519.8586588153
 21
584.0273909466
 31
0
  0
LINE
  8
0
 62
7
 10
507.0488923588
 20
585.027378072
 30
0
 11
507.0488923588
 21
584.0273909466
 31
0
  0
LINE
  8
0
 62
7
 10
509.819631035
 20
585.027378072
 30
0
 11
509.819631035
 21
584.0273909466
 31
0
  0
LINE
  8
0
 62
7
 10
516.0488901087
 20
585.027378072
 30
0
 11
516.0488901087
 21
584.0273909466
 31
0
  0
LINE
  8
0
 62
7
 10
518.8196306475001
 20
585.027378072
 30
0
 11
518.8196306475001
 21
584.0273909466
 31
0
  0
LINE
  8
0
 62
7
 10
505.4158685156
 20
585.027378072
 30
0
 11
505.4158685156
 21
584.0273909466
 31
0
  0
LINE
  8
0
 62
7
 10
506.6448268839
 20
585.027378072
 30
0
 11
506.6448268839
 21
584.0273909466
 31
0
  0
LINE
  8
0
 62
7
 10
509.4155655601
 20
585.027378072
 30
0
 11
509.4155655601
 21
584.0273909466
 31
0
  0
LINE
  8
0
 62
7
 10
508.1866090544
 20
585.027378072
 30
0
 11
508.1866090544
 21
584.0273909466
 31
0
  0
LINE
  8
0
 62
7
 10
512.2440276095
 20
585.027378072
 30
0
 11
512.2440276095
 21
584.0273909466
 31
0
  0
LINE
  8
0
 62
7
 10
511.0150711038
 20
585.027378072
 30
0
 11
511.0150711038
 21
584.0273909466
 31
0
  0
LINE
  8
0
 62
7
 10
515.6448264965
 20
585.027378072
 30
0
 11
515.6448264965
 21
584.0273909466
 31
0
  0
LINE
  8
0
 62
7
 10
514.4158681282
 20
585.027378072
 30
0
 11
514.4158681282
 21
584.0273909466
 31
0
  0
LINE
  8
0
 62
7
 10
518.41556331
 20
585.027378072
 30
0
 11
518.41556331
 21
584.0273909466
 31
0
  0
LINE
  8
0
 62
7
 10
517.186608667
 20
585.027378072
 30
0
 11
517.186608667
 21
584.0273909466
 31
0
  0
LINE
  8
0
 62
7
 10
521.244027222
 20
585.027378072
 30
0
 11
521.244027222
 21
584.0273909466
 31
0
  0
LINE
  8
0
 62
7
 10
520.0150725790001
 20
585.027378072
 30
0
 11
520.0150725790001
 21
584.0273909466
 31
0
  0
LINE
  8
0
 62
7
 10
501.2594559588
 20
585.027378072
 30
0
 11
501.2594559588
 21
584.0273909466
 31
0
  0
LINE
  8
0
 62
7
 10
469.2594563016
 20
585.027378072
 30
0
 11
523.2594577023
 21
585.027378072
 31
0
  0
LINE
  8
0
 62
7
 10
471.2594566294
 20
585.027378072
 30
0
 11
471.2594566294
 21
584.0273909466
 31
0
  0
LINE
  8
0
 62
7
 10
450.2594751837
 20
584.0273909466
 30
0
 11
542.2594350949
 21
584.0273909466
 31
0
  0
LINE
  8
0
 62
7
 10
486.2594572254
 20
575.0273876087
 30
0
 11
486.2594572254
 21
577.0273767607
 31
0
  0
LINE
  8
0
 62
7
 10
506.2594567784
 20
577.0273767607
 30
0
 11
506.2594567784
 21
575.0273876087
 31
0
  0
LINE
  8
0
 62
7
 10
484.6958206394
 20
577.0273767607
 30
0
 11
507.8230933645
 21
577.0273767607
 31
0
  0
LINE
  8
0
 62
7
 10
484.6958206394
 20
575.0273876087
 30
0
 11
507.8230933645
 21
575.0273876087
 31
0
  0
LINE
  8
0
 62
7
 10
431.7433652827
 20
550.5273826616
 30
0
 11
431.7433652827
 21
547.5273840325
 31
0
  0
LINE
  8
0
 62
7
 10
560.7755487212
 20
547.5273840325
 30
0
 11
560.7755487212
 21
550.5273826616
 31
0
  0
LINE
  8
0
 62
7
 10
504.2594564506
 20
550.5273826616
 30
0
 11
504.2594564506
 21
557.5273819463
 31
0
  0
LINE
  8
0
 62
7
 10
488.2594566219
 20
557.5273819463
 30
0
 11
488.2594566219
 21
550.5273826616
 31
0
  0
LINE
  8
0
 62
7
 10
424.2594582387
 20
544.0273843901
 30
0
 11
424.2594582387
 21
521.0273862080001
 31
0
  0
LINE
  8
0
 62
7
 10
568.2594557651
 20
521.0273862080001
 30
0
 11
568.2594557651
 21
544.0273843901
 31
0
  0
LINE
  8
0
 62
7
 10
443.2594557651
 20
564.0273802178
 30
0
 11
408.1830461868
 21
564.0273802178
 31
0
  0
LINE
  8
0
 62
7
 10
406.9162090668
 20
559.0273849861
 30
0
 11
443.2594557651
 21
559.0273849861
 31
0
  0
LINE
  8
0
 62
7
 10
443.2594557651
 20
577.0273715281001
 30
0
 11
443.2594557651
 21
558.5273839729
 31
0
  0
LINE
  8
0
 62
7
 10
549.2594545134
 20
558.5273839729
 30
0
 11
549.2594545134
 21
577.0273715281001
 31
0
  0
LINE
  8
0
 62
7
 10
184.4622819129
 20
653.5109095513
 30
0
 11
188.7122812125
 21
652.9672630369
 31
0
  0
LINE
  8
0
 62
7
 10
188.7122812125
 20
657.7609069883
 30
0
 11
184.4622819129
 21
653.5109095513
 31
0
  0
LINE
  8
0
 62
7
 10
239.4622816149
 20
653.5109095513
 30
0
 11
232.9358900452001
 21
660.0373011209999
 31
0
  0
LINE
  8
0
 62
7
 10
141.5309301022
 20
698.6112632095
 30
0
 11
152.2379162327
 21
698.6112632095
 31
0
  0
LINE
  8
0
 62
7
 10
275.53624229035
 20
702.63765537275
 30
0
 11
282.062633932
 21
696.1112637311001
 31
0
  0
LINE
  8
0
 62
7
 10
152.2379142303
 20
748.6112639546
 30
0
 11
141.5309301022
 21
748.6112639546
 31
0
  0
LINE
  8
0
 62
7
 10
282.062633932
 20
751.1112615704
 30
0
 11
275.536242092
 21
744.5848697304
 31
0
  0
LINE
  8
0
 62
7
 10
232.9358900453042
 20
787.1852260431042
 30
0
 11
239.4622816149
 21
793.7116176128
 31
0
  0
LINE
  8
0
 62
7
 10
184.4622819129
 20
793.7116176128
 30
0
 11
190.9886735500958
 21
787.1852259755042
 31
0
  0
LINE
  8
0
 62
7
 10
152.5019696358
 20
706.047912967
 30
0
 11
151.6352659467
 21
709.4112634897
 31
0
  0
LINE
  8
0
 62
7
 10
152.5019696358
 20
706.047912967
 30
0
 11
152.5019696358
 21
709.4112634897
 31
0
  0
LINE
  8
0
 62
7
 10
151.6192509237
 20
737.7445176482
 30
0
 11
152.5019696358
 21
741.1746122181
 31
0
  0
LINE
  8
0
 62
7
 10
152.5019696358
 20
737.8112636744
 30
0
 11
152.5019696358
 21
741.1746122181
 31
0
  0
LINE
  8
0
 62
7
 10
270.9622821215
 20
728.8612630456
 30
0
 11
269.7371757034
 21
728.7163213133
 31
0
  0
LINE
  8
0
 62
7
 10
265.5084310475
 20
713.4594228356
 30
0
 11
265.5407479409
 21
713.6089345678
 31
0
  0
LINE
  8
0
 62
7
 10
265.5407479409
 20
733.6135916649999
 30
0
 11
265.5084310475
 21
733.7631043284
 31
0
  0
LINE
  8
0
 62
7
 10
271.7122799161
 20
718.6678331583
 30
0
 11
271.7122799161
 21
728.5546940058
 31
0
  0
LINE
  8
0
 62
7
 10
270.2122768763
 20
728.5546940058
 30
0
 11
270.2122768763
 21
718.6678331583
 31
0
  0
LINE
  8
0
 62
7
 10
269.7588866952
 20
718.7582385033001
 30
0
 11
270.2122768763
 21
718.6678331583
 31
0
  0
LINE
  8
0
 62
7
 10
270.2122768763
 20
728.5546940058
 30
0
 11
269.7588866952
 21
728.4642886608
 31
0
  0
LINE
  8
0
 62
7
 10
139.9679100517
 20
725.1112628966
 30
0
 11
121.6336405281
 21
725.1112628966
 31
0
  0
LINE
  8
0
 62
7
 10
121.6336405281
 20
722.1112633362
 30
0
 11
121.6336405281
 21
725.1112628966
 31
0
  0
LINE
  8
0
 62
7
 10
139.9679100517
 20
722.1112633362
 30
0
 11
121.6336405281
 21
722.1112633362
 31
0
  0
LINE
  8
0
 62
7
 10
81.9622865323
 20
673.6112609743
 30
0
 11
81.9622865323
 21
773.6112624645
 31
0
  0
LINE
  8
0
 62
7
 10
326.9622838501
 20
673.6112609743
 30
0
 11
326.9622838501
 21
773.6112624645
 31
0
  0
LINE
  8
0
 62
7
 10
283.8997682932
 20
728.611262539
 30
0
 11
309.9622792009
 21
728.611262539
 31
0
  0
LINE
  8
0
 62
7
 10
309.9622792009
 20
718.6112636938
 30
0
 11
283.8997682932
 21
718.6112636938
 31
0
  0
LINE
  8
0
 62
7
 10
83.96227568419999
 20
816.6112676501
 30
0
 11
83.96227568419999
 21
630.6112632393
 31
0
  0
LINE
  8
0
 62
7
 10
98.9622837308
 20
816.6112676501
 30
0
 11
98.9622837308
 21
630.6112632393
 31
0
  0
LINE
  8
0
 62
7
 10
324.9622797969
 20
816.6112676501
 30
0
 11
324.9622797969
 21
630.6112632393
 31
0
  0
LINE
  8
0
 62
7
 10
309.9622792009
 20
816.6112676501
 30
0
 11
309.9622792009
 21
630.6112632393
 31
0
  0
LINE
  8
0
 62
7
 10
157.2323991362
 20
709.4112634897
 30
0
 11
151.4622820917
 21
709.4112634897
 31
0
  0
LINE
  8
0
 62
7
 10
149.4622817639
 20
711.4112638175
 30
0
 11
149.4622817639
 21
735.8112633466
 31
0
  0
LINE
  8
0
 62
7
 10
151.4622820917
 20
737.8112636744
 30
0
 11
157.2323991362
 21
737.8112636744
 31
0
  0
LINE
  8
0
 62
7
 10
265.6372292343
 20
713.6112638056
 30
0
 11
267.387903333
 21
713.6112638056
 31
0
  0
LINE
  8
0
 62
7
 10
267.387903333
 20
733.6112633585
 30
0
 11
265.6372292343
 21
733.6112633585
 31
0
  0
LINE
  8
0
 62
7
 10
236.9622802738
 20
728.611262539
 30
0
 11
236.9622802738
 21
698.6112632095
 31
0
  0
LINE
  8
0
 62
7
 10
248.9622822407
 20
728.611262539
 30
0
 11
236.9622802738
 21
728.611262539
 31
0
  0
LINE
  8
0
 62
7
 10
248.9622822407
 20
698.6112632095
 30
0
 11
248.9622822407
 21
728.611262539
 31
0
  0
LINE
  8
0
 62
7
 10
236.9622802738
 20
698.6112632095
 30
0
 11
248.9622822407
 21
698.6112632095
 31
0
  0
LINE
  8
0
 62
7
 10
205.0622815526
 20
724.7112635761
 30
0
 11
205.0622815526
 21
729.1112635521999
 31
0
  0
LINE
  8
0
 62
7
 10
202.8622810406
 20
724.7112635761
 30
0
 11
202.8622810406
 21
729.1112635521999
 31
0
  0
LINE
  8
0
 62
7
 10
205.0622815526
 20
724.7112635761
 30
0
 11
209.4622813541
 21
724.7112635761
 31
0
  0
LINE
  8
0
 62
7
 10
202.8622810406
 20
729.1112635521999
 30
0
 11
205.0622815526
 21
729.1112635521999
 31
0
  0
LINE
  8
0
 62
7
 10
198.4622809481
 20
724.7112635761
 30
0
 11
202.8622810406
 21
724.7112635761
 31
0
  0
LINE
  8
0
 62
7
 10
198.4622809481
 20
722.511263588
 30
0
 11
198.4622809481
 21
724.7112635761
 31
0
  0
LINE
  8
0
 62
7
 10
198.4622809481
 20
722.511263588
 30
0
 11
202.8622810406
 21
722.511263588
 31
0
  0
LINE
  8
0
 62
7
 10
202.8622810406
 20
718.1112636118
 30
0
 11
202.8622810406
 21
722.511263588
 31
0
  0
LINE
  8
0
 62
7
 10
202.8622810406
 20
718.1112636118
 30
0
 11
205.0622815526
 21
718.1112636118
 31
0
  0
LINE
  8
0
 62
7
 10
205.0622815526
 20
718.1112636118
 30
0
 11
205.0622815526
 21
722.511263588
 31
0
  0
LINE
  8
0
 62
7
 10
205.0622815526
 20
722.511263588
 30
0
 11
209.4622813541
 21
722.511263588
 31
0
  0
LINE
  8
0
 62
7
 10
209.4622813541
 20
722.511263588
 30
0
 11
209.4622813541
 21
724.7112635761
 31
0
  0
LINE
  8
0
 62
7
 10
185.9622812275
 20
741.6112609445
 30
0
 11
175.9622833136
 21
741.6112609445
 31
0
  0
LINE
  8
0
 62
7
 10
175.9622833136
 20
741.6112609445
 30
0
 11
175.9622833136
 21
705.6112642405
 31
0
  0
LINE
  8
0
 62
7
 10
175.9622833136
 20
705.6112642405
 30
0
 11
185.9622812275
 21
705.6112642405
 31
0
  0
LINE
  8
0
 62
7
 10
185.9622812275
 20
705.6112642405
 30
0
 11
185.9622812275
 21
741.6112609445
 31
0
  0
LINE
  8
0
 62
7
 10
211.4622812163
 20
736.6016432881
 30
0
 11
203.9622810929
 21
732.2715167194
 31
0
  0
LINE
  8
0
 62
7
 10
203.9622810929
 20
732.2715167194
 30
0
 11
196.4622820172
 21
736.6016432881
 31
0
  0
LINE
  8
0
 62
7
 10
198.4622809481
 20
733.1375424057
 30
0
 11
198.4622809481
 21
726.7866898566
 31
0
  0
LINE
  8
0
 62
7
 10
203.9622810929
 20
729.9621161311
 30
0
 11
198.4622809481
 21
733.1375424057
 31
0
  0
LINE
  8
0
 62
7
 10
209.4622813541
 20
733.1375424057
 30
0
 11
203.9622810929
 21
729.9621161311
 31
0
  0
LINE
  8
0
 62
7
 10
209.4622813541
 20
726.7866898566
 30
0
 11
209.4622813541
 21
733.1375424057
 31
0
  0
LINE
  8
0
 62
7
 10
214.9622813243
 20
723.611263582
 30
0
 11
209.4622813541
 21
726.7866898566
 31
0
  0
LINE
  8
0
 62
7
 10
209.4622813541
 20
720.4358373075
 30
0
 11
214.9622813243
 21
723.611263582
 31
0
  0
LINE
  8
0
 62
7
 10
209.4622813541
 20
714.0849838271
 30
0
 11
209.4622813541
 21
720.4358373075
 31
0
  0
LINE
  8
0
 62
7
 10
203.9622810929
 20
717.2604101016
 30
0
 11
209.4622813541
 21
714.0849838271
 31
0
  0
LINE
  8
0
 62
7
 10
198.4622809481
 20
714.0849838271
 30
0
 11
203.9622810929
 21
717.2604101016
 31
0
  0
LINE
  8
0
 62
7
 10
198.4622809481
 20
720.4358373075
 30
0
 11
198.4622809481
 21
714.0849838271
 31
0
  0
LINE
  8
0
 62
7
 10
192.9622823748
 20
723.611263582
 30
0
 11
198.4622809481
 21
720.4358373075
 31
0
  0
LINE
  8
0
 62
7
 10
198.4622809481
 20
726.7866898566
 30
0
 11
192.9622823748
 21
723.611263582
 31
0
  0
LINE
  8
0
 62
7
 10
196.4622820172
 20
736.6016432881
 30
0
 11
196.4622820172
 21
727.9413901507
 31
0
  0
LINE
  8
0
 62
7
 10
196.4622820172
 20
727.9413901507
 30
0
 11
188.9622817192
 21
723.611263582
 31
0
  0
LINE
  8
0
 62
7
 10
188.9622817192
 20
723.611263582
 30
0
 11
196.4622820172
 21
719.281136082
 31
0
  0
LINE
  8
0
 62
7
 10
196.4622820172
 20
719.281136082
 30
0
 11
196.4622820172
 21
710.6208829447
 31
0
  0
LINE
  8
0
 62
7
 10
196.4622820172
 20
710.6208829447
 30
0
 11
203.9622810929
 21
714.9510095134
 31
0
  0
LINE
  8
0
 62
7
 10
203.9622810929
 20
714.9510095134
 30
0
 11
211.4622812163
 21
710.6208829447
 31
0
  0
LINE
  8
0
 62
7
 10
211.4622812163
 20
710.6208829447
 30
0
 11
211.4622812163
 21
719.281136082
 31
0
  0
LINE
  8
0
 62
7
 10
211.4622812163
 20
719.281136082
 30
0
 11
218.96228198
 21
723.611263582
 31
0
  0
LINE
  8
0
 62
7
 10
218.96228198
 20
723.611263582
 30
0
 11
211.4622812163
 21
727.9413901507
 31
0
  0
LINE
  8
0
 62
7
 10
211.4622812163
 20
727.9413901507
 30
0
 11
211.4622812163
 21
736.6016432881
 31
0
  0
LINE
  8
0
 62
7
 10
233.9622816447
 20
696.6112628817
 30
0
 11
233.9622816447
 21
750.6112642824
 31
0
  0
LINE
  8
0
 62
7
 10
221.9622815404
 20
696.6112628817
 30
0
 11
233.9622816447
 21
696.6112628817
 31
0
  0
LINE
  8
0
 62
7
 10
233.9622816447
 20
750.6112642824
 30
0
 11
221.9622815404
 21
750.6112642824
 31
0
  0
LINE
  8
0
 62
7
 10
221.9622815404
 20
750.6112642824
 30
0
 11
221.9622815404
 21
696.6112628817
 31
0
  0
LINE
  8
0
 62
7
 10
243.2308746878
 20
739.5958341896001
 30
0
 11
248.85800764
 21
739.5958341896001
 31
0
  0
LINE
  8
0
 62
7
 10
241.9739840928
 20
733.996633464
 30
0
 11
242.8286699954
 21
733.996633464
 31
0
  0
LINE
  8
0
 62
7
 10
241.9739840928
 20
732.7676750957
 30
0
 11
241.9739840928
 21
733.996633464
 31
0
  0
LINE
  8
0
 62
7
 10
248.85800764
 20
732.7676750957
 30
0
 11
241.9739840928
 21
732.7676750957
 31
0
  0
LINE
  8
0
 62
7
 10
248.85800764
 20
733.996633464
 30
0
 11
248.85800764
 21
732.7676750957
 31
0
  0
LINE
  8
0
 62
7
 10
244.2866592113
 20
733.996633464
 30
0
 11
248.85800764
 21
733.996633464
 31
0
  0
LINE
  8
0
 62
7
 10
248.85800764
 20
735.5384156346
 30
0
 11
243.6330793801
 21
735.5384156346
 31
0
  0
LINE
  8
0
 62
7
 10
248.85800764
 20
736.7673721402
 30
0
 11
248.85800764
 21
735.5384156346
 31
0
  0
LINE
  8
0
 62
7
 10
244.2866592113
 20
736.7673721402
 30
0
 11
248.85800764
 21
736.7673721402
 31
0
  0
LINE
  8
0
 62
7
 10
248.85800764
 20
738.3668776839
 30
0
 11
243.6833521727
 21
738.3668776839
 31
0
  0
LINE
  8
0
 62
7
 10
248.85800764
 20
739.5958341896001
 30
0
 11
248.85800764
 21
738.3668776839
 31
0
  0
LINE
  8
0
 62
7
 10
243.2308746878
 20
748.5958338022
 30
0
 11
248.85800764
 21
748.5958338022
 31
0
  0
LINE
  8
0
 62
7
 10
241.9739840928
 20
742.9966330766
 30
0
 11
242.8286699954
 21
742.9966330766
 31
0
  0
LINE
  8
0
 62
7
 10
241.9739840928
 20
741.7676747083
 30
0
 11
241.9739840928
 21
742.9966330766
 31
0
  0
LINE
  8
0
 62
7
 10
248.85800764
 20
741.7676747083
 30
0
 11
241.9739840928
 21
741.7676747083
 31
0
  0
LINE
  8
0
 62
7
 10
248.85800764
 20
742.9966330766
 30
0
 11
248.85800764
 21
741.7676747083
 31
0
  0
LINE
  8
0
 62
7
 10
244.2866592113
 20
742.9966330766
 30
0
 11
248.85800764
 21
742.9966330766
 31
0
  0
LINE
  8
0
 62
7
 10
248.85800764
 20
744.5384152471
 30
0
 11
243.6330793801
 21
744.5384152471
 31
0
  0
LINE
  8
0
 62
7
 10
248.85800764
 20
745.7673698901
 30
0
 11
248.85800764
 21
744.5384152471
 31
0
  0
LINE
  8
0
 62
7
 10
244.2866592113
 20
745.7673698901
 30
0
 11
248.85800764
 21
745.7673698901
 31
0
  0
LINE
  8
0
 62
7
 10
248.85800764
 20
747.3668791591
 30
0
 11
243.6833521727
 21
747.3668791591
 31
0
  0
LINE
  8
0
 62
7
 10
248.85800764
 20
748.5958338022
 30
0
 11
248.85800764
 21
747.3668791591
 31
0
  0
LINE
  8
0
 62
7
 10
81.9622865323
 20
673.6112609743
 30
0
 11
83.96227568419999
 21
671.6112606465
 31
0
  0
LINE
  8
0
 62
7
 10
83.96227568419999
 20
775.6112665176
 30
0
 11
81.9622865323
 21
773.6112624645
 31
0
  0
LINE
  8
0
 62
7
 10
326.9622838501
 20
773.6112624645
 30
0
 11
324.9622797969
 21
775.6112665176
 31
0
  0
LINE
  8
0
 62
7
 10
324.9622797969
 20
671.6112606465
 30
0
 11
326.9622838501
 21
673.6112609743
 31
0
  0
LINE
  8
0
 62
7
 10
279.7999745611
 20
683.1833068519001
 30
0
 11
283.9361345771
 21
685.6404934316
 31
0
  0
LINE
  8
0
 62
7
 10
283.9361345771
 20
761.5820318698
 30
0
 11
279.7026625279
 21
764.0970275044
 31
0
  0
LINE
  8
0
 62
7
 10
140.0983399156
 20
730.7861466198
 30
0
 11
139.5952245596
 21
725.1109164446
 31
0
  0
LINE
  8
0
 62
7
 10
98.9622837308
 20
816.6112676501
 30
0
 11
83.96227568419999
 21
816.6112676501
 31
0
  0
LINE
  8
0
 62
7
 10
83.96227568419999
 20
630.6112632393
 30
0
 11
98.9622837308
 21
630.6112632393
 31
0
  0
LINE
  8
0
 62
7
 10
309.9622792009
 20
630.6112632393
 30
0
 11
324.9622797969
 21
630.6112632393
 31
0
  0
LINE
  8
0
 62
7
 10
324.9622797969
 20
816.6112676501
 30
0
 11
309.9622792009
 21
816.6112676501
 31
0
  0
LINE
  8
0
 62
7
 10
188.7122812125
 20
675.9831477194
 30
0
 11
188.7122812125
 21
622.9962706804
 31
0
  0
LINE
  8
0
 62
7
 10
193.7122820321
 20
623.069077754
 30
0
 11
193.7122820321
 21
673.8524697959
 31
0
  0
LINE
  8
0
 62
2
  6
DASHDOT
 10
264.2881832737
 20
561.6788803694
 30
0
 11
264.2881832737
 21
501.32655012
 31
0
  0
LINE
  8
0
 62
2
  6
DASHDOT
 10
159.6363796581
 20
561.6788803694
 30
0
 11
159.6363796581
 21
500.9547881051
 31
0
  0
LINE
  8
0
 62
2
  6
DASHDOT
 10
211.9622814659
 20
357.9751171632
 30
0
 11
211.9622814659
 21
591.8306636935999
 31
0
  0
LINE
  8
0
 62
2
  6
DASHDOT
 10
68.7861764207
 20
448.0273861455
 30
0
 11
335.5701132146999
 21
448.0273861455
 31
0
  0
LINE
  8
0
 62
7
 10
213.9958364725
 20
423.1018683799
 30
0
 11
213.9958364725
 21
416.1018683799
 31
0
  0
LINE
  8
0
 62
7
 10
204.2495700845
 20
416.1018683799
 30
0
 11
213.9958364725
 21
416.1018683799
 31
0
  0
LINE
  8
0
 62
7
 10
204.2495700845
 20
423.1018683799
 30
0
 11
204.2495700845
 21
416.1018683799
 31
0
  0
LINE
  8
0
 62
7
 10
204.2495700845
 20
423.1018683799
 30
0
 11
213.9958364725
 21
423.1018683799
 31
0
  0
LINE
  8
0
 62
7
 10
240.8684424314
 20
550.5273852514
 30
0
 11
240.8684424314
 21
547.5273866223
 31
0
  0
LINE
  8
0
 62
7
 10
183.0561205003
 20
550.5273852514
 30
0
 11
183.0561205003
 21
547.5273866223
 31
0
  0
LINE
  8
0
 62
7
 10
223.9339097593
 20
544.0273869799
 30
0
 11
223.9339097593
 21
547.5273866223
 31
0
  0
LINE
  8
0
 62
7
 10
199.9906531725
 20
544.0273869799
 30
0
 11
199.9906531725
 21
547.5273866223
 31
0
  0
LINE
  8
0
 62
7
 10
169.7812701765
 20
550.5273852514
 30
0
 11
169.7812701765
 21
547.5273866223
 31
0
  0
LINE
  8
0
 62
7
 10
147.9238855842
 20
536.0273856686
 30
0
 11
147.9238855842
 21
547.5273866223
 31
0
  0
LINE
  8
0
 62
7
 10
276.0006773475
 20
547.5273866223
 30
0
 11
276.0006773475
 21
536.0273856686
 31
0
  0
LINE
  8
0
 62
7
 10
254.1432927552
 20
550.5273852514
 30
0
 11
254.1432927552
 21
547.5273866223
 31
0
  0
LINE
  8
0
 62
7
 10
190.9886772934
 20
544.0273869799
 30
0
 11
190.9886772934
 21
547.5273866223
 31
0
  0
LINE
  8
0
 62
7
 10
232.9358856383
 20
544.0273869799
 30
0
 11
232.9358856383
 21
547.5273866223
 31
0
  0
LINE
  8
0
 62
7
 10
156.0940954093
 20
547.5273866223
 30
0
 11
156.0940954093
 21
536.0273856686
 31
0
  0
LINE
  8
0
 62
7
 10
267.8304675225
 20
536.0273856686
 30
0
 11
267.8304675225
 21
547.5273866223
 31
0
  0
LINE
  8
0
 62
7
 10
272.74840951
 20
494.3925131129
 30
0
 11
272.7814491097
 21
494.4224607216
 31
0
  0
LINE
  8
0
 62
7
 10
253.3185283843
 20
516.0273898409999
 30
0
 11
170.6060345474
 21
516.0273898409999
 31
0
  0
LINE
  8
0
 62
7
 10
275.782837272
 20
521.0273850726001
 30
0
 11
275.782837272
 21
536.0273856686
 31
0
  0
LINE
  8
0
 62
7
 10
148.1417256597
 20
521.0273850726001
 30
0
 11
148.1417256597
 21
536.0273856686
 31
0
  0
LINE
  8
0
 62
7
 10
156.1906623844
 20
521.0273850726001
 30
0
 11
156.1906623844
 21
536.0273856686
 31
0
  0
LINE
  8
0
 62
7
 10
267.7339005474
 20
521.0273850726001
 30
0
 11
267.7339005474
 21
536.0273856686
 31
0
  0
LINE
  8
0
 62
7
 10
187.2122816
 20
566.5273878740001
 30
0
 11
187.2122816
 21
562.9635293053
 31
0
  0
LINE
  8
0
 62
7
 10
269.3673956398
 20
577.0273793505
 30
0
 11
269.3673956398
 21
575.0273901986
 31
0
  0
LINE
  8
0
 62
7
 10
267.3879067603
 20
575.0273901986
 30
0
 11
267.3879067603
 21
577.0273793505
 31
0
  0
LINE
  8
0
 62
7
 10
265.6372289363
 20
577.0273793505
 30
0
 11
265.6372289363
 21
575.0273901986
 31
0
  0
LINE
  8
0
 62
7
 10
263.6854115132
 20
575.0273901986
 30
0
 11
263.6854115132
 21
577.0273793505
 31
0
  0
LINE
  8
0
 62
7
 10
158.9622820917
 20
575.5273837613
 30
0
 11
160.1480382684
 21
575.5273837613
 31
0
  0
LINE
  8
0
 62
7
 10
161.9504939023
 20
568.5273844765
 30
0
 11
161.9504939023
 21
558.5273865627
 31
0
  0
LINE
  8
0
 62
7
 10
275.2578395608
 20
557.5273845361
 30
0
 11
278.9622831348
 21
557.5273845361
 31
0
  0
LINE
  8
0
 62
7
 10
186.9622810933
 20
559.027387576
 30
0
 11
196.7122812945
 21
559.027387576
 31
0
  0
LINE
  8
0
 62
7
 10
170.6060345474
 20
557.5273845361
 30
0
 11
196.9622818011
 21
557.5273845361
 31
0
  0
LINE
  8
0
 62
7
 10
141.5309298042
 20
547.5273866223
 30
0
 11
147.9238855842
 21
547.5273866223
 31
0
  0
LINE
  8
0
 62
7
 10
141.5309298042
 20
544.0273869799
 30
0
 11
141.5309298042
 21
547.5273866223
 31
0
  0
LINE
  8
0
 62
7
 10
139.9622845653
 20
544.0273869799
 30
0
 11
141.5309298042
 21
544.0273869799
 31
0
  0
LINE
  8
0
 62
7
 10
282.062633634
 20
544.0273869799
 30
0
 11
283.9622783664
 21
544.0273869799
 31
0
  0
LINE
  8
0
 62
7
 10
282.062633634
 20
544.0273869799
 30
0
 11
282.062633634
 21
547.5273866223
 31
0
  0
LINE
  8
0
 62
7
 10
276.0006773475
 20
547.5273866223
 30
0
 11
282.062633634
 21
547.5273866223
 31
0
  0
LINE
  8
0
 62
7
 10
147.4461916092
 20
550.5273852514
 30
0
 11
276.4783713225
 21
550.5273852514
 31
0
  0
LINE
  8
0
 62
7
 10
223.9339097593
 20
547.5273866223
 30
0
 11
267.8304675225
 21
547.5273866223
 31
0
  0
LINE
  8
0
 62
7
 10
239.4622813169
 20
544.0273869799
 30
0
 11
239.4622813169
 21
547.5273866223
 31
0
  0
LINE
  8
0
 62
7
 10
184.4622816149
 20
544.0273869799
 30
0
 11
239.4622813169
 21
544.0273869799
 31
0
  0
LINE
  8
0
 62
7
 10
184.4622816149
 20
544.0273869799
 30
0
 11
184.4622816149
 21
547.5273866223
 31
0
  0
LINE
  8
0
 62
7
 10
156.0940954093
 20
547.5273866223
 30
0
 11
199.9906531725
 21
547.5273866223
 31
0
  0
LINE
  8
0
 62
7
 10
139.9622845653
 20
536.0273856686
 30
0
 11
283.9622783664
 21
536.0273856686
 31
0
  0
LINE
  8
0
 62
7
 10
270.2881830934
 20
505.5273871885
 30
0
 11
258.2881848517
 21
505.5273871885
 31
0
  0
LINE
  8
0
 62
7
 10
273.7881827358
 20
558.5273865627
 30
0
 11
254.7881814841
 21
558.5273865627
 31
0
  0
LINE
  8
0
 62
7
 10
258.8033552471
 20
557.6788771914
 30
0
 11
258.8033552471
 21
550.5273852514
 31
0
  0
LINE
  8
0
 62
7
 10
253.3185283843
 20
557.6788771914
 30
0
 11
253.3185283843
 21
550.5273852514
 31
0
  0
LINE
  8
0
 62
7
 10
275.2578395608
 20
557.6788771914
 30
0
 11
275.2578395608
 21
550.5273852514
 31
0
  0
LINE
  8
0
 62
7
 10
269.7730089727
 20
557.6788771914
 30
0
 11
269.7730089727
 21
550.5273852514
 31
0
  0
LINE
  8
0
 62
7
 10
165.63637808
 20
505.5273871885
 30
0
 11
153.6363798383
 21
505.5273871885
 31
0
  0
LINE
  8
0
 62
7
 10
170.6060345474
 20
557.6788771914
 30
0
 11
170.6060345474
 21
550.5273852514
 31
0
  0
LINE
  8
0
 62
7
 10
169.1363814477
 20
558.5273865627
 30
0
 11
150.136380196
 21
558.5273865627
 31
0
  0
LINE
  8
0
 62
7
 10
165.1212076846
 20
557.6788771914
 30
0
 11
165.1212076846
 21
550.5273852514
 31
0
  0
LINE
  8
0
 62
7
 10
154.151553959
 20
557.6788771914
 30
0
 11
154.151553959
 21
550.5273852514
 31
0
  0
LINE
  8
0
 62
7
 10
148.6667233709
 20
557.6788771914
 30
0
 11
148.6667233709
 21
550.5273852514
 31
0
  0
LINE
  8
0
 62
7
 10
275.2578395608
 20
511.8758890794
 30
0
 11
275.2578395608
 21
521.0273850726001
 31
0
  0
LINE
  8
0
 62
7
 10
253.3185283843
 20
511.8758890794
 30
0
 11
253.3185283843
 21
521.0273850726001
 31
0
  0
LINE
  8
0
 62
7
 10
254.7881814841
 20
511.0273871587
 30
0
 11
273.7881827358
 21
511.0273871587
 31
0
  0
LINE
  8
0
 62
7
 10
258.8033552471
 20
511.8758890794
 30
0
 11
258.8033552471
 21
521.0273850726001
 31
0
  0
LINE
  8
0
 62
7
 10
269.7730089727
 20
511.8758890794
 30
0
 11
269.7730089727
 21
521.0273850726001
 31
0
  0
LINE
  8
0
 62
7
 10
148.6667233709
 20
511.8758890794
 30
0
 11
148.6667233709
 21
521.0273850726001
 31
0
  0
LINE
  8
0
 62
7
 10
170.6060345474
 20
511.8758890794
 30
0
 11
170.6060345474
 21
521.0273850726001
 31
0
  0
LINE
  8
0
 62
7
 10
169.1363814477
 20
511.0273871587
 30
0
 11
150.136380196
 21
511.0273871587
 31
0
  0
LINE
  8
0
 62
7
 10
154.151553959
 20
511.8758890794
 30
0
 11
154.151553959
 21
521.0273850726001
 31
0
  0
LINE
  8
0
 62
7
 10
165.1212076846
 20
511.8758890794
 30
0
 11
165.1212076846
 21
521.0273850726001
 31
0
  0
LINE
  8
0
 62
7
 10
140.7627525929
 20
491.6688006388
 30
0
 11
140.7563227418
 21
491.6688006388
 31
0
  0
LINE
  8
0
 62
7
 10
121.63364023
 20
477.5273863243
 30
0
 11
121.6382521394
 21
477.5063533353
 31
0
  0
LINE
  8
0
 62
7
 10
182.2692553702
 20
373.8847810792
 30
0
 11
181.9622821364
 21
368.0273879336
 31
0
  0
LINE
  8
0
 62
7
 10
171.4522901181
 20
377.7585987018
 30
0
 11
171.9622823599
 21
368.0273879336
 31
0
  0
LINE
  8
0
 62
7
 10
171.9622823599
 20
368.0273879336
 30
0
 11
181.9622821364
 21
368.0273879336
 31
0
  0
LINE
  8
0
 62
7
 10
252.5558757785
 20
379.3538276123
 30
0
 11
251.9622805718
 21
368.0273879336
 31
0
  0
LINE
  8
0
 62
7
 10
241.6558644924
 20
373.874178903
 30
0
 11
241.9622807953
 21
368.0273879336
 31
0
  0
LINE
  8
0
 62
7
 10
241.9622807953
 20
368.0273879336
 30
0
 11
251.9622805718
 21
368.0273879336
 31
0
  0
LINE
  8
0
 62
7
 10
304.9348580841
 20
505.145969616
 30
0
 11
280.1555308703
 21
490.9439671801
 31
0
  0
LINE
  8
0
 62
7
 10
305.6396085027
 20
391.008539872
 30
0
 11
274.0904900435
 21
412.7665523456
 31
0
  0
LINE
  8
0
 62
7
 10
215.0558749869
 20
379.3538276123
 30
0
 11
214.46228141
 21
368.0273879336
 31
0
  0
LINE
  8
0
 62
7
 10
208.8525956221
 20
379.6608883904
 30
0
 11
209.4622815217
 21
368.0273879336
 31
0
  0
LINE
  8
0
 62
7
 10
209.4622815217
 20
368.0273879336
 30
0
 11
214.46228141
 21
368.0273879336
 31
0
  0
LINE
  8
0
 62
7
 10
121.63364023
 20
477.5273863243
 30
0
 11
113.9622840289
 21
477.5273863243
 31
0
  0
LINE
  8
0
 62
7
 10
81.96228623419999
 20
398.0273854004
 30
0
 11
81.96228623419999
 21
498.0273868905
 31
0
  0
LINE
  8
0
 62
7
 10
326.962283552
 20
398.0273854004
 30
0
 11
326.962283552
 21
498.0273868905
 31
0
  0
LINE
  8
0
 62
7
 10
215.0558749869
 20
379.3538276123
 30
0
 11
211.9622814652
 21
379.2622897791
 31
0
  0
LINE
  8
0
 62
7
 10
182.2692553702
 20
373.8847810792
 30
0
 11
171.4522901181
 21
377.7585987018
 31
0
  0
LINE
  8
0
 62
7
 10
211.9622814659
 20
379.2615298198
 30
0
 11
208.8525956221
 21
379.6608883904
 31
0
  0
LINE
  8
0
 62
7
 10
266.2324371937
 20
424.4112379866
 30
0
 11
266.2324371937
 21
408.6784001456
 31
0
  0
LINE
  8
0
 62
7
 10
220.9622810784
 20
425.5273852514
 30
0
 11
202.9622818533
 21
425.5273852514
 31
0
  0
LINE
  8
0
 62
7
 10
202.9622818533
 20
425.5273852514
 30
0
 11
202.9622818533
 21
413.5273870097
 31
0
  0
LINE
  8
0
 62
7
 10
202.9622818533
 20
413.5273870097
 30
0
 11
220.9622810784
 21
413.5273870097
 31
0
  0
LINE
  8
0
 62
7
 10
220.9622810784
 20
413.5273870097
 30
0
 11
220.9622810784
 21
425.5273852514
 31
0
  0
LINE
  8
0
 62
7
 10
216.3204804252
 20
423.1018692272
 30
0
 11
217.5653974715
 21
423.1018692272
 31
0
  0
LINE
  8
0
 62
7
 10
216.3204804252
 20
416.1018680798
 30
0
 11
216.3204804252
 21
423.1018692272
 31
0
  0
LINE
  8
0
 62
7
 10
217.5653974715
 20
416.1018680798
 30
0
 11
216.3204804252
 21
416.1018680798
 31
0
  0
LINE
  8
0
 62
7
 10
217.1703756045
 20
416.7815193551
 30
0
 11
217.5653974715
 21
416.7815193551
 31
0
  0
LINE
  8
0
 62
7
 10
217.1703756045
 20
422.4222179519
 30
0
 11
217.1703756045
 21
416.7815193551
 31
0
  0
LINE
  8
0
 62
7
 10
217.5653974715
 20
422.4222179519
 30
0
 11
217.1703756045
 21
422.4222179519
 31
0
  0
LINE
  8
0
 62
7
 10
194.4524969164
 20
481.2189105915
 30
0
 11
194.4524969164
 21
479.4712390767
 31
0
  0
LINE
  8
0
 62
7
 10
183.2242987308
 20
468.29092391
 30
0
 11
185.857779086
 21
468.29092391
 31
0
  0
LINE
  8
0
 62
7
 10
186.7743662748
 20
479.4712390767
 30
0
 11
186.3160717491
 21
473.4621185826
 31
0
  0
LINE
  8
0
 62
7
 10
194.4524969164
 20
479.4712390767
 30
0
 11
186.7743662748
 21
479.4712390767
 31
0
  0
LINE
  8
0
 62
7
 10
184.4521152977
 20
481.2189105915
 30
0
 11
194.4524969164
 21
481.2189105915
 31
0
  0
LINE
  8
0
 62
7
 10
183.764676303
 20
471.3382355885
 30
0
 11
184.4521152977
 21
481.2189105915
 31
0
  0
LINE
  8
0
 62
7
 10
186.2032084915
 20
471.3382355885
 30
0
 11
183.764676303
 21
471.3382355885
 31
0
  0
LINE
  8
0
 62
7
 10
219.9622818458
 20
497.027384864
 30
0
 11
219.9622818458
 21
494.5273872482
 31
0
  0
LINE
  8
0
 62
7
 10
219.9622818458
 20
491.5273848938
 30
0
 11
219.9622818458
 21
489.027387278
 31
0
  0
LINE
  8
0
 62
7
 10
230.6504256282
 20
463.2082719372
 30
0
 11
230.6504256282
 21
475.1499395834
 31
0
  0
LINE
  8
0
 62
7
 10
242.4951910231
 20
472.9696240293
 30
0
 11
242.4951910231
 21
463.2082719372
 31
0
  0
LINE
  8
0
 62
7
 10
232.7822900567
 20
475.1499395834
 30
0
 11
232.7822900567
 21
473.6673261987
 31
0
  0
LINE
  8
0
 62
7
 10
230.6504256282
 20
475.1499395834
 30
0
 11
232.7822900567
 21
475.1499395834
 31
0
  0
LINE
  8
0
 62
7
 10
232.7822900567
 20
463.2082719372
 30
0
 11
230.6504256282
 21
463.2082719372
 31
0
  0
LINE
  8
0
 62
7
 10
232.7822900567
 20
471.1381595598
 30
0
 11
232.7822900567
 21
463.2082719372
 31
0
  0
LINE
  8
0
 62
7
 10
235.4568100724
 20
463.2082719372
 30
0
 11
235.4568100724
 21
472.2719237225
 31
0
  0
LINE
  8
0
 62
7
 10
237.5886745009
 20
463.2082719372
 30
0
 11
235.4568100724
 21
463.2082719372
 31
0
  0
LINE
  8
0
 62
7
 10
237.5886745009
 20
471.1381595598
 30
0
 11
237.5886745009
 21
463.2082719372
 31
0
  0
LINE
  8
0
 62
7
 10
240.3633265946
 20
463.2082719372
 30
0
 11
240.3633265946
 21
472.1847109513
 31
0
  0
LINE
  8
0
 62
7
 10
242.4951910231
 20
463.2082719372
 30
0
 11
240.3633265946
 21
463.2082719372
 31
0
  0
LINE
  8
0
 62
7
 10
191.9622819129
 20
491.5273848938
 30
0
 11
219.9622818458
 21
491.5273848938
 31
0
  0
LINE
  8
0
 62
7
 10
219.9622818458
 20
494.5273872482
 30
0
 11
191.9622819129
 21
494.5273872482
 31
0
  0
LINE
  8
0
 62
7
 10
191.9622819129
 20
494.5273872482
 30
0
 11
191.9622819129
 21
491.5273848938
 31
0
  0
LINE
  8
0
 62
7
 10
139.9622845653
 20
521.0273850726001
 30
0
 11
283.9622783664
 21
521.0273850726001
 31
0
  0
LINE
  8
0
 62
7
 10
228.3964648101
 20
472.9696240293
 30
0
 11
228.3964648101
 21
463.2082719372
 31
0
  0
LINE
  8
0
 62
7
 10
218.6835629124
 20
475.1499395834
 30
0
 11
218.6835629124
 21
473.6673261987
 31
0
  0
LINE
  8
0
 62
7
 10
216.5516989495
 20
475.1499395834
 30
0
 11
218.6835629124
 21
475.1499395834
 31
0
  0
LINE
  8
0
 62
7
 10
216.5516989495
 20
463.2082719372
 30
0
 11
216.5516989495
 21
475.1499395834
 31
0
  0
LINE
  8
0
 62
7
 10
218.6835629124
 20
463.2082719372
 30
0
 11
216.5516989495
 21
463.2082719372
 31
0
  0
LINE
  8
0
 62
7
 10
218.6835629124
 20
471.1381595598
 30
0
 11
218.6835629124
 21
463.2082719372
 31
0
  0
LINE
  8
0
 62
7
 10
221.3580829281
 20
463.2082719372
 30
0
 11
221.3580829281
 21
472.2719237225
 31
0
  0
LINE
  8
0
 62
7
 10
223.4899473566
 20
463.2082719372
 30
0
 11
221.3580829281
 21
463.2082719372
 31
0
  0
LINE
  8
0
 62
7
 10
223.4899473566
 20
471.1381595598
 30
0
 11
223.4899473566
 21
463.2082719372
 31
0
  0
LINE
  8
0
 62
7
 10
226.2646003816
 20
463.2082719372
 30
0
 11
226.2646003816
 21
472.1847109513
 31
0
  0
LINE
  8
0
 62
7
 10
228.3964648101
 20
463.2082719372
 30
0
 11
226.2646003816
 21
463.2082719372
 31
0
  0
LINE
  8
0
 62
7
 10
98.96228343280001
 20
541.0273883508
 30
0
 11
98.96228343280001
 21
368.0273879336
 31
0
  0
LINE
  8
0
 62
7
 10
83.96227538620001
 20
541.0273883508
 30
0
 11
83.96227538620001
 21
368.0273879336
 31
0
  0
LINE
  8
0
 62
7
 10
98.96228343280001
 20
368.0273879336
 30
0
 11
83.96227538620001
 21
368.0273879336
 31
0
  0
LINE
  8
0
 62
7
 10
324.9622794989
 20
541.0273883508
 30
0
 11
324.9622794989
 21
368.0273879336
 31
0
  0
LINE
  8
0
 62
7
 10
309.9622789029
 20
368.0273879336
 30
0
 11
324.9622794989
 21
368.0273879336
 31
0
  0
LINE
  8
0
 62
7
 10
309.9622789029
 20
541.0273883508
 30
0
 11
309.9622789029
 21
368.0273879336
 31
0
  0
LINE
  8
0
 62
7
 10
191.9947254661
 20
567.0273888873001
 30
0
 11
191.9947254661
 21
566.5273878740001
 31
0
  0
LINE
  8
0
 62
7
 10
192.451822311
 20
567.0273888873001
 30
0
 11
191.9947254661
 21
567.0273888873001
 31
0
  0
LINE
  8
0
 62
7
 10
192.451822311
 20
567.0273888873001
 30
0
 11
192.451822311
 21
566.5273878740001
 31
0
  0
LINE
  8
0
 62
7
 10
192.096301094
 20
567.0273888873001
 30
0
 11
192.096301094
 21
566.5273878740001
 31
0
  0
LINE
  8
0
 62
7
 10
194.5681578669
 20
567.0273888873001
 30
0
 11
192.4681334946
 21
567.0273888873001
 31
0
  0
LINE
  8
0
 62
7
 10
192.4681334946
 20
567.0273888873001
 30
0
 11
192.4681334946
 21
566.5273878740001
 31
0
  0
LINE
  8
0
 62
7
 10
186.9622810933
 20
566.5273878740001
 30
0
 11
194.6941658113
 21
566.5273878740001
 31
0
  0
LINE
  8
0
 62
7
 10
192.6484226439
 20
565.5273858474
 30
0
 11
194.9461779747
 21
565.5273858474
 31
0
  0
LINE
  8
0
 62
7
 10
186.9622810933
 20
565.5273858474
 30
0
 11
189.7761400047
 21
565.5273858474
 31
0
  0
LINE
  8
0
 62
7
 10
188.9622814212
 20
585.0273806618
 30
0
 11
188.9622814212
 21
584.0273935364
 31
0
  0
LINE
  8
0
 62
7
 10
218.9622816819
 20
585.0273806618
 30
0
 11
218.9622816819
 21
584.0273935364
 31
0
  0
LINE
  8
0
 62
7
 10
269.9622797969
 20
575.0273901986
 30
0
 11
263.6854115132
 21
575.0273901986
 31
0
  0
LINE
  8
0
 62
7
 10
263.6854115132
 20
577.0273793505
 30
0
 11
269.9622797969
 21
577.0273793505
 31
0
  0
LINE
  8
0
 62
7
 10
211.4622814421
 20
585.0273806618
 30
0
 11
211.4622814421
 21
584.0273935364
 31
0
  0
LINE
  8
0
 62
7
 10
196.4622817192
 20
585.0273806618
 30
0
 11
196.4622817192
 21
584.0273935364
 31
0
  0
LINE
  8
0
 62
7
 10
203.9622810859
 20
585.0273806618
 30
0
 11
203.9622810859
 21
584.0273935364
 31
0
  0
LINE
  8
0
 62
7
 10
188.9622814212
 20
585.0273806618
 30
0
 11
218.9622816819
 21
585.0273806618
 31
0
  0
LINE
  8
0
 62
7
 10
151.4622817937
 20
570.5273885297
 30
0
 11
155.2599023286
 21
570.5273885297
 31
0
  0
LINE
  8
0
 62
7
 10
149.4622814659
 20
558.1381980346
 30
0
 11
149.4622814659
 21
568.5273861455
 31
0
  0
LINE
  8
0
 62
7
 10
185.9622809294
 20
585.0273806618
 30
0
 11
185.9622809294
 21
584.0273935364
 31
0
  0
LINE
  8
0
 62
7
 10
175.9622830156
 20
585.0273806618
 30
0
 11
185.9622809294
 21
585.0273806618
 31
0
  0
LINE
  8
0
 62
7
 10
175.9622830156
 20
585.0273806618
 30
0
 11
175.9622830156
 21
584.0273935364
 31
0
  0
LINE
  8
0
 62
7
 10
236.9622818384
 20
585.0273806618
 30
0
 11
236.9622818384
 21
584.0273935364
 31
0
  0
LINE
  8
0
 62
7
 10
236.9622818384
 20
585.0273806618
 30
0
 11
248.9622819427
 21
585.0273806618
 31
0
  0
LINE
  8
0
 62
7
 10
248.9622819427
 20
585.0273806618
 30
0
 11
248.9622819427
 21
584.0273935364
 31
0
  0
LINE
  8
0
 62
7
 10
233.9622813467
 20
585.0273806618
 30
0
 11
233.9622813467
 21
584.0273935364
 31
0
  0
LINE
  8
0
 62
7
 10
221.9622812424
 20
585.0273806618
 30
0
 11
233.9622813467
 21
585.0273806618
 31
0
  0
LINE
  8
0
 62
7
 10
221.9622812424
 20
585.0273806618
 30
0
 11
221.9622812424
 21
584.0273935364
 31
0
  0
LINE
  8
0
 62
7
 10
186.9622810933
 20
557.5273845361
 30
0
 11
186.9622810933
 21
573.0273861455
 31
0
  0
LINE
  8
0
 62
7
 10
257.9622815553
 20
584.0273935364
 30
0
 11
165.9622813765
 21
584.0273935364
 31
0
  0
LINE
  8
0
 62
7
 10
187.9622812573
 20
560.2773863839
 30
0
 11
186.9622810933
 21
560.2773863839
 31
0
  0
LINE
  8
0
 62
7
 10
187.9622812573
 20
559.027387576
 30
0
 11
187.9622812573
 21
561.5273851918
 31
0
  0
LINE
  8
0
 62
7
 10
194.4622813914
 20
561.5273851918
 30
0
 11
194.4622813914
 21
559.027387576
 31
0
  0
LINE
  8
0
 62
7
 10
195.4622815553
 20
560.2773863839
 30
0
 11
194.4622813914
 21
560.2773863839
 31
0
  0
LINE
  8
0
 62
7
 10
195.4622815553
 20
559.027387576
 30
0
 11
195.4622815553
 21
561.5273851918
 31
0
  0
LINE
  8
0
 62
7
 10
278.9622831348
 20
547.5273866223
 30
0
 11
278.9622831348
 21
557.5273845361
 31
0
  0
LINE
  8
0
 62
7
 10
147.4461916092
 20
550.5273852514
 30
0
 11
147.4461916092
 21
547.5273866223
 31
0
  0
LINE
  8
0
 62
7
 10
276.4783713225
 20
547.5273866223
 30
0
 11
276.4783713225
 21
550.5273852514
 31
0
  0
LINE
  8
0
 62
7
 10
254.7881814841
 20
558.5273865627
 30
0
 11
253.3185283843
 21
557.6788771914
 31
0
  0
LINE
  8
0
 62
7
 10
275.2578395608
 20
557.6788771914
 30
0
 11
273.7881827358
 21
558.5273865627
 31
0
  0
LINE
  8
0
 62
7
 10
270.2881830934
 20
505.5273871885
 30
0
 11
270.2881830934
 21
511.0273871587
 31
0
  0
LINE
  8
0
 62
7
 10
258.2881848517
 20
511.0273871587
 30
0
 11
258.2881848517
 21
505.5273871885
 31
0
  0
LINE
  8
0
 62
7
 10
150.136380196
 20
558.5273865627
 30
0
 11
148.6667233709
 21
557.6788771914
 31
0
  0
LINE
  8
0
 62
7
 10
170.6060345474
 20
557.6788771914
 30
0
 11
169.1363814477
 21
558.5273865627
 31
0
  0
LINE
  8
0
 62
7
 10
165.63637808
 20
505.5273871885
 30
0
 11
165.63637808
 21
511.0273871587
 31
0
  0
LINE
  8
0
 62
7
 10
153.6363798383
 20
511.0273871587
 30
0
 11
153.6363798383
 21
505.5273871885
 31
0
  0
LINE
  8
0
 62
7
 10
253.3185283843
 20
511.8758890794
 30
0
 11
254.7881814841
 21
511.0273871587
 31
0
  0
LINE
  8
0
 62
7
 10
273.7881827358
 20
511.0273871587
 30
0
 11
275.2578395608
 21
511.8758890794
 31
0
  0
LINE
  8
0
 62
7
 10
169.1363814477
 20
511.0273871587
 30
0
 11
170.6060345474
 21
511.8758890794
 31
0
  0
LINE
  8
0
 62
7
 10
148.6667233709
 20
511.8758890794
 30
0
 11
150.136380196
 21
511.0273871587
 31
0
  0
LINE
  8
0
 62
7
 10
81.96228623419999
 20
398.0273854004
 30
0
 11
83.96227538620001
 21
396.0273850726
 31
0
  0
LINE
  8
0
 62
7
 10
83.96227538620001
 20
500.0273872183
 30
0
 11
81.96228623419999
 21
498.0273868905
 31
0
  0
LINE
  8
0
 62
7
 10
326.962283552
 20
498.0273868905
 30
0
 11
324.9622794989
 21
500.0273872183
 31
0
  0
LINE
  8
0
 62
7
 10
324.9622794989
 20
396.0273850726
 30
0
 11
326.962283552
 21
398.0273854004
 31
0
  0
LINE
  8
0
 62
7
 10
266.4622801546
 20
406.94534667
 30
0
 11
266.4622801546
 21
408.5053455101
 31
0
  0
LINE
  8
0
 62
7
 10
139.9622845653
 20
544.0273869799
 30
0
 11
139.9622845653
 21
521.0273850726001
 31
0
  0
LINE
  8
0
 62
7
 10
283.9622783664
 20
521.0273850726001
 30
0
 11
283.9622783664
 21
544.0273869799
 31
0
  0
LINE
  8
0
 62
7
 10
98.96228343280001
 20
541.0273883508
 30
0
 11
83.96227538620001
 21
541.0273883508
 31
0
  0
LINE
  8
0
 62
7
 10
324.9622794989
 20
541.0273883508
 30
0
 11
309.9622789029
 21
541.0273883508
 31
0
  0
LINE
  8
0
 62
7
 10
269.9622797969
 20
575.0273901986
 30
0
 11
269.9622797969
 21
577.0273793505
 31
0
  0
LINE
  8
0
 62
7
 10
158.9622820917
 20
577.0303460778594
 30
0
 11
158.9622820917
 21
577.0244262131389
 31
0
  0
LINE
  8
0
 62
7
 10
264.96228084
 20
558.5273865627
 30
0
 11
264.96228084
 21
575.0273901986
 31
0
  0
ARC
  8
0
 62
7
 10
165.9622814659
 20
577.0273861455
 30
0
 40
7
 50
90
 51
179.9757726233019
  0
ARC
  8
0
 62
7
 10
211.9622817639
 20
595.6110652231999
 30
0
 40
200.0001971220873
 50
82.09680014889999
 51
90.00000008537063
  0
ARC
  8
0
 62
7
 10
211.9622461481
 20
851.6119775286001
 30
0
 40
200.0007127097721
 50
264.7645062855
 51
270.000010069726
  0
ARC
  8
0
 62
7
 10
543.9567987256
 20
544.1279068394
 30
0
 40
14.39998922668469
 50
90.4832060373999
 51
109.7730269291001
  0
ARC
  8
0
 62
7
 10
553.456801484
 20
544.1278943681
 30
0
 40
14.40000168413249
 50
90.48319928180001
 51
109.7730181270999
  0
ARC
  8
0
 62
7
 10
439.3049888911
 20
544.1279552155
 30
0
 40
14.39994081164926
 50
90.48318847889991
 51
109.7730600450997
  0
ARC
  8
0
 62
7
 10
448.8049893265
 20
544.127956015
 30
0
 40
14.39993999491017
 50
90.48318033710017
 51
109.7730604082
  0
ARC
  8
0
 62
7
 10
496.2594579333
 20
448.0273851218
 30
0
 40
93.00000063923177
 50
300.6592632379
 51
239.3407367621
  0
ARC
  8
0
 62
7
 10
542.2594350949
 20
577.0273715281001
 30
0
 40
7.00001941849996
 50
0
 51
90
  0
ARC
  8
0
 62
7
 10
450.2594751837
 20
577.0273715281001
 30
0
 40
7.00001941849996
 50
90
 51
180
  0
ARC
  8
0
 62
7
 10
211.9622461481
 20
851.6119775286001
 30
0
 40
200.000712709772
 50
270.000010069726
 51
277.903189648
  0
ARC
  8
0
 62
7
 10
339.963104348
 20
723.611263582
 30
0
 40
200.000819484642
 50
172.8192736885
 51
187.1807263115
  0
ARC
  8
0
 62
7
 10
83.9620950246
 20
723.6112626507
 30
0
 40
200.0001836398976
 50
352.0967998821001
 51
7.903200117900002
  0
ARC
  8
0
 62
7
 10
211.9622817639
 20
595.6110652231999
 30
0
 40
200.0001971220873
 50
90.00000008537063
 51
97.9031998511
  0
ARC
  8
0
 62
7
 10
211.9621346642
 20
851.6105886056
 30
0
 40
199.9993118556625
 50
253.7791132196
 51
262.0968074882
  0
ARC
  8
0
 62
7
 10
198.059748816
 20
652.9662106342
 30
0
 40
10.00002521738899
 50
78.8668357127998
 51
115.7691059777996
  0
ARC
  8
0
 62
7
 10
225.8648150281
 20
652.9662261039
 30
0
 40
10.00001018974041
 50
44.99999999999931
 51
101.1331857980001
  0
ARC
  8
0
 62
7
 10
211.9624288636
 20
851.6105886056
 30
0
 40
199.9993118556625
 50
277.9031925117999
 51
286.2208867804001
  0
ARC
  8
0
 62
7
 10
339.9619365188
 20
723.6112151901
 30
0
 40
199.9996547660278
 50
187.1807543767
 51
196.220888207
  0
ARC
  8
0
 62
7
 10
152.2379162327
 20
700.6112632961
 30
0
 40
2.000000086600039
 50
270
 51
21.06182588029911
  0
ARC
  8
0
 62
7
 10
83.9628575098
 20
723.6111336204
 30
0
 40
199.9994106552702
 50
343.7791157848999
 51
352.0968064605
  0
ARC
  8
0
 62
7
 10
282.6073171725
 20
709.7087302549001
 30
0
 40
10.00000999891634
 50
168.8668136190997
 51
225
  0
ARC
  8
0
 62
7
 10
339.962055449
 20
723.611287343
 30
0
 40
199.9997758423126
 50
163.7791145351
 51
172.8192428813
  0
ARC
  8
0
 62
7
 10
152.2379142303
 20
746.6112624933001
 30
0
 40
2.000001461222769
 50
338.9382314832013
 51
90
  0
ARC
  8
0
 62
7
 10
83.9627601418
 20
723.6113745428
 30
0
 40
199.9995094549419
 50
7.903194567200013
 51
16.22088164990002
  0
ARC
  8
0
 62
7
 10
282.6073160278
 20
737.5137957946
 30
0
 40
10.00000866055122
 50
135
 51
191.1331813813004
  0
ARC
  8
0
 62
7
 10
211.9624288636
 20
595.6119385585
 30
0
 40
199.9993118556623
 50
73.77911321959999
 51
82.0968074882
  0
ARC
  8
0
 62
7
 10
225.8648150281
 20
794.2563010602
 30
0
 40
10.00001018973294
 50
258.8668142019999
 51
315.0000000004391
  0
ARC
  8
0
 62
7
 10
198.059748297
 20
794.2563007223
 30
0
 40
10.00000980754919
 50
224.9999999995609
 51
281.1331846937998
  0
ARC
  8
0
 62
7
 10
211.9621346642
 20
595.6119385585
 30
0
 40
199.9993118556626
 50
97.9031925118
 51
106.2208867804
  0
ARC
  8
0
 62
7
 10
211.9625503932022
 20
723.6113702962938
 30
0
 40
62.00028788130494
 50
196.4560785115938
 51
207.7897279265791
  0
ARC
  8
0
 62
7
 10
148.2664485348
 20
690.0428181103
 30
0
 40
9.999997450170104
 50
300.5420144283447
 51
27.78972792658519
  0
ARC
  8
0
 62
7
 10
159.446189167
 20
671.095170294
 30
0
 40
12.00000160377992
 50
120.542014428345
 51
329.4579820293212
  0
ARC
  8
0
 62
7
 10
178.3938362921891
 20
659.915428490297
 30
0
 40
9.999997450208737
 50
62.21023802895287
 51
149.4579820292743
  0
ARC
  8
0
 62
7
 10
211.9622836536136
 20
723.6112484046013
 30
0
 40
61.9999869526908
 50
252.8811400007883
 51
297.7897548489457
  0
ARC
  8
0
 62
7
 10
245.5307262011
 20
659.9154271491
 30
0
 40
9.999999022733903
 50
30.54202416869597
 51
117.7897548489574
  0
ARC
  8
0
 62
7
 10
264.4783730825
 20
671.0951715722
 30
0
 40
12.00000115244936
 50
210.5420241686963
 51
59.45798101276626
  0
ARC
  8
0
 62
7
 10
275.6581149930009
 20
690.0428181102968
 30
0
 40
9.99999745022733
 50
152.2102688726357
 51
239.4579810127533
  0
ARC
  8
0
 62
7
 10
211.9621477234
 20
723.6113039131
 30
0
 40
62.00013786563901
 50
332.2102688726499
 51
352.9699895771
  0
ARC
  8
0
 62
7
 10
211.9626312936
 20
723.6111270443
 30
0
 40
62.0003733555713
 50
152.210281178246
 51
163.5439179893
  0
ARC
  8
0
 62
7
 10
211.9622808326
 20
723.6112562509001
 30
0
 40
62.00000818051899
 50
62.21025151601828
 51
117.7897483985698
  0
ARC
  8
0
 62
7
 10
264.4783730907
 20
776.1273544286
 30
0
 40
12.00000175062755
 50
300.5420164041279
 51
149.4579732330791
  0
ARC
  8
0
 62
7
 10
211.9621152286
 20
723.6112130616
 30
0
 40
62.00017136325027
 50
7.030016093100013
 51
27.78972615928192
  0
ARC
  8
0
 62
7
 10
275.6581136518008
 20
757.1797082257029
 30
0
 40
9.999995877637845
 50
120.5420164041406
 51
207.7897261592944
  0
ARC
  8
0
 62
7
 10
245.5307262010871
 20
787.3071000148964
 30
0
 40
9.999999022706581
 50
242.2102515160739
 51
329.4579732331347
  0
ARC
  8
0
 62
7
 10
178.3938362922
 20
787.3070986738001
 30
0
 40
9.999997450278524
 50
210.5420196967697
 51
297.7897483985698
  0
ARC
  8
0
 62
7
 10
159.4461889142019
 20
776.1273559514019
 30
0
 40
12.00000228835721
 50
30.54201969676624
 51
239.4579890271167
  0
ARC
  8
0
 62
7
 10
148.266449876
 20
757.1797082257
 30
0
 40
9.99999587762119
 50
332.2102811782463
 51
59.4579890271197
  0
ARC
  8
0
 62
7
 10
270.9622825819
 20
723.6112632471001
 30
0
 40
5.249999798471799
 50
256.5054011198002
 51
90.00000502469969
  0
ARC
  8
0
 62
7
 10
211.9622776347
 20
723.6112666909
 30
0
 40
54.50000439423963
 50
250.4358366612001
 51
349.2646778258
  0
ARC
  8
0
 62
7
 10
211.9622804814
 20
723.6112592706
 30
0
 40
54.49999740944509
 50
195.6920996181999
 51
244.7476705592
  0
ARC
  8
0
 62
7
 10
270.9622813951
 20
723.6112631164
 30
0
 40
7.999999970841247
 50
258.9457819387997
 51
101.0542180612003
  0
ARC
  8
0
 62
7
 10
211.9622818362
 20
723.6112654979
 30
0
 40
54.49999933026697
 50
10.73531780700001
 51
164.3078984603
  0
ARC
  8
0
 62
7
 10
270.9622783962
 20
723.6111127473
 30
0
 40
5.000149791679553
 50
81.37331623700062
 51
98.626683763
  0
ARC
  8
0
 62
7
 10
270.9622783962
 20
723.6113320976
 30
0
 40
5.000068403806604
 50
261.3731747465997
 51
278.6268252533997
  0
ARC
  8
0
 62
7
 10
270.962285154
 20
723.611263582
 30
0
 40
4.999999649762413
 50
278.6268664598002
 51
81.3731335401998
  0
ARC
  8
0
 62
7
 10
89.7318272433
 20
723.6113011283001
 30
0
 40
194.2304514222186
 50
351.8753132746
 51
0.0001889273999890733
  0
ARC
  8
0
 62
7
 10
334.192305752
 20
723.6114073748
 30
0
 40
194.230040042168
 50
187.3952912098999
 51
196.0050089301
  0
ARC
  8
0
 62
7
 10
334.1932110567
 20
723.6112100908
 30
0
 40
194.2309261933456
 50
172.60476958
 51
179.9999842207
  0
ARC
  8
0
 62
7
 10
151.4622820882
 20
711.4112638139
 30
0
 40
2.000000324294689
 50
179.9999998987988
 51
270.0000001011989
  0
ARC
  8
0
 62
7
 10
151.4622836781
 20
735.8112617603
 30
0
 40
2.000001914163992
 50
90.00004544519798
 51
179.9999545547996
  0
ARC
  8
0
 62
7
 10
157.2323976801
 20
742.8112688196
 30
0
 40
5.000005145180906
 50
270.0000166854007
 51
340.6683673940005
  0
ARC
  8
0
 62
7
 10
157.2323955629
 20
704.4112563374
 30
0
 40
5.000007152262854
 50
19.3316248777
 51
89.99995905359997
  0
ARC
  8
0
 62
7
 10
267.3879096481
 20
731.6112637179
 30
0
 40
1.999999640586547
 50
8.213209055098441
 51
90.00018091220072
  0
ARC
  8
0
 62
7
 10
267.3879096481
 20
715.6112634461
 30
0
 40
1.999999640586645
 50
269.9998190877993
 51
351.7867909448985
  0
ARC
  8
0
 62
7
 10
211.9619551489
 20
723.611263582
 30
0
 40
58.00032494610034
 50
351.7868356028
 51
8.213164397200034
  0
ARC
  8
0
 62
7
 10
265.6372330577
 20
735.6112695003
 30
0
 40
2.000006141810643
 50
192.6023992681988
 51
269.9998904694996
  0
ARC
  8
0
 62
7
 10
265.6372330577
 20
711.6112576638
 30
0
 40
2.000006141810462
 50
90.00010953050045
 51
167.3976007317998
  0
ARC
  8
0
 62
7
 10
211.962281918
 20
723.611263582
 30
0
 40
52.9999986026177
 50
12.60226517800003
 51
347.397734822
  0
ARC
  8
0
 62
7
 10
211.9623075467
 20
723.611263582
 30
0
 40
52.99997359133774
 50
347.3977287771
 51
12.60227122290001
  0
ARC
  8
0
 62
7
 10
243.1218003673
 20
738.4062000756001
 30
0
 40
1.194624013074584
 50
84.76135251040033
 51
135.0973578330018
  0
ARC
  8
0
 62
7
 10
243.1531953469
 20
735.57342906
 30
0
 40
1.181656433296884
 50
105.9403210637987
 51
183.6865683172987
  0
ARC
  8
0
 62
7
 10
244.1638171947
 20
735.3762346265
 30
0
 40
1.385059395343329
 50
224.7752548943
 51
275.0882938668018
  0
ARC
  8
0
 62
7
 10
244.1638208242
 20
738.1469832379
 30
0
 40
1.385068969464777
 50
224.7754408941987
 51
275.0881078668983
  0
ARC
  8
0
 62
7
 10
243.1531882084
 20
744.5734318431
 30
0
 40
1.181649633189993
 50
105.9400552653994
 51
183.6868341157027
  0
ARC
  8
0
 62
7
 10
244.1638292071
 20
747.1469994374
 30
0
 40
1.385086602924987
 50
224.7756837265014
 51
275.0876947803994
  0
ARC
  8
0
 62
7
 10
243.1217965037
 20
747.4062012737001
 30
0
 40
1.19462278688756
 50
84.76116103679978
 51
135.0971543370022
  0
ARC
  8
0
 62
7
 10
244.1638188319
 20
744.3762432175
 30
0
 40
1.385068193188238
 50
224.7755255454987
 51
275.0881934700985
  0
ARC
  8
0
 62
7
 10
299.9562331065386
 20
675.6105503876448
 30
0
 40
10.00605241419372
 50
0.0643960755558006
 51
90.04710948645669
  0
ARC
  8
0
 62
7
 10
299.9628445306375
 20
771.6053330837318
 30
0
 40
9.999435729429756
 50
269.8823604629452
 51
359.973629029445
  0
ARC
  8
0
 62
7
 10
113.9077943536294
 20
770.1375990327304
 30
0
 40
14.94563958504103
 50
179.7619807899496
 51
291.2141409489497
  0
ARC
  8
0
 62
7
 10
113.9669076860643
 20
676.9954720028064
 30
0
 40
15.00464901458475
 50
68.46463700778668
 51
179.8952847665868
  0
ARC
  8
0
 62
7
 10
256.1742120214
 20
553.3052479815
 30
0
 40
5.223366874051193
 50
91.24257277730007
 51
123.1418158902995
  0
ARC
  8
0
 62
7
 10
272.6286968757
 20
553.3052336965
 30
0
 40
5.223381167348335
 50
91.24257530829966
 51
123.1417694051996
  0
ARC
  8
0
 62
7
 10
167.9768913217
 20
553.3052479815
 30
0
 40
5.22336687405142
 50
91.24257277730001
 51
123.1418158903007
  0
ARC
  8
0
 62
7
 10
151.5224118894
 20
553.3052322046
 30
0
 40
5.223382753119217
 50
91.2426225565997
 51
123.1417661110005
  0
ARC
  8
0
 62
7
 10
272.4021423443
 20
516.249608034
 30
0
 40
5.223449443231877
 50
271.2427021201007
 51
303.1414024243001
  0
ARC
  8
0
 62
7
 10
264.158731258
 20
530.0157426702
 30
0
 40
18.98879676419455
 50
270.390601101
 51
287.1972762004001
  0
ARC
  8
0
 62
7
 10
151.295857358
 20
516.2496065419
 30
0
 40
5.223447857330024
 50
271.2426548719006
 51
303.1414057187006
  0
ARC
  8
0
 62
7
 10
159.5069278412
 20
530.0157564298
 30
0
 40
18.98881053800956
 50
270.3906072405001
 51
287.1972700609
  0
ARC
  8
0
 62
7
 10
121.6336432011
 20
497.5273861455
 30
0
 40
20
 50
270
 51
342.9665898338998
  0
ARC
  8
0
 62
7
 10
299.9622814659
 20
513.8220013372001
 30
0
 40
10.00000000000005
 50
299.8187173092005
 51
0
  0
ARC
  8
0
 62
7
 10
277.6687791256
 20
495.2818203721
 30
0
 40
5.000090454698725
 50
190.2450327904006
 51
299.8242605658002
  0
ARC
  8
0
 62
7
 10
271.2347294986
 20
408.6594953208
 30
0
 40
5.002328027556294
 50
55.18794661930088
 51
179.7834669681
  0
ARC
  8
0
 62
7
 10
299.9622814659
 20
382.7764103153
 30
0
 40
10
 50
0
 51
55.40771131249974
  0
ARC
  8
0
 62
7
 10
239.7391676696904
 20
380.3837211445971
 30
0
 40
6.785857860712341
 50
286.4067581650843
 51
286.6826801801845
  0
ARC
  8
0
 62
7
 10
136.68417114
 20
476.9817683265
 30
0
 40
2.999732248067351
 50
242.9248029321989
 51
4.117727917101371
  0
ARC
  8
0
 62
7
 10
121.9467022403
 20
447.9451664124
 30
0
 40
29.56279610851594
 50
63.11070457779998
 51
90.5978192851999
  0
ARC
  8
0
 62
7
 10
269.2928391958
 20
424.4032121932
 30
0
 40
3.060412697349824
 50
54.47347314990106
 51
179.8485237351998
  0
ARC
  8
0
 62
7
 10
299.9138538895
 20
403.4486074965
 30
0
 40
10.04842795860523
 50
359.9561315651
 51
68.9100039764996
  0
ARC
  8
0
 62
7
 10
299.9214120577
 20
493.0314872348
 30
0
 40
10.04087324267863
 50
287.8214801981002
 51
0.06467799360005427
  0
ARC
  8
0
 62
7
 10
113.9622814659
 20
492.5273861455
 30
0
 40
15
 50
180
 51
270
  0
ARC
  8
0
 62
7
 10
113.9622814659
 20
400.6644083748
 30
0
 40
15.00000000000003
 50
64.97804313450017
 51
180
  0
ARC
  8
0
 62
7
 10
231.8724607786
 20
406.9160928289
 30
0
 40
34.45986244791687
 50
286.5478668119001
 51
306.8854817446
  0
ARC
  8
0
 62
7
 10
150.4987812875
 20
458.2312468584
 30
0
 40
0.3906235442756411
 50
106.6854420000949
 51
183.7699948291981
  0
ARC
  8
0
 62
7
 10
211.7121058232439
 20
474.0686004265284
 30
0
 40
104.3861542199411
 50
233.9393284777073
 51
247.3139406056073
  0
ARC
  8
0
 62
7
 10
212.1421666907401
 20
473.9941871629013
 30
0
 40
104.4714507279202
 50
253.3847576269063
 51
268.4860535736062
  0
ARC
  8
0
 62
7
 10
216.1795026215
 20
419.9959537292
 30
0
 40
3.992947089512295
 50
354.0577791755998
 51
38.02208170270035
  0
ARC
  8
0
 62
7
 10
216.0192931473
 20
420.0533123287
 30
0
 40
3.268005070036093
 50
351.7181845878994
 51
35.53578902270039
  0
ARC
  8
0
 62
7
 10
215.7946693675
 20
419.1808997013
 30
0
 40
3.481796558352935
 50
326.9940344160993
 51
6.624756539198649
  0
ARC
  8
0
 62
7
 10
292.964408893
 20
497.9718519257
 30
0
 40
20.53042370220643
 50
190.0404359817999
 51
239.2310183628999
  0
ARC
  8
0
 62
7
 10
306.1934666135
 20
479.3987374128
 30
0
 40
63.16909462579923
 50
236.2209426319
 51
251.8851636733
  0
ARC
  8
0
 62
7
 10
188.4023497747
 20
468.2729500398
 30
0
 40
5.178082238899312
 50
179.8011176872008
 51
229.7617174097
  0
ARC
  8
0
 62
7
 10
188.4718222725
 20
469.0019662761
 30
0
 40
5.794552577643271
 50
233.8973317866998
 51
273.6101229106
  0
ARC
  8
0
 62
7
 10
188.9687756229
 20
469.361990716
 30
0
 40
6.14449834097838
 50
268.7682144038
 51
307.7693462502002
  0
ARC
  8
0
 62
7
 10
188.8626428332
 20
469.1593500555
 30
0
 40
6.052894281020939
 50
309.7387284863003
 51
2.269439194300694
  0
ARC
  8
0
 62
7
 10
189.5216843519
 20
469.7655194613
 30
0
 40
5.401552010203076
 50
356.1096351590002
 51
48.8283939422
  0
ARC
  8
0
 62
7
 10
190.1794987314
 20
470.2082529461
 30
0
 40
4.639712160612403
 50
51.3447578329009
 51
90.99776631890011
  0
ARC
  8
0
 62
7
 10
189.9435916167
 20
469.4133601978
 30
0
 40
5.436114867075469
 50
88.36490321899935
 51
131.8590238723
  0
ARC
  8
0
 62
7
 10
189.5765928168
 20
469.3744133456
 30
0
 40
3.903372850243645
 50
90.77013196050031
 51
149.7940922309998
  0
ARC
  8
0
 62
7
 10
189.5632655103
 20
470.7918320011
 30
0
 40
2.485909696575549
 50
50.98645367910057
 51
90.9020906519996
  0
ARC
  8
0
 62
7
 10
188.2712525677
 20
469.8791346411
 30
0
 40
4.031328536202513
 50
353.160325300701
 51
44.87275669200057
  0
ARC
  8
0
 62
7
 10
187.6653568824
 20
469.011700645
 30
0
 40
4.624783142204321
 50
314.3629295986001
 51
4.804289983799549
  0
ARC
  8
0
 62
7
 10
188.8796096101
 20
468.0923950177
 30
0
 40
3.126671056813644
 50
271.3444767526001
 51
310.2303822473005
  0
ARC
  8
0
 62
7
 10
188.8183194392
 20
468.1994403669
 30
0
 40
3.235658630151997
 50
235.8835231434999
 51
272.3850623173006
  0
ARC
  8
0
 62
7
 10
189.2095519531
 20
468.0550828893
 30
0
 40
3.360059871472284
 50
175.9751267778
 51
228.9628960791
  0
ARC
  8
0
 62
7
 10
181.5289385688
 20
481.3315510341
 30
0
 40
42.05639842415658
 50
165.7711833855999
 51
185.6367457710999
  0
ARC
  8
0
 62
7
 10
240.3609081903
 20
473.1332278868
 30
0
 40
2.140544190703347
 50
355.6165534207019
 51
44.24198943779998
  0
ARC
  8
0
 62
7
 10
240.3088499769
 20
472.5311064117
 30
0
 40
2.6277959612033
 50
52.88809433419871
 51
94.73354952160076
  0
ARC
  8
0
 62
7
 10
240.0970824941
 20
472.1138791654
 30
0
 40
3.036064674134458
 50
90.09593810759965
 51
149.2252235973994
  0
ARC
  8
0
 62
7
 10
235.5165062327
 20
473.1028906822
 30
0
 40
2.051220817354717
 50
15.97217680509963
 51
93.65487766000072
  0
ARC
  8
0
 62
7
 10
235.3912296449
 20
472.1131808873
 30
0
 40
3.036763643057817
 50
90.10341873400016
 51
149.2177429709992
  0
ARC
  8
0
 62
7
 10
235.2510326891
 20
471.3236501637
 30
0
 40
2.475701304563139
 50
135.5666528346995
 51
184.2968824449994
  0
ARC
  8
0
 62
7
 10
234.6087659427
 20
471.8229330831
 30
0
 40
1.670141199085746
 50
90.82617487980036
 51
132.3705328850012
  0
ARC
  8
0
 62
7
 10
234.5981665808
 20
472.4593034157
 30
0
 40
1.033685169597929
 50
48.31417604520021
 51
90.74733014359637
  0
ARC
  8
0
 62
7
 10
233.2713458731
 20
472.3768680778
 30
0
 40
2.187982423224438
 50
357.2508113186003
 51
22.98524831170077
  0
ARC
  8
0
 62
7
 10
240.055239111
 20
471.3244458377
 30
0
 40
2.473589204583566
 50
135.5444945247001
 51
184.3190407550016
  0
ARC
  8
0
 62
7
 10
239.3915011754
 20
471.8942654517
 30
0
 40
1.601795282776591
 50
93.59960182970023
 51
133.4651675417984
  0
ARC
  8
0
 62
7
 10
239.3395164032
 20
472.2845069423
 30
0
 40
1.209369896798679
 50
51.52227795880069
 51
92.30225193970111
  0
ARC
  8
0
 62
7
 10
238.6343992559
 20
472.2949188724
 30
0
 40
1.73243629852754
 50
356.3526997171988
 51
32.71617505420002
  0
ARC
  8
0
 62
7
 10
201.7478868583
 20
471.3933459258
 30
0
 40
9.904137151359286
 50
315.9317331629998
 51
5.029698670599928
  0
ARC
  8
0
 62
7
 10
208.4840572798
 20
471.2541164658
 30
0
 40
9.52667768118644
 50
173.929017537
 51
225.1095498655997
  0
ARC
  8
0
 62
7
 10
205.3356209076
 20
468.8311494819
 30
0
 40
5.612278607486972
 50
230.4311468682002
 51
269.7798644921003
  0
ARC
  8
0
 62
7
 10
205.3138248199
 20
468.7627615537
 30
0
 40
5.543849260984515
 50
270.0024107922001
 51
309.8219029477002
  0
ARC
  8
0
 62
7
 10
202.2444611106
 20
473.2256969017
 30
0
 40
9.418890825197217
 50
354.1254225719002
 51
45.34734578549994
  0
ARC
  8
0
 62
7
 10
205.2897061569
 20
475.6313423291
 30
0
 40
5.587621327817282
 50
50.23032106310043
 51
89.75029319240034
  0
ARC
  8
0
 62
7
 10
205.3267662423
 20
475.6538855
 30
0
 40
5.565039601468987
 50
90.13083904089982
 51
129.8530775436995
  0
ARC
  8
0
 62
7
 10
200.8520606003
 20
471.1660746332
 30
0
 40
8.201850040765395
 50
316.5033508701997
 51
7.676407975600049
  0
ARC
  8
0
 62
7
 10
205.2936800575
 20
467.2957657174
 30
0
 40
2.329270115756533
 50
270.5012685405008
 51
310.3507987985994
  0
ARC
  8
0
 62
7
 10
205.3385757955
 20
467.3162288001
 30
0
 40
2.349771969714936
 50
229.8317704083016
 51
269.4021603462005
  0
ARC
  8
0
 62
7
 10
210.23417525
 20
471.31088037
 30
0
 40
8.638947128607281
 50
173.6813623462001
 51
222.0862241127001
  0
ARC
  8
0
 62
7
 10
210.0412401444
 20
473.1957883041
 30
0
 40
8.445352223894306
 50
137.4175244689002
 51
186.3503814927996
  0
ARC
  8
0
 62
7
 10
205.3303635701
 20
477.1368574251
 30
0
 40
2.327599131643219
 50
90.40137631350056
 51
130.364692932
  0
ARC
  8
0
 62
7
 10
205.2893441328
 20
477.1235757149
 30
0
 40
2.340954187737429
 50
49.75282763649972
 51
89.39510502449963
  0
ARC
  8
0
 62
7
 10
200.5409686176
 20
473.1775474331
 30
0
 40
8.488991844100752
 50
353.8062502200997
 51
42.47908916909994
  0
ARC
  8
0
 62
7
 10
226.2553282272
 20
473.1307429029
 30
0
 40
2.14719006100508
 50
355.6966471318986
 51
44.16189572650067
  0
ARC
  8
0
 62
7
 10
226.2159693771
 20
472.5512413388
 30
0
 40
2.608222848336834
 50
52.72361893899979
 51
94.89802491680041
  0
ARC
  8
0
 62
7
 10
226.0192025149
 20
472.0772733317
 30
0
 40
3.072775659780442
 50
90.48350194509928
 51
148.8376597599002
  0
ARC
  8
0
 62
7
 10
221.4184056514
 20
473.1037780988
 30
0
 40
2.050375260180235
 50
15.9531468299025
 51
93.67393153689997
  0
ARC
  8
0
 62
7
 10
221.312858364
 20
472.0774361403
 30
0
 40
3.07261207601648
 50
90.48179872779994
 51
148.8393629772003
  0
ARC
  8
0
 62
7
 10
221.1565575514
 20
471.3220959628
 30
0
 40
2.479825615788573
 50
135.6097729718988
 51
184.2537132345981
  0
ARC
  8
0
 62
7
 10
220.4939510648
 20
471.8635718405
 30
0
 40
1.629348426198951
 50
90.28110837399863
 51
132.9156325520004
  0
ARC
  8
0
 62
7
 10
220.4971253556
 20
472.4531015282
 30
0
 40
1.039859104498958
 50
48.44617710630146
 51
90.61537896559739
  0
ARC
  8
0
 62
7
 10
219.1726711235
 20
472.3768793832
 30
0
 40
2.187930631077263
 50
357.250449794301
 51
22.985502024101
  0
ARC
  8
0
 62
7
 10
225.9618748696
 20
471.3224858052
 30
0
 40
2.478790389318247
 50
135.5989572626986
 51
184.2645289436994
  0
ARC
  8
0
 62
7
 10
225.2989378446
 20
471.8801136725
 30
0
 40
1.616314636844648
 50
93.78613963470122
 51
133.2786297366971
  0
ARC
  8
0
 62
7
 10
225.2542034169
 20
472.3255745286
 30
0
 40
1.168971195717256
 50
50.78449479699894
 51
93.04003510150186
  0
ARC
  8
0
 62
7
 10
224.5285806765
 20
472.2930801131
 30
0
 40
1.739398830590688
 50
356.4280075305016
 51
32.64086724099987
  0
ARC
  8
0
 62
7
 10
191.2122814659
 20
561.5273861455
 30
0
 40
2.599999999999981
 50
285.9423686055998
 51
254.057631394399
  0
ARC
  8
0
 62
7
 10
191.2122814659
 20
561.5273861455
 30
0
 40
3.10000000000004
 50
306.2493208829004
 51
233.7506791170996
  0
ARC
  8
0
 62
7
 10
153.4622814659
 20
557.5273861455
 30
0
 40
1.600000000000008
 50
38.68218745349965
 51
141.3178125464997
  0
ARC
  8
0
 62
7
 10
151.4622814659
 20
568.5273861455
 30
0
 40
2
 50
90
 51
180
  0
ARC
  8
0
 62
7
 10
189.9622814248
 20
573.0273881916
 30
0
 40
3.000000331422292
 50
14.14480472840008
 51
180.0000390790995
  0
ARC
  8
0
 62
7
 10
191.2122814659
 20
561.5273861455
 30
0
 40
4.25
 50
0
 51
180
  0
ARC
  8
0
 62
7
 10
191.2122814659
 20
561.5273861455
 30
0
 40
3.25
 50
0
 51
180
  0
ARC
  8
0
 62
7
 10
271.4622814659
 20
408.5053465062
 30
0
 40
5.000000000000067
 50
55.40771131250002
 51
178.8293725758002
  0
ARC
  8
0
 62
7
 10
211.8151731228193
 20
474.039087334102
 30
0
 40
104.5154330347095
 50
271.4953357494327
 51
286.5896164766327
  0
ARC
  8
0
 62
7
 10
231.9952587400188
 20
407.0168316549529
 30
0
 40
34.46709685581262
 50
306.6216959891686
 51
359.8811683424686
  0
ARC
  8
0
 62
7
 10
170.1899795287
 20
483.2764112895
 30
0
 40
30.54518580504319
 50
122.8156708191001
 51
163.9944102821
  0
ARC
  8
0
 62
7
 10
153.9622814659
 20
575.5273861455
 30
0
 40
5
 50
270
 51
0
  0
ARC
  8
0
 62
7
 10
257.9622814659
 20
577.0273861455
 30
0
 40
7
 50
0
 51
90
  0
ARC
  8
0
 62
7
 10
165.9622814659
 20
577.0273861455
 30
0
 40
6.999999999999999
 50
179.9757726233019
 51
180.024227376713
  0
CIRCLE
  8
1
 62
7
 10
264.2881905622
 20
671.2853629380001
 30
0
 40
9.499996196912605
  0
CIRCLE
  8
1
 62
7
 10
159.6363855488
 20
671.2853629380001
 30
0
 40
9.499996196912605
  0
CIRCLE
  8
1
 62
7
 10
264.2881905622
 20
775.9371660888
 30
0
 40
9.499996196912605
  0
CIRCLE
  8
1
 62
7
 10
159.6363855488
 20
775.9371660888
 30
0
 40
9.499996196912605
  0
CIRCLE
  8
1
 62
2
  6
DASHDOT
 10
496.2594734814714
 20
448.0273861455
 30
0
 40
71.49998289887384
  0
CIRCLE
  8
0
 62
7
 10
547.1091589256999
 20
498.2922631895
 30
0
 40
9.500003029032882
  0
CIRCLE
  8
0
 62
7
 10
547.1091596385001
 20
397.7625050716
 30
0
 40
9.50000302903311
  0
CIRCLE
  8
0
 62
7
 10
445.4097540041
 20
498.2922624718
 30
0
 40
9.500002115605355
  0
CIRCLE
  8
0
 62
7
 10
445.4097536477
 20
397.7625061457
 30
0
 40
9.500002115605412
  0
CIRCLE
  8
0
 62
7
 10
496.2594565777
 20
448.0273852974
 30
0
 40
25.00000004484753
  0
CIRCLE
  8
0
 62
7
 10
496.259456091
 20
448.027386156
 30
0
 40
32.99999916223413
  0
CIRCLE
  8
0
 62
7
 10
496.2594570609
 20
448.0273857459
 30
0
 40
27.00000002098034
  0
CIRCLE
  8
0
 62
7
 10
496.2594555188
 20
448.0273873888
 30
0
 40
33.49999881034569
  0
CIRCLE
  8
0
 62
7
 10
496.2594567988
 20
448.0273841165
 30
0
 40
33.99999846100445
  0
CIRCLE
  8
0
 62
7
 10
496.2594564129
 20
448.027382656
 30
0
 40
41.49999970066097
  0
CIRCLE
  8
0
 62
7
 10
496.2594560706
 20
448.0273863496
 30
0
 40
41.99999902025343
  0
CIRCLE
  8
0
 62
7
 10
496.2594545662
 20
448.0273864801
 30
0
 40
42.49999900749458
  0
CIRCLE
  8
0
 62
7
 10
496.2594570722
 20
448.0273855013
 30
0
 40
52.00000237810616
  0
CIRCLE
  8
0
 62
7
 10
496.2594559625
 20
448.0273890505
 30
0
 40
50.00000203815847
  0
CIRCLE
  8
0
 62
7
 10
211.962281799
 20
723.6112635179001
 30
0
 40
45.99999997605269
  0
CIRCLE
  8
0
 62
7
 10
135.8978831084
 20
478.9617293838
 30
0
 40
1.25
  0
CIRCLE
  8
0
 62
7
 10
191.2122814659
 20
561.5273861455
 30
0
 40
2.5
  0
LINE
  8
1
 62
2
 10
260.0817306793
 20
353.276723556
 30
0
 11
245.6115110114
 21
353.276723556
 31
0
  0
LINE
  8
1
 62
2
 10
245.6115110114
 20
353.276723556
 30
0
 11
218.8853638319
 21
416.42653231
 31
0
  0
LINE
  8
1
 62
2
 10
220.9221966212289
 20
413.8137730194619
 30
0
 11
218.8853638319
 21
416.42653231
 31
0
  0
LINE
  8
1
 62
2
 10
219.3429331254509
 20
413.1453999957557
 30
0
 11
218.8853638319
 21
416.42653231
 31
0
  0
LINE
  8
1
 62
2
 10
584.7594394254001
 20
517.0273053902
 30
0
 11
575.5439830852
 21
517.0273053902
 31
0
  0
LINE
  8
1
 62
2
 10
575.5439830852
 20
517.0273053902
 30
0
 11
556.3694230858
 21
500.4130095762233
 31
0
  0
LINE
  8
1
 62
2
 10
558.2263649854796
 20
503.1565411877039
 30
0
 11
556.3694230858
 21
500.4130095762233
 31
0
  0
LINE
  8
1
 62
2
 10
559.3493477500145
 20
501.8605066980114
 30
0
 11
556.3694230858
 21
500.4130095762233
 31
0
  0
DIMENSION
  8
1
  6
CONTINUOUS
 62
2
  2
*D0
  3
DMST_1
 10
339
 20
448.0273861455
 30
0
 11
336.4
 21
408.02738703955
 31
0
 12
0
 22
0
 32
0
 70
0
 13
251.9622805718
 23
368.0273879336
 33
0
 14
335.5701132146999
 24
448.0273861455
 34
0
 50
90
 53
0
  0
DIMENSION
  8
1
  6
CONTINUOUS
 62
2
  2
*D1
  3
DMST_1
 10
348.96228140042
 20
585.0273806618
 30
0
 11
346.36228140042
 21
476.5273842977
 31
0
 12
0
 22
0
 32
0
 70
0
 13
251.9622805718
 23
368.0273879336
 33
0
 14
248.9622819427
 24
585.0273806618
 34
0
 50
90
 53
0
  0
DIMENSION
  8
1
  6
CONTINUOUS
 62
2
  2
*D2
  3
DMST_1
 10
326.962283552
 20
331.8682576643
 30
0
 11
204.4622848931
 21
334.4682576643
 31
0
 12
0
 22
0
 32
0
 70
0
 13
81.96228623419999
 23
398.0273854004
 33
0
 14
326.962283552
 24
398.0273854004
 34
0
 53
0
  0
DIMENSION
  8
1
  6
CONTINUOUS
 62
2
  2
*D3
  3
DMST_1
 10
326.962283552
 20
340.1203833051
 30
0
 11
269.46228250895
 21
342.7203833051
 31
0
 12
0
 22
0
 32
0
 70
0
 13
211.9622814659
 23
357.9751171632
 33
0
 14
326.962283552
 24
398.0273854004
 34
0
 53
0
  0
DIMENSION
  8
1
  6
CONTINUOUS
 62
2
  2
*D4
  3
DMST_1
 10
81.96228623420002
 20
340.1203833051
 30
0
 11
146.96228385005
 21
342.7203833051
 31
0
 12
0
 22
0
 32
0
 70
0
 13
211.9622814659
 23
357.9751171632
 33
0
 14
81.96228623419999
 24
398.0273854004
 34
0
 53
0
  0
DIMENSION
  8
1
  6
CONTINUOUS
 62
2
  2
*D5
  3
DMST_1
 10
348.96228140042
 20
630.6112632393
 30
0
 11
346.36228140042
 21
723.6112654446999
 31
0
 12
0
 22
0
 32
0
 70
0
 13
324.9622797969
 23
816.6112676501
 33
0
 14
324.9622797969
 24
630.6112632393
 34
0
 50
90
 53
0
  0
DIMENSION
  8
1
  6
CONTINUOUS
 62
2
  2
*D6
  3
DMST_2
 10
425.5653297291203
 20
437.3229200840298
 30
0
 11
622.9206750183055
 21
469.8359887660226
 31
0
 12
0
 22
0
 32
0
 70
3
  1
D2
 15
566.9536172338226
 25
458.73185220697
 35
0
 40
0
 53
0
  0
DIMENSION
  8
1
  6
CONTINUOUS
 62
2
  2
*D7
  3
DMST_2
 10
446.8556838428316
 20
455.7259281433234
 30
0
 11
622.9408233982023
 21
430.9181397367144
 31
0
 12
0
 22
0
 32
0
 70
3
  1
D3
 15
545.6632280821684
 25
440.3288499576767
 35
0
 40
0
 53
0
  0
DIMENSION
  8
1
  6
CONTINUOUS
 62
2
  2
*D8
  3
DMST_2
 10
409.4089381251743
 20
414.7709973450815
 30
0
 11
619.8305349190144
 21
498.1287278138049
 31
0
 12
0
 22
0
 32
0
 70
3
  1
D1
 15
583.1099777414257
 25
481.2837728985186
 35
0
 40
0
 53
0
  0
ENDSEC
  0
EOF
