  0
SECTION
  2
HEADER
  9
$ACADVER
  1
AC1009
  9
$INSBASE
 10
0
 20
0
  9
$EXTMIN
 10
61.936206403
 20
214.9058514917386
  9
$EXTMAX
 10
704.5567710267
 20
942.6954231758
  9
$LIMMIN
 10
61.936206403
 20
214.9058514917386
  9
$LIMMAX
 10
704.5567710267
 20
942.6954231758
  9
$VIEWCTR
 10
10
 20
10
  9
$VIEWSIZE
 40
10
  9
$SNAPMODE
 70
0
  9
$SNAPUNIT
 10
1
 20
1
  9
$SNAPBASE
 10
0
 20
0
  9
$SNAPANG
 50
0
  9
$SNAPSTYLE
 70
0
  9
$SNAPISOPAIR
 70
0
  9
$GRIDMODE
 70
0
  9
$GRIDUNIT
 10
0
 20
0
  9
$ORTHOMODE
 70
0
  9
$REGENMODE
 70
1
  9
$FILLMODE
 70
1
  9
$QTEXTMODE
 70
0
  9
$DRAGMODE
 70
2
  9
$LTSCALE
 40
1
  9
$OSMODE
 70
0
  9
$ATTMODE
 70
1
  9
$TEXTSIZE
 40
3.5
  9
$TRACEWID
 40
0.5
  9
$TEXTSTYLE
  7
STANDARD
  9
$CLAYER
  8
0
  9
$CELTYPE
  6
BYLAYER
  9
$CECOLOR
 62
256
  9
$DIMSCALE
 40
1
  9
$DIMASZ
 40
0.18
  9
$DIMEXO
 40
0.0625
  9
$DIMDLI
 40
0.38
  9
$DIMRND
 40
0
  9
$DIMDLE
 40
0
  9
$DIMEXE
 40
0.18
  9
$DIMTP
 40
0
  9
$DIMTM
 40
0
  9
$DIMTXT
 40
0.18
  9
$DIMCEN
 40
0.09
  9
$DIMTSZ
 40
0
  9
$DIMTOL
 70
0
  9
$DIMLIM
 70
0
  9
$DIMTIH
 70
1
  9
$DIMTOH
 70
1
  9
$DIMSE1
 70
0
  9
$DIMSE2
 70
0
  9
$DIMTAD
 70
0
  9
$DIMZIN
 70
0
  9
$DIMBLK
  1

  9
$DIMASO
 70
1
  9
$DIMSHO
 70
1
  9
$DIMPOST
  1

  9
$DIMAPOST
  1

  9
$DIMALT
 70
0
  9
$DIMALTD
 70
2
  9
$DIMALTF
 40
25.4
  9
$DIMLFAC
 40
1
  9
$DIMTOFL
 70
0
  9
$DIMTVP
 40
0
  9
$DIMTIX
 70
0
  9
$DIMSOXD
 70
0
  9
$DIMSAH
 70
0
  9
$DIMBLK1
  1

  9
$DIMBLK2
  1

  9
$DIMSTYLE
  2
*UNNAMED
  9
$DIMCLRD
 70
0
  9
$DIMCLRE
 70
0
  9
$DIMCLRT
 70
0
  9
$DIMTFAC
 40
1
  9
$DIMGAP
 40
0.09
  9
$LUNITS
 70
2
  9
$LUPREC
 70
4
  9
$AXISMODE
 70
0
  9
$AXISUNIT
 10
0
 20
0
  9
$SKETCHINC
 40
0.1
  9
$FILLETRAD
 40
2
  9
$AUNITS
 70
0
  9
$AUPREC
 70
0
  9
$MENU
  1
ACAD
  9
$ELEVATION
 40
0
  9
$THICKNESS
 40
0
  9
$VIEWDIR
 10
0
 20
0
 30
1
  9
$LIMCHECK
 70
0
  9
$BLIPMODE
 70
1
  9
$CHAMFERA
 40
0
  9
$CHAMFERB
 40
0
  9
$FASTZOOM
 70
1
  9
$SKPOLY
 70
0
  9
$ANGBASE
 50
0
  9
$ANGDIR
 70
0
  9
$PDMODE
 70
0
  9
$PDSIZE
 40
0
  9
$PLINEWID
 40
0
  9
$COORDS
 70
2
  0
ENDSEC
  0
SECTION
  2
TABLES
  0
TABLE
  2
DIMSTYLE
 70
2
  0
DIMSTYLE
  2
DMST_1
 70
0
  3

  4

  5

  6

  7

 40
1
 41
3.2
 42
0.5
 43
7
 44
1.5
 45
0
 46
0
 47
0
 48
0
140
3.2
141
0
142
0
143
25.4
144
1
145
0
146
1
147
0.09
 71
0
 72
0
 73
0
 74
0
 75
0
 76
0
 77
1
 78
9
170
0
171
2
172
0
173
0
174
0
175
0
176
2
177
2
178
2
  0
DIMSTYLE
  2
DMST_2
 70
0
  3

  4

  5

  6

  7

 40
1
 41
3.2
 42
0.5
 43
7
 44
1.5
 45
0
 46
0
 47
0
 48
0
140
3.2
141
0
142
0
143
25.4
144
1
145
0
146
1
147
0.09
 71
0
 72
0
 73
0
 74
0
 75
0
 76
0
 77
1
 78
9
170
0
171
2
172
1
173
0
174
0
175
0
176
2
177
2
178
2
  0
ENDTAB
  0
TABLE
  2
LTYPE
 70
9
  0
LTYPE
  2
CONTINUOUS
 70
64
  3
Solid line
 72
65
 73
0
 40
0
  0
LTYPE
  2
BORDER
 70
64
  3
__ __ . __ __ .
 72
65
 73
6
 40
33.51662501176599
 49
9.576178574790282
 49
-4.788089287395141
 49
9.576178574790282
 49
-4.788089287395141
 49
0
 49
-4.788089287395141
  0
LTYPE
  2
CENTER
 70
64
  3
____ _ ____ _
 72
65
 73
4
 40
38.30471429916113
 49
23.94044643697571
 49
-4.788089287395141
 49
4.788089287395141
 49
-4.788089287395141
  0
LTYPE
  2
DASHDOT
 70
64
  3
__ . __ . __ .
 72
65
 73
4
 40
19.15235714958056
 49
9.576178574790282
 49
-4.788089287395141
 49
0
 49
-4.788089287395141
  0
LTYPE
  2
DASHED
 70
64
  3
__ __ __ __ __
 72
65
 73
2
 40
14.36426786218542
 49
9.576178574790282
 49
-4.788089287395141
  0
LTYPE
  2
DIVIDE
 70
64
  3
__ . . __ . . 
 72
65
 73
6
 40
23.94044643697571
 49
9.576178574790282
 49
-4.788089287395141
 49
0
 49
-4.788089287395141
 49
0
 49
-4.788089287395141
  0
LTYPE
  2
DOT
 70
64
  3
..............
 72
65
 73
4
 40
9.576178574790282
 49
0
 49
-4.788089287395141
 49
0
 49
-4.788089287395141
  0
LTYPE
  2
HIDDEN
 70
64
  3
_ _ _ _ _ _ _
 72
65
 73
2
 40
7.182133931092711
 49
4.788089287395141
 49
-2.39404464369757
  0
LTYPE
  2
PHANTOM
 70
64
  3
_____ _ _ _____ _ _ 
 72
65
 73
6
 40
47.88089287395141
 49
23.94044643697571
 49
-4.788089287395141
 49
4.788089287395141
 49
-4.788089287395141
 49
4.788089287395141
 49
-4.788089287395141
  0
ENDTAB
  0
TABLE
  2
LAYER
 70
3
  0
LAYER
  2
0
 70
0
 62
7
  6
CONTINUOUS
  0
LAYER
  2
1
 70
0
 62
7
  6
CONTINUOUS
  0
ENDTAB
  0
TABLE
  2
STYLE
 70
4
  0
STYLE
  2
STANDARD
 70
0
 40
0
 41
1
 50
0
 71
0
 42
3.5
  3
txt
  4

  0
STYLE
  2
SIMPLEX
 70
0
 40
0
 41
1
 50
0
 71
0
 42
3.5
  3
simplex
  4

  0
STYLE
  2
COMPLEX
 70
0
 40
0
 41
1
 50
0
 71
0
 42
3.5
  3
complex
  4

  0
STYLE
  2
ITALIC
 70
0
 40
0
 41
1
 50
0
 71
0
 42
3.5
  3
italic
  4

  0
ENDTAB
  0
TABLE
  2
VIEW
 70
0
  0
ENDTAB
  0
ENDSEC
  0
SECTION
  2
BLOCKS
  0
BLOCK
  8
1
  2
*D0
 70
1
 10
0
 20
0
 30
0
  0
LINE
  8
1
 62
2
 10
374.0690045433
 20
741.5080730239
 30
0
 11
374.0690045433
 21
927.5080730239
 31
0
  0
LINE
  8
1
 62
2
 10
343.1518999847
 20
741.5080730239
 30
0
 11
375.5690045433
 21
741.5080730239
 31
0
  0
LINE
  8
1
 62
2
 10
343.1518999847
 20
927.5080730239
 30
0
 11
375.5690045433
 21
927.5080730239
 31
0
  0
LINE
  8
1
 62
2
 10
374.0690045433
 20
927.5080730239
 30
0
 11
374.9330045433
 21
924.3080730239
 31
0
  0
LINE
  8
1
 62
2
 10
374.0690045433
 20
927.5080730239
 30
0
 11
373.2050045433001
 21
924.3080730239
 31
0
  0
LINE
  8
1
 62
2
 10
374.0690045433
 20
741.5080730239
 30
0
 11
373.2050045433001
 21
744.7080730239001
 31
0
  0
LINE
  8
1
 62
2
 10
374.0690045433
 20
741.5080730239
 30
0
 11
374.9330045433
 21
744.7080730239001
 31
0
  0
TEXT
  8
1
 62
2
 10
373.0690045433
 20
830.7193543160103
 30
0
 40
3.2
  1
186
 50
90
 41
0.9
 51
15
  0
ENDBLK
  8
0
  0
BLOCK
  8
1
  2
*D1
 70
1
 10
0
 20
0
 30
0
  0
LINE
  8
1
 62
2
 10
374.0690045433
 20
356.3684149266
 30
0
 11
374.0690045433
 21
622.7184149266
 31
0
  0
LINE
  8
1
 62
2
 10
268.1518999847
 20
356.3684149266
 30
0
 11
375.5690045433
 21
356.3684149266
 31
0
  0
LINE
  8
1
 62
2
 10
255.1518999847
 20
622.7184149266
 30
0
 11
375.5690045433
 21
622.7184149266
 31
0
  0
LINE
  8
1
 62
2
 10
374.0690045433
 20
356.3684149266
 30
0
 11
373.2050045433001
 21
359.5684149266
 31
0
  0
LINE
  8
1
 62
2
 10
374.0690045433
 20
356.3684149266
 30
0
 11
374.9330045433
 21
359.5684149266
 31
0
  0
LINE
  8
1
 62
2
 10
374.0690045433
 20
622.7184149266
 30
0
 11
374.9330045433
 21
619.5184149265999
 31
0
  0
LINE
  8
1
 62
2
 10
374.0690045433
 20
622.7184149266
 30
0
 11
373.2050045433001
 21
619.5184149265999
 31
0
  0
TEXT
  8
1
 62
2
 10
373.0690045433
 20
485.2746962187102
 30
0
 40
3.2
  1
267
 50
90
 41
0.9
 51
15
  0
ENDBLK
  8
0
  0
BLOCK
  8
1
  2
*D2
 70
1
 10
0
 20
0
 30
0
  0
LINE
  8
1
 62
2
 10
364.985233318
 20
356.3684149266
 30
0
 11
364.985233318
 21
456.3684149266
 31
0
  0
LINE
  8
1
 62
2
 10
268.1518999847
 20
356.3684149266
 30
0
 11
366.485233318
 21
356.3684149266
 31
0
  0
LINE
  8
1
 62
2
 10
355.0698325009001
 20
456.3684149266
 30
0
 11
366.485233318
 21
456.3684149266
 31
0
  0
LINE
  8
1
 62
2
 10
364.985233318
 20
356.3684149266
 30
0
 11
364.1212333180001
 21
359.5684149266
 31
0
  0
LINE
  8
1
 62
2
 10
364.985233318
 20
356.3684149266
 30
0
 11
365.849233318
 21
359.5684149266
 31
0
  0
LINE
  8
1
 62
2
 10
364.985233318
 20
456.3684149266
 30
0
 11
365.849233318
 21
453.1684149266
 31
0
  0
LINE
  8
1
 62
2
 10
364.985233318
 20
456.3684149266
 30
0
 11
364.1212333180001
 21
453.1684149266
 31
0
  0
TEXT
  8
1
 62
2
 10
363.985233318
 20
402.5796962187102
 30
0
 40
3.2
  1
100
 50
90
 41
0.9
 51
15
  0
ENDBLK
  8
0
  0
BLOCK
  8
1
  2
*D3
 70
1
 10
0
 20
0
 30
0
  0
LINE
  8
1
 62
2
 10
74.65189998470002
 20
337.1998181609
 30
0
 11
217.6518999847
 21
337.1998181609
 31
0
  0
LINE
  8
1
 62
2
 10
74.65189998470002
 20
399.8684149265999
 30
0
 11
74.65189998470002
 21
335.6998181609
 31
0
  0
LINE
  8
1
 62
2
 10
217.6518999847
 20
347.0050068909999
 30
0
 11
217.6518999847
 21
335.6998181609
 31
0
  0
LINE
  8
1
 62
2
 10
74.65189998470002
 20
337.1998181609
 30
0
 11
77.85189998470003
 21
338.0638181608999
 31
0
  0
LINE
  8
1
 62
2
 10
74.65189998470002
 20
337.1998181609
 30
0
 11
77.85189998470003
 21
336.3358181609
 31
0
  0
LINE
  8
1
 62
2
 10
217.6518999847
 20
337.1998181609
 30
0
 11
214.4518999847001
 21
336.3358181609
 31
0
  0
LINE
  8
1
 62
2
 10
217.6518999847
 20
337.1998181609
 30
0
 11
214.4518999847001
 21
338.0638181608999
 31
0
  0
TEXT
  8
1
 62
2
 10
142.3631812768102
 20
338.1998181609
 30
0
 40
3.2
  1
143
 41
0.9
 51
15
  0
ENDBLK
  8
0
  0
BLOCK
  8
1
  2
*D4
 70
1
 10
0
 20
0
 30
0
  0
LINE
  8
1
 62
2
 10
217.6518999847
 20
337.1998181609
 30
0
 11
344.6518999847
 21
337.1998181609
 31
0
  0
LINE
  8
1
 62
2
 10
217.6518999847
 20
347.0050068909999
 30
0
 11
217.6518999847
 21
335.6998181609
 31
0
  0
LINE
  8
1
 62
2
 10
344.6518999847
 20
399.8684149265999
 30
0
 11
344.6518999847
 21
335.6998181609
 31
0
  0
LINE
  8
1
 62
2
 10
217.6518999847
 20
337.1998181609
 30
0
 11
220.8518999847
 21
338.0638181608999
 31
0
  0
LINE
  8
1
 62
2
 10
217.6518999847
 20
337.1998181609
 30
0
 11
220.8518999847
 21
336.3358181609
 31
0
  0
LINE
  8
1
 62
2
 10
344.6518999847
 20
337.1998181609
 30
0
 11
341.4518999847
 21
336.3358181609
 31
0
  0
LINE
  8
1
 62
2
 10
344.6518999847
 20
337.1998181609
 30
0
 11
341.4518999847
 21
338.0638181608999
 31
0
  0
TEXT
  8
1
 62
2
 10
277.3631812768102
 20
338.1998181609
 30
0
 40
3.2
  1
127
 41
0.9
 51
15
  0
ENDBLK
  8
0
  0
BLOCK
  8
1
  2
*D5
 70
1
 10
0
 20
0
 30
0
  0
LINE
  8
1
 62
2
 10
74.65189998470001
 20
331.2840969479001
 30
0
 11
344.6518999847
 21
331.2840969479001
 31
0
  0
LINE
  8
1
 62
2
 10
74.65189998470001
 20
399.8684149266001
 30
0
 11
74.65189998470001
 21
329.7840969479001
 31
0
  0
LINE
  8
1
 62
2
 10
344.6518999847
 20
399.8684149266001
 30
0
 11
344.6518999847
 21
329.7840969479001
 31
0
  0
LINE
  8
1
 62
2
 10
344.6518999847
 20
331.2840969479001
 30
0
 11
341.4518999847
 21
330.4200969479001
 31
0
  0
LINE
  8
1
 62
2
 10
344.6518999847
 20
331.2840969479001
 30
0
 11
341.4518999847
 21
332.1480969479001
 31
0
  0
LINE
  8
1
 62
2
 10
74.65189998470001
 20
331.2840969479001
 30
0
 11
77.85189998470001
 21
332.1480969479001
 31
0
  0
LINE
  8
1
 62
2
 10
74.65189998470001
 20
331.2840969479001
 30
0
 11
77.85189998470001
 21
330.4200969479001
 31
0
  0
TEXT
  8
1
 62
2
 10
205.3831812768102
 20
332.2840969479001
 30
0
 40
3.2
  1
270
 41
0.9
 51
15
  0
ENDBLK
  8
0
  0
BLOCK
  8
1
  2
*D6
 70
1
 10
0
 20
0
 30
0
  0
LINE
  8
1
 62
2
 10
459.3001325634206
 20
410.4738468460576
 30
0
 11
666.4701527941578
 21
528.0204462312645
 31
0
  0
LINE
  8
1
 62
2
 10
621.0739081971797
 20
502.2629830071424
 30
0
 11
618.7170787972611
 21
499.932349792825
 31
0
  0
LINE
  8
1
 62
2
 10
621.0739081971797
 20
502.2629830071424
 30
0
 11
617.8643281129258
 21
501.4352803535515
 31
0
  0
LINE
  8
1
 62
2
 10
459.3001325634206
 20
410.4738468460576
 30
0
 11
461.6569619633391
 21
412.804480060375
 31
0
  0
LINE
  8
1
 62
2
 10
459.3001325634206
 20
410.4738468460576
 30
0
 11
462.5097126476744
 21
411.3015494996485
 31
0
  0
TEXT
  8
1
 62
2
 10
659.3861753934036
 20
525.1508082792466
 30
0
 40
3.2
  1
186
 50
29.57022707078941
 41
0.9
 51
15
  0
TEXT
  8
1
 62
2
 10
655.3005722398877
 20
522.8326699858855
 30
0
 40
3.2
  1
%%c
 50
29.57022707078941
 41
0.9
 51
15
  0
ENDBLK
  8
0
  0
BLOCK
  8
1
  2
*D7
 70
1
 10
0
 20
0
 30
0
  0
LINE
  8
1
 62
2
 10
470.5328857879135
 20
428.5601151909868
 30
0
 11
673.8957201965482
 21
509.7494758429145
 31
0
  0
LINE
  8
1
 62
2
 10
609.8411549726866
 20
484.1767146622132
 30
0
 11
607.1895968430324
 21
482.1878115763227
 31
0
  0
LINE
  8
1
 62
2
 10
609.8411549726866
 20
484.1767146622132
 30
0
 11
606.5488936171238
 21
483.7926428373313
 31
0
  0
LINE
  8
1
 62
2
 10
470.5328857879135
 20
428.5601151909868
 30
0
 11
473.1844439175678
 21
430.5490182768773
 31
0
  0
LINE
  8
1
 62
2
 10
470.5328857879135
 20
428.5601151909868
 30
0
 11
473.8251471434763
 21
428.9441870158687
 31
0
  0
TEXT
  8
1
 62
2
 10
666.4876115917521
 20
507.8686556256684
 30
0
 40
3.2
  1
150
 50
21.76356520911567
 41
0.9
 51
15
  0
TEXT
  8
1
 62
2
 10
662.1249990851118
 20
506.1269523237046
 30
0
 40
3.2
  1
%%c
 50
21.76356520911567
 41
0.9
 51
15
  0
ENDBLK
  8
0
  0
BLOCK
  8
1
  2
*D8
 70
1
 10
0
 20
0
 30
0
  0
LINE
  8
1
 62
2
 10
472.4848492582736
 20
438.5803283132551
 30
0
 11
676.1095368462321
 21
492.0807333874358
 31
0
  0
LINE
  8
1
 62
2
 10
607.8891915023264
 20
474.1565015399449
 30
0
 11
605.01379092009
 21
472.5076936397716
 31
0
  0
LINE
  8
1
 62
2
 10
607.8891915023264
 20
474.1565015399449
 30
0
 11
604.5746792962633
 21
474.1789700926125
 31
0
  0
LINE
  8
1
 62
2
 10
472.4848492582736
 20
438.5803283132551
 30
0
 11
475.3602498405101
 21
440.2291362134284
 31
0
  0
LINE
  8
1
 62
2
 10
472.4848492582736
 20
438.5803283132551
 30
0
 11
475.7993614643367
 21
438.5578597605875
 31
0
  0
TEXT
  8
1
 62
2
 10
668.5267218290478
 20
491.122362788335
 30
0
 40
3.2
  1
140
 50
14.72118206749207
 41
0.9
 51
15
  0
TEXT
  8
1
 62
2
 10
663.9834830896461
 20
489.9286710224399
 30
0
 40
3.2
  1
%%c
 50
14.72118206749207
 41
0.9
 51
15
  0
ENDBLK
  8
0
  0
BLOCK
  8
1
  2
*D9
 70
1
 10
0
 20
0
 30
0
  0
LINE
  8
1
 62
2
 10
484.5885918431532
 20
449.6740333868478
 30
0
 11
676.9206186477463
 21
472.8319535587024
 31
0
  0
LINE
  8
1
 62
2
 10
595.7854489174468
 20
463.0627964663523
 30
0
 11
592.7116806019375
 21
461.8224560523648
 31
0
  0
LINE
  8
1
 62
2
 10
595.7854489174468
 20
463.0627964663523
 30
0
 11
592.5051111144252
 21
463.5380647043682
 31
0
  0
LINE
  8
1
 62
2
 10
484.5885918431532
 20
449.6740333868478
 30
0
 11
487.6623601586625
 21
450.9143738008353
 31
0
  0
LINE
  8
1
 62
2
 10
484.5885918431532
 20
449.6740333868478
 30
0
 11
487.8689296461749
 21
449.1987651488319
 31
0
  0
TEXT
  8
1
 62
2
 10
670.2310918120318
 20
473.0337174454968
 30
0
 40
3.2
  1
112
 50
6.865701285992833
 41
0.9
 51
15
  0
TEXT
  8
1
 62
2
 10
665.5673393393721
 20
472.4721739040622
 30
0
 40
3.2
  1
%%c
 50
6.865701285992833
 41
0.9
 51
15
  0
ENDBLK
  8
0
  0
ENDSEC
  0
SECTION
  2
ENTITIES
  0
POLYLINE
  8
0
 62
7
 66
1
  0
VERTEX
  8
0
 10
129.3378959035
 20
482.5001762511
 30
0
  0
VERTEX
  8
0
 10
132.2246589412
 20
479.7860033149
 30
0
  0
VERTEX
  8
0
 10
135.0690782313
 20
477.2637239154
 30
0
  0
VERTEX
  8
0
 10
137.8775895025
 20
474.9244647182
 30
0
  0
VERTEX
  8
0
 10
140.6566284837
 20
472.759352389
 30
0
  0
VERTEX
  8
0
 10
143.4126309038
 20
470.7595135934
 30
0
  0
VERTEX
  8
0
 10
146.1520324915
 20
468.9160749972
 30
0
  0
VERTEX
  8
0
 10
148.8812689755
 20
467.220163266
 30
0
  0
VERTEX
  8
0
 10
151.6067760849
 20
465.6629050656
 30
0
  0
VERTEX
  8
0
 10
154.3349895482
 20
464.2354270614
 30
0
  0
VERTEX
  8
0
 10
157.0723450944
 20
462.9288559193
 30
0
  0
VERTEX
  8
0
 10
159.8252784523
 20
461.7343183049
 30
0
  0
VERTEX
  8
0
 10
162.6002253506
 20
460.6429408839
 30
0
  0
VERTEX
  8
0
 10
165.4036215182
 20
459.6458503219
 30
0
  0
VERTEX
  8
0
 10
168.2419026838
 20
458.7341732846
 30
0
  0
VERTEX
  8
0
 10
171.1215045764
 20
457.8990364377
 30
0
  0
VERTEX
  8
0
 10
174.0488629246
 20
457.1315664469
 30
0
  0
VERTEX
  8
0
 10
177.0304134574
 20
456.4228899779
 30
0
  0
VERTEX
  8
0
 10
180.0725919035
 20
455.7641336962
 30
0
  0
VERTEX
  8
0
 10
183.1818339916
 20
455.1464242676
 30
0
  0
VERTEX
  8
0
 10
186.3644734866
 20
454.5610995618
 30
0
  0
VERTEX
  8
0
 10
189.6221754399
 20
454.0091680117
 30
0
  0
VERTEX
  8
0
 10
192.9500975399
 20
453.5051171117
 30
0
  0
VERTEX
  8
0
 10
196.3429150231
 20
453.064433685
 30
0
  0
VERTEX
  8
0
 10
199.7953031262
 20
452.7026045546
 30
0
  0
VERTEX
  8
0
 10
203.3019370858
 20
452.4351165435
 30
0
  0
VERTEX
  8
0
 10
206.8574921386
 20
452.2774564747
 30
0
  0
VERTEX
  8
0
 10
210.4566435212
 20
452.2451111713
 30
0
  0
VERTEX
  8
0
 10
214.0940664703
 20
452.3535674563
 30
0
  0
VERTEX
  8
0
 10
217.7644362225
 20
452.6183121527
 30
0
  0
VERTEX
  8
0
 10
221.4665732226
 20
453.0464902777
 30
0
  0
VERTEX
  8
0
 10
225.2531671754
 20
453.5368404914
 30
0
  0
VERTEX
  8
0
 10
229.214565016
 20
453.9123201433
 30
0
  0
VERTEX
  8
0
 10
233.4418856222
 20
453.9943331266
 30
0
  0
VERTEX
  8
0
 10
238.0262478722
 20
453.6042833346
 30
0
  0
VERTEX
  8
0
 10
243.0587706439
 20
452.5635746607
 30
0
  0
VERTEX
  8
0
 10
248.6305728155
 20
450.6936109981
 30
0
  0
VERTEX
  8
0
 10
254.8327732648
 20
447.8157962401
 30
0
  0
VERTEX
  8
0
 10
261.7564908698
 20
443.7515342801
 30
0
  0
VERTEX
  8
0
 10
269.4928445087
 20
438.3222290113
 30
0
  0
VERTEX
  8
0
 10
278.1329530595
 20
431.3492843271
 30
0
  0
SEQEND
  8
0
  0
POLYLINE
  8
0
 62
7
 66
1
  0
VERTEX
  8
0
 10
188.8446488541
 20
358.1889182033
 30
0
  0
VERTEX
  8
0
 10
193.993861912
 20
357.6723805079
 30
0
  0
VERTEX
  8
0
 10
202.1083687021
 20
357.4342253853
 30
0
  0
VERTEX
  8
0
 10
207.318246373
 20
357.5210962344
 30
0
  0
VERTEX
  8
0
 10
212.5046684178
 20
357.6271062377
 30
0
  0
VERTEX
  8
0
 10
215.0330096752
 20
357.6897900962
 30
0
  0
SEQEND
  8
0
  0
POLYLINE
  8
0
 62
7
 66
1
  0
VERTEX
  8
0
 10
165.0476282294
 20
542.2782006927
 30
0
  0
VERTEX
  8
0
 10
164.5607750602
 20
541.7897505298
 30
0
  0
VERTEX
  8
0
 10
163.7609947705
 20
540.994280979
 30
0
  0
VERTEX
  8
0
 10
162.7895184264
 20
540.0359563562
 30
0
  0
VERTEX
  8
0
 10
161.7168290341
 20
538.9864426164
 30
0
  0
VERTEX
  8
0
 10
160.6604230496
 20
537.9714316146
 30
0
  0
VERTEX
  8
0
 10
159.5046601168
 20
536.894076679
 30
0
  0
VERTEX
  8
0
 10
158.3321229249
 20
535.844170352
 30
0
  0
VERTEX
  8
0
 10
157.2134605915
 20
534.8939024683
 30
0
  0
VERTEX
  8
0
 10
156.4957150684
 20
534.3189501462
 30
0
  0
VERTEX
  8
0
 10
155.8467066042
 20
533.833791323
 30
0
  0
VERTEX
  8
0
 10
155.2737766691
 20
533.445313668
 30
0
  0
VERTEX
  8
0
 10
154.6035104226
 20
533.0447588593
 30
0
  0
VERTEX
  8
0
 10
154.4304382303
 20
532.9574730051
 30
0
  0
SEQEND
  8
0
  0
POLYLINE
  8
0
 62
7
 66
1
  0
VERTEX
  8
0
 10
137.7161447878
 20
548.2169207026
 30
0
  0
VERTEX
  8
0
 10
139.9657621837
 20
547.6013047602
 30
0
  0
VERTEX
  8
0
 10
142.3078729614
 20
547.3684149266001
 30
0
  0
SEQEND
  8
0
  0
POLYLINE
  8
0
 62
7
 66
1
  0
VERTEX
  8
0
 10
146.8996011349
 20
548.2169207026
 30
0
  0
VERTEX
  8
0
 10
148.1362628031
 20
547.8571509234
 30
0
  0
VERTEX
  8
0
 10
151.7934498801
 20
547.3684149266001
 30
0
  0
SEQEND
  8
0
  0
POLYLINE
  8
0
 62
7
 66
1
  0
VERTEX
  8
0
 10
151.7934498801
 20
547.3684149266001
 30
0
  0
VERTEX
  8
0
 10
153.1252618344
 20
547.4357033901
 30
0
  0
VERTEX
  8
0
 10
156.6872986252
 20
548.2169207026
 30
0
  0
SEQEND
  8
0
  0
POLYLINE
  8
0
 62
7
 66
1
  0
VERTEX
  8
0
 10
138.0182653594
 20
547.3684149266001
 30
0
  0
VERTEX
  8
0
 10
137.9967803886
 20
547.3730359457001
 30
0
  0
VERTEX
  8
0
 10
137.8562412362
 20
547.6253107912
 30
0
  0
VERTEX
  8
0
 10
137.7161447878
 20
548.2169207026
 30
0
  0
SEQEND
  8
0
  0
POLYLINE
  8
0
 62
7
 66
1
  0
VERTEX
  8
0
 10
156.6872986252
 20
548.2169207026
 30
0
  0
VERTEX
  8
0
 10
156.8353160313
 20
547.6013047602
 30
0
  0
VERTEX
  8
0
 10
156.9894191968
 20
547.3684149266001
 30
0
  0
SEQEND
  8
0
  0
POLYLINE
  8
0
 62
7
 66
1
  0
VERTEX
  8
0
 10
156.9894191968
 20
547.3684149266001
 30
0
  0
VERTEX
  8
0
 10
157.0109041677
 20
547.3730359457001
 30
0
  0
VERTEX
  8
0
 10
157.1514433201
 20
547.6253107912
 30
0
  0
VERTEX
  8
0
 10
157.2915397684
 20
548.2169207026
 30
0
  0
SEQEND
  8
0
  0
POLYLINE
  8
0
 62
7
 66
1
  0
VERTEX
  8
0
 10
287.195716548
 20
548.2169207026
 30
0
  0
VERTEX
  8
0
 10
289.5933513499
 20
547.6013047602
 30
0
  0
VERTEX
  8
0
 10
292.0895652932
 20
547.3684149266001
 30
0
  0
SEQEND
  8
0
  0
POLYLINE
  8
0
 62
7
 66
1
  0
VERTEX
  8
0
 10
282.6039883745
 20
547.3684149266001
 30
0
  0
VERTEX
  8
0
 10
286.0353998896
 20
547.8571509234
 30
0
  0
VERTEX
  8
0
 10
287.195716548
 20
548.2169207026
 30
0
  0
SEQEND
  8
0
  0
POLYLINE
  8
0
 62
7
 66
1
  0
VERTEX
  8
0
 10
278.0122602009
 20
548.2169207026
 30
0
  0
VERTEX
  8
0
 10
281.3543955099
 20
547.4357033901
 30
0
  0
VERTEX
  8
0
 10
282.6039883745
 20
547.3684149266001
 30
0
  0
SEQEND
  8
0
  0
POLYLINE
  8
0
 62
7
 66
1
  0
VERTEX
  8
0
 10
296.9834140383
 20
548.2169207026
 30
0
  0
VERTEX
  8
0
 10
297.1314314444
 20
547.6013047602
 30
0
  0
VERTEX
  8
0
 10
297.2855346099
 20
547.3684149266001
 30
0
  0
SEQEND
  8
0
  0
POLYLINE
  8
0
 62
7
 66
1
  0
VERTEX
  8
0
 10
278.3143807725
 20
547.3684149266001
 30
0
  0
VERTEX
  8
0
 10
278.2928958017
 20
547.3730359457001
 30
0
  0
VERTEX
  8
0
 10
278.1523566492
 20
547.6253107912
 30
0
  0
VERTEX
  8
0
 10
278.0122602009
 20
548.2169207026
 30
0
  0
SEQEND
  8
0
  0
POLYLINE
  8
0
 62
7
 66
1
  0
VERTEX
  8
0
 10
297.2855346099
 20
547.3684149266001
 30
0
  0
VERTEX
  8
0
 10
297.3070195808
 20
547.3730359457001
 30
0
  0
VERTEX
  8
0
 10
297.4475587332
 20
547.6253107912
 30
0
  0
VERTEX
  8
0
 10
297.5876551815
 20
548.2169207026
 30
0
  0
SEQEND
  8
0
  0
POLYLINE
  8
0
 62
7
 66
1
  0
VERTEX
  8
0
 10
217.0476588415
 20
548.2169207026
 30
0
  0
VERTEX
  8
0
 10
219.4452936433
 20
547.6013047602
 30
0
  0
VERTEX
  8
0
 10
221.9415075866
 20
547.3684149266001
 30
0
  0
SEQEND
  8
0
  0
POLYLINE
  8
0
 62
7
 66
1
  0
VERTEX
  8
0
 10
207.8642024944
 20
548.2169207026
 30
0
  0
VERTEX
  8
0
 10
210.1138198902
 20
547.6013047602
 30
0
  0
VERTEX
  8
0
 10
212.4559306679
 20
547.3684149266001
 30
0
  0
SEQEND
  8
0
  0
POLYLINE
  8
0
 62
7
 66
1
  0
VERTEX
  8
0
 10
226.8353563318
 20
548.2169207026
 30
0
  0
VERTEX
  8
0
 10
226.9117013415
 20
547.8571509234
 30
0
  0
VERTEX
  8
0
 10
227.1374769034
 20
547.3684149266001
 30
0
  0
SEQEND
  8
0
  0
POLYLINE
  8
0
 62
7
 66
1
  0
VERTEX
  8
0
 10
208.166323066
 20
547.3684149266001
 30
0
  0
VERTEX
  8
0
 10
207.9405475041
 20
547.8571509234
 30
0
  0
VERTEX
  8
0
 10
207.8642024944
 20
548.2169207026
 30
0
  0
SEQEND
  8
0
  0
POLYLINE
  8
0
 62
7
 66
1
  0
VERTEX
  8
0
 10
227.1374769034
 20
547.3684149266001
 30
0
  0
VERTEX
  8
0
 10
227.2196959931
 20
547.4357033901
 30
0
  0
VERTEX
  8
0
 10
227.439597475
 20
548.2169207026
 30
0
  0
SEQEND
  8
0
  0
POLYLINE
  8
0
 62
7
 66
1
  0
VERTEX
  8
0
 10
152.9886698354
 20
598.2199091506
 30
0
  0
VERTEX
  8
0
 10
150.3014978123
 20
598.835525093
 30
0
  0
VERTEX
  8
0
 10
147.5038422781
 20
599.0684149266
 30
0
  0
SEQEND
  8
0
  0
POLYLINE
  8
0
 62
7
 66
1
  0
VERTEX
  8
0
 10
155.7310836141
 20
599.0684149266
 30
0
  0
VERTEX
  8
0
 10
154.9847631526
 20
599.0011264631
 30
0
  0
VERTEX
  8
0
 10
152.9886698354
 20
598.2199091506
 30
0
  0
SEQEND
  8
0
  0
POLYLINE
  8
0
 62
7
 66
1
  0
VERTEX
  8
0
 10
142.0190147208
 20
598.2199091506
 30
0
  0
VERTEX
  8
0
 10
140.6754287092
 20
598.835525093
 30
0
  0
VERTEX
  8
0
 10
139.2766009422
 20
599.0684149266
 30
0
  0
SEQEND
  8
0
  0
POLYLINE
  8
0
 62
7
 66
1
  0
VERTEX
  8
0
 10
158.4734973927
 20
598.2199091506
 30
0
  0
VERTEX
  8
0
 10
157.7804972256
 20
598.5796789298
 30
0
  0
VERTEX
  8
0
 10
155.7310836141
 20
599.0684149266
 30
0
  0
SEQEND
  8
0
  0
POLYLINE
  8
0
 62
7
 66
1
  0
VERTEX
  8
0
 10
223.136727542
 20
598.2199091506
 30
0
  0
VERTEX
  8
0
 10
220.4495555188
 20
598.835525093
 30
0
  0
VERTEX
  8
0
 10
217.6518999847
 20
599.0684149266
 30
0
  0
SEQEND
  8
0
  0
POLYLINE
  8
0
 62
7
 66
1
  0
VERTEX
  8
0
 10
212.1670724274
 20
598.2199091506
 30
0
  0
VERTEX
  8
0
 10
210.1709791102
 20
599.0011264631
 30
0
  0
VERTEX
  8
0
 10
209.4246586487
 20
599.0684149266
 30
0
  0
SEQEND
  8
0
  0
POLYLINE
  8
0
 62
7
 66
1
  0
VERTEX
  8
0
 10
228.6215550993
 20
598.2199091506
 30
0
  0
VERTEX
  8
0
 10
227.2779690877
 20
598.835525093
 30
0
  0
VERTEX
  8
0
 10
225.8791413206
 20
599.0684149266
 30
0
  0
SEQEND
  8
0
  0
POLYLINE
  8
0
 62
7
 66
1
  0
VERTEX
  8
0
 10
209.4246586487
 20
599.0684149266
 30
0
  0
VERTEX
  8
0
 10
207.3752450372
 20
598.5796789298
 30
0
  0
VERTEX
  8
0
 10
206.6822448701
 20
598.2199091506
 30
0
  0
SEQEND
  8
0
  0
POLYLINE
  8
0
 62
7
 66
1
  0
VERTEX
  8
0
 10
298.7696128058
 20
598.2199091506
 30
0
  0
VERTEX
  8
0
 10
297.4260267942
 20
598.835525093
 30
0
  0
VERTEX
  8
0
 10
296.0271990272
 20
599.0684149266
 30
0
  0
SEQEND
  8
0
  0
POLYLINE
  8
0
 62
7
 66
1
  0
VERTEX
  8
0
 10
293.2847852485
 20
598.2199091506
 30
0
  0
VERTEX
  8
0
 10
289.2925986142
 20
599.0011264631
 30
0
  0
VERTEX
  8
0
 10
287.7999576912
 20
599.0684149266
 30
0
  0
SEQEND
  8
0
  0
POLYLINE
  8
0
 62
7
 66
1
  0
VERTEX
  8
0
 10
287.7999576912
 20
599.0684149266
 30
0
  0
VERTEX
  8
0
 10
283.7011304681
 20
598.5796789298
 30
0
  0
VERTEX
  8
0
 10
282.3151301339
 20
598.2199091506
 30
0
  0
SEQEND
  8
0
  0
POLYLINE
  8
0
 62
7
 66
1
  0
VERTEX
  8
0
 10
282.3151301339
 20
598.2199091506
 30
0
  0
VERTEX
  8
0
 10
280.9715441223
 20
598.835525093
 30
0
  0
VERTEX
  8
0
 10
279.5727163553
 20
599.0684149266
 30
0
  0
SEQEND
  8
0
  0
POLYLINE
  8
0
 62
7
 66
1
  0
VERTEX
  8
0
 10
163.395737003
 20
593.2184149266
 30
0
  0
VERTEX
  8
0
 10
163.4645434775
 20
593.7290570055
 30
0
  0
VERTEX
  8
0
 10
163.7288947498
 20
594.2989586151
 30
0
  0
VERTEX
  8
0
 10
164.1254175553
 20
594.7206340565
 30
0
  0
VERTEX
  8
0
 10
164.5129058098
 20
594.9575732231
 30
0
  0
VERTEX
  8
0
 10
164.8376596208
 20
595.0770775859
 30
0
  0
VERTEX
  8
0
 10
165.07249713
 20
595.1243165235001
 30
0
  0
VERTEX
  8
0
 10
165.1509947938
 20
595.1087194703
 30
0
  0
VERTEX
  8
0
 10
165.0338760359
 20
595.0054245476
 30
0
  0
VERTEX
  8
0
 10
164.7765546133
 20
594.7740231087
 30
0
  0
VERTEX
  8
0
 10
164.5059282016
 20
594.431927748
 30
0
  0
VERTEX
  8
0
 10
164.2859837325
 20
593.9925156537
 30
0
  0
VERTEX
  8
0
 10
164.1576829971
 20
593.4395674641
 30
0
  0
VERTEX
  8
0
 10
164.1465991572
 20
593.2184149266
 30
0
  0
SEQEND
  8
0
  0
POLYLINE
  8
0
 62
7
 66
1
  0
VERTEX
  8
0
 10
153.5038422781
 20
587.0684149266
 30
0
  0
VERTEX
  8
0
 10
153.5213999125
 20
587.0766957006
 30
0
  0
VERTEX
  8
0
 10
155.7833064199
 20
588.1806280052
 30
0
  0
SEQEND
  8
0
  0
POLYLINE
  8
0
 62
7
 66
1
  0
VERTEX
  8
0
 10
135.5665074241
 20
582.3664348676
 30
0
  0
VERTEX
  8
0
 10
135.5136817735
 20
582.0800523328001
 30
0
  0
VERTEX
  8
0
 10
135.5144575084
 20
582.0684149266
 30
0
  0
SEQEND
  8
0
  0
POLYLINE
  8
0
 62
7
 66
1
  0
VERTEX
  8
0
 10
299.7893424609
 20
582.0684149266
 30
0
  0
VERTEX
  8
0
 10
299.7901181959
 20
582.0800523328001
 30
0
  0
VERTEX
  8
0
 10
299.7372925452
 20
582.3664348676
 30
0
  0
SEQEND
  8
0
  0
POLYLINE
  8
0
 62
7
 66
1
  0
VERTEX
  8
0
 10
279.5204935494
 20
588.1806280052
 30
0
  0
VERTEX
  8
0
 10
281.3631731128
 20
587.2766427907
 30
0
  0
VERTEX
  8
0
 10
281.7824000568
 20
587.0766957006
 30
0
  0
VERTEX
  8
0
 10
281.7999576912
 20
587.0684149266
 30
0
  0
SEQEND
  8
0
  0
POLYLINE
  8
0
 62
7
 66
1
  0
VERTEX
  8
0
 10
299.7938581581
 20
582.3635174999
 30
0
  0
VERTEX
  8
0
 10
299.7903042968
 20
582.0745575891
 30
0
  0
VERTEX
  8
0
 10
299.7893424609
 20
582.0684149266
 30
0
  0
SEQEND
  8
0
  0
POLYLINE
  8
0
 62
7
 66
1
  0
VERTEX
  8
0
 10
135.5144575084
 20
582.0684149266
 30
0
  0
VERTEX
  8
0
 10
135.5134956725
 20
582.0745575891
 30
0
  0
VERTEX
  8
0
 10
135.5951993159
 20
582.666095803
 30
0
  0
SEQEND
  8
0
  0
POLYLINE
  8
0
 62
7
 66
1
  0
VERTEX
  8
0
 10
224.3682594755
 20
405.2937426864
 30
0
  0
VERTEX
  8
0
 10
223.7909802896
 20
405.6715603438
 30
0
  0
VERTEX
  8
0
 10
223.2550160781
 20
405.7632467716
 30
0
  0
SEQEND
  8
0
  0
POLYLINE
  8
0
 62
7
 66
1
  0
VERTEX
  8
0
 10
223.2550160781
 20
400.1225475506
 30
0
  0
VERTEX
  8
0
 10
223.9503124194
 20
400.2892010464
 30
0
  0
VERTEX
  8
0
 10
224.4041705528
 20
400.6253026332
 30
0
  0
SEQEND
  8
0
  0
POLYLINE
  8
0
 62
7
 66
1
  0
VERTEX
  8
0
 10
223.2550160781
 20
406.4428971611
 30
0
  0
VERTEX
  8
0
 10
224.3111746626
 20
406.2587745381
 30
0
  0
VERTEX
  8
0
 10
225.0146588674
 20
405.7964977691
 30
0
  0
SEQEND
  8
0
  0
POLYLINE
  8
0
 62
7
 66
1
  0
VERTEX
  8
0
 10
225.8406136461
 20
402.9236115825
 30
0
  0
VERTEX
  8
0
 10
225.6691701805
 20
401.2934967756
 30
0
  0
VERTEX
  8
0
 10
225.0864810221
 20
400.1584586279
 30
0
  0
SEQEND
  8
0
  0
POLYLINE
  8
0
 62
7
 66
1
  0
VERTEX
  8
0
 10
225.0864810221
 20
400.1584586279
 30
0
  0
VERTEX
  8
0
 10
224.130704321
 20
399.5729047965
 30
0
  0
VERTEX
  8
0
 10
223.2550160781
 20
399.4428971611
 30
0
  0
SEQEND
  8
0
  0
POLYLINE
  8
0
 62
7
 66
1
  0
VERTEX
  8
0
 10
165.837655367
 20
613.2184149266
 30
0
  0
VERTEX
  8
0
 10
166.3525426354
 20
612.8033085417
 30
0
  0
VERTEX
  8
0
 10
166.8862932833
 20
611.6109804483
 30
0
  0
VERTEX
  8
0
 10
167.3412089859
 20
609.7550958668001
 30
0
  0
VERTEX
  8
0
 10
167.6016549489
 20
607.5110465149
 30
0
  0
VERTEX
  8
0
 10
167.6401111247
 20
606.2184149266
 30
0
  0
SEQEND
  8
0
  0
POLYLINE
  8
0
 62
7
 66
1
  0
VERTEX
  8
0
 10
274.1740462962
 20
595.2184149266
 30
0
  0
VERTEX
  8
0
 10
274.320309315
 20
594.8504345298001
 30
0
  0
VERTEX
  8
0
 10
274.5992440843
 20
593.2184149266
 30
0
  0
SEQEND
  8
0
  0
POLYLINE
  8
0
 62
7
 66
1
  0
VERTEX
  8
0
 10
121.7757156541
 20
513.2690534201
 30
0
  0
VERTEX
  8
0
 10
121.7925501528
 20
507.2690888758
 30
0
  0
VERTEX
  8
0
 10
121.8066848906
 20
502.3984381766
 30
0
  0
VERTEX
  8
0
 10
121.8986726913
 20
497.5280094481
 30
0
  0
SEQEND
  8
0
  0
POLYLINE
  8
0
 62
7
 66
1
  0
VERTEX
  8
0
 10
224.1381059541
 20
535.5047971720001
 30
0
  0
VERTEX
  8
0
 10
222.4143063789
 20
534.2743639284
 30
0
  0
VERTEX
  8
0
 10
221.7688669476
 20
533.9941621939
 30
0
  0
VERTEX
  8
0
 10
218.7767902516
 20
533.3286449756999
 30
0
  0
VERTEX
  8
0
 10
215.3033741241
 20
533.288533387
 30
0
  0
VERTEX
  8
0
 10
213.6391974456
 20
533.5018092533001
 30
0
  0
VERTEX
  8
0
 10
212.0190908964
 20
533.9213610836
 30
0
  0
VERTEX
  8
0
 10
210.1194652468
 20
534.8485624788
 30
0
  0
VERTEX
  8
0
 10
209.6969435025
 20
535.1574522460001
 30
0
  0
VERTEX
  8
0
 10
209.11746487
 20
535.6800467017
 30
0
  0
SEQEND
  8
0
  0
POLYLINE
  8
0
 62
7
 66
1
  0
VERTEX
  8
0
 10
100.6017700125
 20
406.340583861
 30
0
  0
VERTEX
  8
0
 10
105.2807923609
 20
402.5752398198
 30
0
  0
VERTEX
  8
0
 10
109.6069023531
 20
398.4095139543
 30
0
  0
VERTEX
  8
0
 10
116.6690280354
 20
391.2566114965
 30
0
  0
VERTEX
  8
0
 10
124.3124153625
 20
384.6542343722
 30
0
  0
SEQEND
  8
0
  0
POLYLINE
  8
0
 62
7
 66
1
  0
VERTEX
  8
0
 10
320.2612649193
 20
501.8597262077
 30
0
  0
VERTEX
  8
0
 10
314.5160809903
 20
503.5882756106
 30
0
  0
VERTEX
  8
0
 10
311.5965084658
 20
504.8015142589
 30
0
  0
SEQEND
  8
0
  0
POLYLINE
  8
0
 62
7
 66
1
  0
VERTEX
  8
0
 10
280.7297427266
 20
538.0389806455
 30
0
  0
VERTEX
  8
0
 10
280.6558020956
 20
537.5863948436
 30
0
  0
VERTEX
  8
0
 10
280.0155352092
 20
535.607993272
 30
0
  0
VERTEX
  8
0
 10
279.1385073273
 20
534.7733307049
 30
0
  0
VERTEX
  8
0
 10
277.9126468811
 20
534.5278317854001
 30
0
  0
VERTEX
  8
0
 10
276.4163282079
 20
534.9218014239
 30
0
  0
VERTEX
  8
0
 10
274.8956810199
 20
535.9402415578001
 30
0
  0
SEQEND
  8
0
  0
POLYLINE
  8
0
 62
7
 66
1
  0
VERTEX
  8
0
 10
208.9539739388
 20
925.114557033
 30
0
  0
VERTEX
  8
0
 10
208.8610962606
 20
925.1047026781201
 30
0
  0
VERTEX
  8
0
 10
205.8377255594
 20
924.7839219652473
 30
0
  0
VERTEX
  8
0
 10
205.7522984398
 20
924.7748581173
 30
0
  0
VERTEX
  8
0
 10
203.3957723008
 20
924.4548722066764
 30
0
  0
VERTEX
  8
0
 10
203.3606370068
 20
924.4501012861
 30
0
  0
VERTEX
  8
0
 10
201.7789952534
 20
924.2017895785
 30
0
  0
VERTEX
  8
0
 10
200.3724015997
 20
923.9543474866866
 30
0
  0
VERTEX
  8
0
 10
199.8619699731
 20
923.8645544828
 30
0
  0
VERTEX
  8
0
 10
198.2792988066
 20
923.5458951198663
 30
0
  0
VERTEX
  8
0
 10
197.5815978756
 20
923.4054180966559
 30
0
  0
VERTEX
  8
0
 10
197.1514305325
 20
923.3188070214
 30
0
  0
VERTEX
  8
0
 10
193.6447502219
 20
922.4900722915
 30
0
  0
VERTEX
  8
0
 10
189.345049543
 20
921.2782888804001
 30
0
  0
VERTEX
  8
0
 10
184.2675077758
 20
919.5556882446
 30
0
  0
VERTEX
  8
0
 10
178.7945421101
 20
917.3209319932
 30
0
  0
VERTEX
  8
0
 10
173.6741884146
 20
914.8454084072
 30
0
  0
VERTEX
  8
0
 10
168.9396320468
 20
912.1956880698
 30
0
  0
VERTEX
  8
0
 10
163.2306606616
 20
908.4931544936
 30
0
  0
VERTEX
  8
0
 10
158.2009395441
 20
904.7177252263
 30
0
  0
VERTEX
  8
0
 10
153.8181451047
 20
900.9785752941
 30
0
  0
VERTEX
  8
0
 10
149.4972590848
 20
896.8865685319
 30
0
  0
VERTEX
  8
0
 10
145.5306980598
 20
892.9362639127
 30
0
  0
VERTEX
  8
0
 10
141.4303348368
 20
888.344322248
 30
0
  0
VERTEX
  8
0
 10
137.4429022895
 20
883.1637764755
 30
0
  0
VERTEX
  8
0
 10
133.6439372342
 20
877.3774491162
 30
0
  0
VERTEX
  8
0
 10
131.4067207243
 20
873.447582583
 30
0
  0
VERTEX
  8
0
 10
129.3386828411
 20
869.336735418
 30
0
  0
VERTEX
  8
0
 10
127.572117042
 20
865.3134104623
 30
0
  0
VERTEX
  8
0
 10
126.0911026274
 20
861.4383342556
 30
0
  0
VERTEX
  8
0
 10
124.8677409028
 20
857.7449659121
 30
0
  0
VERTEX
  8
0
 10
124.6845906714
 20
857.1000451945
 30
0
  0
SEQEND
  8
0
  0
POLYLINE
  8
0
 62
7
 66
1
  0
VERTEX
  8
0
 10
209.791185908
 20
925.1744770042
 30
0
  0
VERTEX
  8
0
 10
208.9976385901
 20
925.1191898682
 30
0
  0
VERTEX
  8
0
 10
208.9539739388
 20
925.114557033
 30
0
  0
SEQEND
  8
0
  0
POLYLINE
  8
0
 62
7
 66
1
  0
VERTEX
  8
0
 10
242.8347144817
 20
921.9975267437
 30
0
  0
VERTEX
  8
0
 10
237.3247199545
 20
923.4538594803
 30
0
  0
VERTEX
  8
0
 10
235.59377588
 20
923.7388095895
 30
0
  0
SEQEND
  8
0
  0
POLYLINE
  8
0
 62
7
 66
1
  0
VERTEX
  8
0
 10
282.8963615805
 20
900.8861751365
 30
0
  0
VERTEX
  8
0
 10
278.4760830211
 20
904.7562252314
 30
0
  0
VERTEX
  8
0
 10
272.7877864934
 20
908.5792139903
 30
0
  0
VERTEX
  8
0
 10
267.4551181865
 20
911.405377844
 30
0
  0
VERTEX
  8
0
 10
262.392069029
 20
914.0577173964
 30
0
  0
VERTEX
  8
0
 10
257.095889274
 20
916.7712019362
 30
0
  0
VERTEX
  8
0
 10
255.8363955195
 20
917.3188276697
 30
0
  0
SEQEND
  8
0
  0
POLYLINE
  8
0
 62
7
 66
1
  0
VERTEX
  8
0
 10
230.6422810414
 20
744.4129461184
 30
0
  0
VERTEX
  8
0
 10
235.7600153186
 20
745.2518074671
 30
0
  0
VERTEX
  8
0
 10
240.80388521
 20
746.3796257468
 30
0
  0
VERTEX
  8
0
 10
245.4667937948
 20
747.6932546859
 30
0
  0
VERTEX
  8
0
 10
251.3915862278
 20
749.7672817961
 30
0
  0
VERTEX
  8
0
 10
256.6436895877
 20
752.0256945632
 30
0
  0
VERTEX
  8
0
 10
261.2959117929
 20
754.3758829173
 30
0
  0
VERTEX
  8
0
 10
265.9071345936
 20
756.7985883028
 30
0
  0
VERTEX
  8
0
 10
270.915236088
 20
759.4063895963
 30
0
  0
VERTEX
  8
0
 10
274.6067474684
 20
761.5390302605
 30
0
  0
VERTEX
  8
0
 10
278.3476589313
 20
764.1723121499
 30
0
  0
VERTEX
  8
0
 10
282.0460606579
 20
767.2817413691
 30
0
  0
VERTEX
  8
0
 10
282.2905588116
 20
767.5232514210001
 30
0
  0
SEQEND
  8
0
  0
POLYLINE
  8
0
 62
7
 66
1
  0
VERTEX
  8
0
 10
124.5820756166
 20
812.2369011335001
 30
0
  0
VERTEX
  8
0
 10
124.681235923
 20
811.890486842
 30
0
  0
VERTEX
  8
0
 10
125.0997149579
 20
810.5130556099
 30
0
  0
VERTEX
  8
0
 10
125.5279176308
 20
809.1827180517
 30
0
  0
VERTEX
  8
0
 10
126.2044693927
 20
807.2258770694
 30
0
  0
VERTEX
  8
0
 10
127.0101542549
 20
805.081835709
 30
0
  0
VERTEX
  8
0
 10
127.9705431718
 20
802.7345847602001
 30
0
  0
VERTEX
  8
0
 10
129.3259422995
 20
799.7220109766
 30
0
  0
VERTEX
  8
0
 10
130.952836111
 20
796.4622433174
 30
0
  0
VERTEX
  8
0
 10
134.0071415272
 20
791.1072387753
 30
0
  0
VERTEX
  8
0
 10
137.8726062619
 20
785.3469882074001
 30
0
  0
VERTEX
  8
0
 10
142.3540263739
 20
779.6768401640001
 30
0
  0
VERTEX
  8
0
 10
147.0333399062
 20
774.6166033215
 30
0
  0
VERTEX
  8
0
 10
151.5275676654
 20
770.2193709546
 30
0
  0
VERTEX
  8
0
 10
156.0603569715
 20
766.0973328712
 30
0
  0
VERTEX
  8
0
 10
161.4578551441
 20
761.8135755178
 30
0
  0
VERTEX
  8
0
 10
166.7032413046
 20
758.2106774482
 30
0
  0
VERTEX
  8
0
 10
171.9630000862
 20
755.0899486274
 30
0
  0
VERTEX
  8
0
 10
177.6826280319
 20
752.2007098561001
 30
0
  0
VERTEX
  8
0
 10
183.8611458494
 20
749.6126346219
 30
0
  0
VERTEX
  8
0
 10
187.9441032696
 20
748.1808546272
 30
0
  0
VERTEX
  8
0
 10
192.1863414283
 20
746.9125163401
 30
0
  0
VERTEX
  8
0
 10
194.4018999847
 20
746.3607394827
 30
0
  0
SEQEND
  8
0
  0
POLYLINE
  8
0
 62
7
 66
1
  0
VERTEX
  8
0
 10
299.4295912532
 20
893.6845508354001
 30
0
  0
VERTEX
  8
0
 10
294.8541666713
 20
895.9754878356
 30
0
  0
VERTEX
  8
0
 10
291.6803002668
 20
897.3081211003999
 30
0
  0
VERTEX
  8
0
 10
288.9168882185
 20
898.3750980072
 30
0
  0
VERTEX
  8
0
 10
286.6038141979
 20
899.2587181886
 30
0
  0
VERTEX
  8
0
 10
284.7549704746
 20
899.9989929319
 30
0
  0
VERTEX
  8
0
 10
284.0214624057
 20
900.3232614036
 30
0
  0
VERTEX
  8
0
 10
283.4925920396
 20
900.5799510609
 30
0
  0
VERTEX
  8
0
 10
283.2483140006
 20
900.6934268329
 30
0
  0
VERTEX
  8
0
 10
283.2451468573
 20
900.6764469972
 30
0
  0
SEQEND
  8
0
  0
POLYLINE
  8
0
 62
7
 66
1
  0
VERTEX
  8
0
 10
284.2364448162
 20
769.329849526
 30
0
  0
VERTEX
  8
0
 10
284.2358227202
 20
769.2920030551001
 30
0
  0
VERTEX
  8
0
 10
284.6304127414
 20
769.3608561535
 30
0
  0
VERTEX
  8
0
 10
285.2650240145
 20
769.5016363907999
 30
0
  0
VERTEX
  8
0
 10
286.8912438665
 20
769.9273803814
 30
0
  0
VERTEX
  8
0
 10
287.825568027
 20
770.2373319622
 30
0
  0
VERTEX
  8
0
 10
288.8505866602
 20
770.6084124612
 30
0
  0
VERTEX
  8
0
 10
290.5987514531
 20
771.275445716
 30
0
  0
VERTEX
  8
0
 10
292.5302835422
 20
772.0444565937
 30
0
  0
VERTEX
  8
0
 10
294.5497691282
 20
772.8979940064
 30
0
  0
VERTEX
  8
0
 10
296.6286524768
 20
773.8576412372
 30
0
  0
VERTEX
  8
0
 10
299.3160952279
 20
775.2924618262
 30
0
  0
SEQEND
  8
0
  0
POLYLINE
  8
0
 62
7
 66
1
  0
VERTEX
  8
0
 10
319.3195349902
 20
882.8157536908
 30
0
  0
VERTEX
  8
0
 10
315.5952857846
 20
884.7535164981
 30
0
  0
VERTEX
  8
0
 10
306.4731161124
 20
889.774344965
 30
0
  0
VERTEX
  8
0
 10
299.5172509657
 20
893.6337139828
 30
0
  0
SEQEND
  8
0
  0
POLYLINE
  8
0
 62
7
 66
1
  0
VERTEX
  8
0
 10
299.517191952
 20
775.3823940511001
 30
0
  0
VERTEX
  8
0
 10
306.4731120944
 20
779.24179379
 30
0
  0
VERTEX
  8
0
 10
315.5952847044
 20
784.2626264692
 30
0
  0
VERTEX
  8
0
 10
319.3195348337
 20
786.2003907434
 30
0
  0
SEQEND
  8
0
  0
POLYLINE
  8
0
 62
7
 66
1
  0
VERTEX
  8
0
 10
158.1190754861
 20
904.6478834869
 30
0
  0
VERTEX
  8
0
 10
153.950998797
 20
903.8001555187
 30
0
  0
VERTEX
  8
0
 10
149.3914088864
 20
902.3689561879
 30
0
  0
VERTEX
  8
0
 10
145.2706222773
 20
900.689778643
 30
0
  0
VERTEX
  8
0
 10
141.9617189088
 20
899.1998545386
 30
0
  0
VERTEX
  8
0
 10
138.2566297155
 20
897.5179239730001
 30
0
  0
VERTEX
  8
0
 10
134.1822782003
 20
895.6582746693
 30
0
  0
VERTEX
  8
0
 10
129.6808383322
 20
893.5984064945
 30
0
  0
VERTEX
  8
0
 10
124.7434190821
 20
891.3299447418
 30
0
  0
VERTEX
  8
0
 10
119.7908257086
 20
889.0413816816
 30
0
  0
VERTEX
  8
0
 10
116.3518031116
 20
887.4442617164
 30
0
  0
VERTEX
  8
0
 10
113.4688178474
 20
886.1001980239
 30
0
  0
VERTEX
  8
0
 10
110.4188920292
 20
884.6739065371
 30
0
  0
VERTEX
  8
0
 10
108.7693879734
 20
883.9013397603
 30
0
  0
VERTEX
  8
0
 10
106.9603598608
 20
883.0533327852
 30
0
  0
VERTEX
  8
0
 10
104.7262889795
 20
882.0042221414
 30
0
  0
VERTEX
  8
0
 10
102.7059252524
 20
881.0552260439
 30
0
  0
VERTEX
  8
0
 10
100.2538331561
 20
879.9103633683
 30
0
  0
VERTEX
  8
0
 10
99.7420144101
 20
879.6717984477
 30
0
  0
SEQEND
  8
0
  0
POLYLINE
  8
0
 62
7
 66
1
  0
VERTEX
  8
0
 10
99.74190094230001
 20
789.3444004889
 30
0
  0
VERTEX
  8
0
 10
100.2538331561
 20
789.1057826796
 30
0
  0
VERTEX
  8
0
 10
103.4413523035
 20
787.6158084583
 30
0
  0
VERTEX
  8
0
 10
105.9368986247
 20
786.443048624
 30
0
  0
VERTEX
  8
0
 10
107.9523383375
 20
785.4977221632
 30
0
  0
VERTEX
  8
0
 10
109.6569455559
 20
784.6990197210999
 30
0
  0
VERTEX
  8
0
 10
111.2754739242
 20
783.941321199
 30
0
  0
VERTEX
  8
0
 10
112.8092377072
 20
783.2240724666
 30
0
  0
VERTEX
  8
0
 10
114.2558200845
 20
782.5485896858
 30
0
  0
VERTEX
  8
0
 10
116.9949381799
 20
781.2726923366
 30
0
  0
VERTEX
  8
0
 10
120.2700476056
 20
779.7527243773
 30
0
  0
VERTEX
  8
0
 10
124.0977930339
 20
777.9837714254001
 30
0
  0
VERTEX
  8
0
 10
129.2358242489
 20
775.6217078132
 30
0
  0
VERTEX
  8
0
 10
133.9143292173
 20
773.4803704064
 30
0
  0
VERTEX
  8
0
 10
138.1353183067
 20
771.5534719665
 30
0
  0
VERTEX
  8
0
 10
141.9617189088
 20
769.8162915093
 30
0
  0
VERTEX
  8
0
 10
145.2706222773
 20
768.3263674049
 30
0
  0
VERTEX
  8
0
 10
149.3914088864
 20
766.64718986
 30
0
  0
VERTEX
  8
0
 10
153.950998797
 20
765.2159905292
 30
0
  0
VERTEX
  8
0
 10
158.2802826739
 20
764.3354752943
 30
0
  0
SEQEND
  8
0
  0
POLYLINE
  8
0
 62
7
 66
1
  0
VERTEX
  8
0
 10
225.2454148363
 20
742.3257253949
 30
0
  0
VERTEX
  8
0
 10
226.3685666262
 20
742.4005675897
 30
0
  0
VERTEX
  8
0
 10
227.4238137657
 20
742.5208901714
 30
0
  0
SEQEND
  8
0
  0
POLYLINE
  8
0
 62
7
 66
1
  0
VERTEX
  8
0
 10
206.5917378729
 20
742.7270284574
 30
0
  0
VERTEX
  8
0
 10
208.6541402016
 20
742.4827006803
 30
0
  0
VERTEX
  8
0
 10
209.0810812835
 20
742.4493289978
 30
0
  0
SEQEND
  8
0
  0
POLYLINE
  8
0
 62
7
 66
1
  0
VERTEX
  8
0
 10
211.501332349
 20
926.8131147479
 30
0
  0
VERTEX
  8
0
 10
209.7216109806
 20
926.686049872
 30
0
  0
VERTEX
  8
0
 10
209.065941515
 20
926.6273172691
 30
0
  0
SEQEND
  8
0
  0
POLYLINE
  8
0
 62
7
 66
1
  0
VERTEX
  8
0
 10
248.7696655176
 20
858.107275
 30
0
  0
VERTEX
  8
0
 10
248.6436704803
 20
857.8619000366
 30
0
  0
VERTEX
  8
0
 10
248.6188389928
 20
857.6454851463
 30
0
  0
SEQEND
  8
0
  0
POLYLINE
  8
0
 62
7
 66
1
  0
VERTEX
  8
0
 10
249.3226961086
 20
855.4352248385
 30
0
  0
VERTEX
  8
0
 10
249.0056935567
 20
855.4147023791001
 30
0
  0
VERTEX
  8
0
 10
248.7696655176
 20
855.3365358778
 30
0
  0
SEQEND
  8
0
  0
POLYLINE
  8
0
 62
7
 66
1
  0
VERTEX
  8
0
 10
248.6188389928
 20
854.9324697558
 30
0
  0
VERTEX
  8
0
 10
248.702358697
 20
854.5534244479001
 30
0
  0
VERTEX
  8
0
 10
248.8702165342
 20
854.297508707
 30
0
  0
SEQEND
  8
0
  0
POLYLINE
  8
0
 62
7
 66
1
  0
VERTEX
  8
0
 10
248.5182879763
 20
853.893442585
 30
0
  0
VERTEX
  8
0
 10
247.8398040648
 20
854.6273761854
 30
0
  0
VERTEX
  8
0
 10
247.6636043358
 20
855.3942596095
 30
0
  0
SEQEND
  8
0
  0
POLYLINE
  8
0
 62
7
 66
1
  0
VERTEX
  8
0
 10
247.6636043358
 20
858.107275
 30
0
  0
VERTEX
  8
0
 10
247.7417970571
 20
858.7189119706
 30
0
  0
VERTEX
  8
0
 10
247.9652573854
 20
859.1463021708
 30
0
  0
SEQEND
  8
0
  0
POLYLINE
  8
0
 62
7
 66
1
  0
VERTEX
  8
0
 10
248.7696655176
 20
855.3365358778
 30
0
  0
VERTEX
  8
0
 10
248.6474126181
 20
855.1236604364
 30
0
  0
VERTEX
  8
0
 10
248.6188389928
 20
854.9324697558
 30
0
  0
SEQEND
  8
0
  0
POLYLINE
  8
0
 62
7
 66
1
  0
VERTEX
  8
0
 10
248.5182879763
 20
856.6064579755
 30
0
  0
VERTEX
  8
0
 10
247.8398040648
 20
857.3403915758
 30
0
  0
VERTEX
  8
0
 10
247.6636043358
 20
858.107275
 30
0
  0
SEQEND
  8
0
  0
POLYLINE
  8
0
 62
7
 66
1
  0
VERTEX
  8
0
 10
249.3729716168
 20
858.2636876924
 30
0
  0
VERTEX
  8
0
 10
249.0209941816
 20
858.2245720321
 30
0
  0
VERTEX
  8
0
 10
248.7696655176
 20
858.107275
 30
0
  0
SEQEND
  8
0
  0
POLYLINE
  8
0
 62
7
 66
1
  0
VERTEX
  8
0
 10
248.6188389928
 20
857.6454851463
 30
0
  0
VERTEX
  8
0
 10
248.7091633885
 20
857.3000388402001
 30
0
  0
VERTEX
  8
0
 10
248.8702165342
 20
857.0682478292
 30
0
  0
SEQEND
  8
0
  0
POLYLINE
  8
0
 62
7
 66
1
  0
VERTEX
  8
0
 10
248.7696655176
 20
849.107275
 30
0
  0
VERTEX
  8
0
 10
248.6436704803
 20
848.8619000366
 30
0
  0
VERTEX
  8
0
 10
248.6188389928
 20
848.6454851463
 30
0
  0
SEQEND
  8
0
  0
POLYLINE
  8
0
 62
7
 66
1
  0
VERTEX
  8
0
 10
248.6188389928
 20
848.6454851463
 30
0
  0
VERTEX
  8
0
 10
248.7091633885
 20
848.3000388402001
 30
0
  0
VERTEX
  8
0
 10
248.8702165342
 20
848.0682478292
 30
0
  0
SEQEND
  8
0
  0
POLYLINE
  8
0
 62
7
 66
1
  0
VERTEX
  8
0
 10
249.3226961086
 20
846.4352248385
 30
0
  0
VERTEX
  8
0
 10
249.0056935567
 20
846.4147023791001
 30
0
  0
VERTEX
  8
0
 10
248.7696655176
 20
846.3365358778
 30
0
  0
SEQEND
  8
0
  0
POLYLINE
  8
0
 62
7
 66
1
  0
VERTEX
  8
0
 10
248.7696655176
 20
846.3365358778
 30
0
  0
VERTEX
  8
0
 10
248.6474126181
 20
846.1236604364
 30
0
  0
VERTEX
  8
0
 10
248.6188389928
 20
845.9324697558
 30
0
  0
SEQEND
  8
0
  0
POLYLINE
  8
0
 62
7
 66
1
  0
VERTEX
  8
0
 10
248.6188389928
 20
845.9324697558
 30
0
  0
VERTEX
  8
0
 10
248.702358697
 20
845.5534244479001
 30
0
  0
VERTEX
  8
0
 10
248.8702165342
 20
845.297508707
 30
0
  0
SEQEND
  8
0
  0
POLYLINE
  8
0
 62
7
 66
1
  0
VERTEX
  8
0
 10
248.5182879763
 20
844.893442585
 30
0
  0
VERTEX
  8
0
 10
247.8398040648
 20
845.6273761854
 30
0
  0
VERTEX
  8
0
 10
247.6636043358
 20
846.3942596095
 30
0
  0
SEQEND
  8
0
  0
POLYLINE
  8
0
 62
7
 66
1
  0
VERTEX
  8
0
 10
247.6636043358
 20
849.107275
 30
0
  0
VERTEX
  8
0
 10
247.7417970571
 20
849.7189119706
 30
0
  0
VERTEX
  8
0
 10
247.9652573854
 20
850.1463021708
 30
0
  0
SEQEND
  8
0
  0
POLYLINE
  8
0
 62
7
 66
1
  0
VERTEX
  8
0
 10
248.5182879763
 20
847.6064579755
 30
0
  0
VERTEX
  8
0
 10
247.8398040648
 20
848.3403915758
 30
0
  0
VERTEX
  8
0
 10
247.6636043358
 20
849.107275
 30
0
  0
SEQEND
  8
0
  0
POLYLINE
  8
0
 62
7
 66
1
  0
VERTEX
  8
0
 10
249.3729716168
 20
849.2636876924
 30
0
  0
VERTEX
  8
0
 10
249.0209941816
 20
849.2245720321
 30
0
  0
VERTEX
  8
0
 10
248.7696655176
 20
849.107275
 30
0
  0
SEQEND
  8
0
  0
POLYLINE
  8
0
 62
7
 66
1
  0
VERTEX
  8
0
 10
139.882376899
 20
838.4348733279001
 30
0
  0
VERTEX
  8
0
 10
140.0668234342
 20
838.7555498147
 30
0
  0
VERTEX
  8
0
 10
140.1132338247
 20
839.0428915685
 30
0
  0
SEQEND
  8
0
  0
POLYLINE
  8
0
 62
7
 66
1
  0
VERTEX
  8
0
 10
140.1132338247
 20
839.0428915685
 30
0
  0
VERTEX
  8
0
 10
140.0348033576
 20
839.3870752813
 30
0
  0
VERTEX
  8
0
 10
139.882376899
 20
839.620508897
 30
0
  0
SEQEND
  8
0
  0
POLYLINE
  8
0
 62
7
 66
1
  0
VERTEX
  8
0
 10
136.3169199353
 20
839.620508897
 30
0
  0
VERTEX
  8
0
 10
136.1352211892
 20
839.3166444497
 30
0
  0
VERTEX
  8
0
 10
136.0860630096
 20
839.0428915685
 30
0
  0
SEQEND
  8
0
  0
POLYLINE
  8
0
 62
7
 66
1
  0
VERTEX
  8
0
 10
136.0860630096
 20
839.0428915685
 30
0
  0
VERTEX
  8
0
 10
136.1613089564
 20
838.6812083837
 30
0
  0
VERTEX
  8
0
 10
136.3169199353
 20
838.4348733279001
 30
0
  0
SEQEND
  8
0
  0
POLYLINE
  8
0
 62
7
 66
1
  0
VERTEX
  8
0
 10
135.9321583924
 20
838.0092605596
 30
0
  0
VERTEX
  8
0
 10
135.6547641375
 20
838.5592941696
 30
0
  0
VERTEX
  8
0
 10
135.5986983886
 20
839.0428915685
 30
0
  0
SEQEND
  8
0
  0
POLYLINE
  8
0
 62
7
 66
1
  0
VERTEX
  8
0
 10
135.5986983886
 20
839.0428915685
 30
0
  0
VERTEX
  8
0
 10
135.6958269474
 20
839.6367060937999
 30
0
  0
VERTEX
  8
0
 10
135.9321583924
 20
840.0461216654001
 30
0
  0
SEQEND
  8
0
  0
POLYLINE
  8
0
 62
7
 66
1
  0
VERTEX
  8
0
 10
140.2671384418
 20
840.0461216654001
 30
0
  0
VERTEX
  8
0
 10
140.5412860913
 20
839.5129551633
 30
0
  0
VERTEX
  8
0
 10
140.5986983886
 20
839.0428915685
 30
0
  0
SEQEND
  8
0
  0
POLYLINE
  8
0
 62
7
 66
1
  0
VERTEX
  8
0
 10
140.5986983886
 20
839.0428915685
 30
0
  0
VERTEX
  8
0
 10
140.5049899543
 20
838.4320639731
 30
0
  0
VERTEX
  8
0
 10
140.2671384418
 20
838.0092605596
 30
0
  0
SEQEND
  8
0
  0
POLYLINE
  8
0
 62
7
 66
1
  0
VERTEX
  8
0
 10
138.6767907314
 20
836.0757625546
 30
0
  0
VERTEX
  8
0
 10
139.6141151371
 20
835.8968564752
 30
0
  0
VERTEX
  8
0
 10
140.2414876723
 20
835.4981452261
 30
0
  0
SEQEND
  8
0
  0
POLYLINE
  8
0
 62
7
 66
1
  0
VERTEX
  8
0
 10
140.5986983886
 20
834.4949151292
 30
0
  0
VERTEX
  8
0
 10
140.4881689509
 20
833.8996219618
 30
0
  0
VERTEX
  8
0
 10
140.2414876723
 20
833.4916850323
 30
0
  0
SEQEND
  8
0
  0
POLYLINE
  8
0
 62
7
 66
1
  0
VERTEX
  8
0
 10
138.2407276495
 20
832.7316622316
 30
0
  0
VERTEX
  8
0
 10
136.8606770607
 20
832.9419064317
 30
0
  0
VERTEX
  8
0
 10
135.9578091619
 20
833.5524868563
 30
0
  0
SEQEND
  8
0
  0
POLYLINE
  8
0
 62
7
 66
1
  0
VERTEX
  8
0
 10
135.9578091619
 20
833.5524868563
 30
0
  0
VERTEX
  8
0
 10
135.6681546484
 20
834.0660972088
 30
0
  0
VERTEX
  8
0
 10
135.5986983886
 20
834.5253160412
 30
0
  0
SEQEND
  8
0
  0
POLYLINE
  8
0
 62
7
 66
1
  0
VERTEX
  8
0
 10
135.5986983886
 20
834.5253160412
 30
0
  0
VERTEX
  8
0
 10
135.6758215677
 20
835.0635458841
 30
0
  0
VERTEX
  8
0
 10
135.8808568534
 20
835.437343402
 30
0
  0
SEQEND
  8
0
  0
POLYLINE
  8
0
 62
7
 66
1
  0
VERTEX
  8
0
 10
135.8808568534
 20
835.437343402
 30
0
  0
VERTEX
  8
0
 10
136.6299521855
 20
835.9512250867
 30
0
  0
VERTEX
  8
0
 10
137.3429507162
 20
836.0453616426
 30
0
  0
SEQEND
  8
0
  0
POLYLINE
  8
0
 62
7
 66
1
  0
VERTEX
  8
0
 10
137.3429507162
 20
835.376541578
 30
0
  0
VERTEX
  8
0
 10
136.6839845809
 20
835.2787294819
 30
0
  0
VERTEX
  8
0
 10
136.2399676267
 20
835.0117306337
 30
0
  0
SEQEND
  8
0
  0
POLYLINE
  8
0
 62
7
 66
1
  0
VERTEX
  8
0
 10
136.2399676267
 20
835.0117306337
 30
0
  0
VERTEX
  8
0
 10
136.1111005503
 20
834.7525900954
 30
0
  0
VERTEX
  8
0
 10
136.0860630096
 20
834.5253160412
 30
0
  0
SEQEND
  8
0
  0
POLYLINE
  8
0
 62
7
 66
1
  0
VERTEX
  8
0
 10
136.0860630096
 20
834.5253160412
 30
0
  0
VERTEX
  8
0
 10
136.1428335147
 20
834.2359703134
 30
0
  0
VERTEX
  8
0
 10
136.2656183962
 20
834.0389014488
 30
0
  0
SEQEND
  8
0
  0
POLYLINE
  8
0
 62
7
 66
1
  0
VERTEX
  8
0
 10
139.8567261295
 20
833.9476987127
 30
0
  0
VERTEX
  8
0
 10
140.0213300416
 20
834.2364645641
 30
0
  0
VERTEX
  8
0
 10
140.0619322856
 20
834.4949151292
 30
0
  0
SEQEND
  8
0
  0
POLYLINE
  8
0
 62
7
 66
1
  0
VERTEX
  8
0
 10
140.0619322856
 20
834.4949151292
 30
0
  0
VERTEX
  8
0
 10
139.99251241
 20
834.8028775914
 30
0
  0
VERTEX
  8
0
 10
139.8567261295
 20
835.0117306337
 30
0
  0
SEQEND
  8
0
  0
POLYLINE
  8
0
 62
7
 66
1
  0
VERTEX
  8
0
 10
140.2414876723
 20
835.4981452261
 30
0
  0
VERTEX
  8
0
 10
140.5316057637
 20
834.9671601822
 30
0
  0
VERTEX
  8
0
 10
140.5986983886
 20
834.4949151292
 30
0
  0
SEQEND
  8
0
  0
POLYLINE
  8
0
 62
7
 66
1
  0
VERTEX
  8
0
 10
242.6518999847
 20
916.3448724548
 30
0
  0
VERTEX
  8
0
 10
233.7646417334
 20
918.3820306544
 30
0
  0
VERTEX
  8
0
 10
229.8439899268
 20
918.8800756713
 30
0
  0
SEQEND
  8
0
  0
POLYLINE
  8
0
 62
7
 66
1
  0
VERTEX
  8
0
 10
225.6849226672
 20
924.3973019417
 30
0
  0
VERTEX
  8
0
 10
229.27315421
 20
923.9667936795
 30
0
  0
VERTEX
  8
0
 10
234.9173379478
 20
922.9420611874
 30
0
  0
SEQEND
  8
0
  0
POLYLINE
  8
0
 62
7
 66
1
  0
VERTEX
  8
0
 10
234.9173379478
 20
922.9420611874
 30
0
  0
VERTEX
  8
0
 10
235.3048710979
 20
923.4989601549
 30
0
  0
VERTEX
  8
0
 10
235.69541129
 20
923.7507194415
 30
0
  0
SEQEND
  8
0
  0
POLYLINE
  8
0
 62
7
 66
1
  0
VERTEX
  8
0
 10
252.0757076989
 20
917.7883578175
 30
0
  0
VERTEX
  8
0
 10
253.1863786565
 20
917.4789766013
 30
0
  0
VERTEX
  8
0
 10
254.143192376
 20
917.2395073168
 30
0
  0
VERTEX
  8
0
 10
254.8648223311
 20
917.0926143155
 30
0
  0
VERTEX
  8
0
 10
255.3837259754
 20
917.0294491958
 30
0
  0
VERTEX
  8
0
 10
255.7288714319
 20
917.0543985488
 30
0
  0
VERTEX
  8
0
 10
255.8363955195
 20
917.1605037857
 30
0
  0
SEQEND
  8
0
  0
POLYLINE
  8
0
 62
7
 66
1
  0
VERTEX
  8
0
 10
242.8685064829
 20
922.0890011862
 30
0
  0
VERTEX
  8
0
 10
242.9706703637
 20
922.0237572918001
 30
0
  0
VERTEX
  8
0
 10
243.1278642636
 20
921.9554363061
 30
0
  0
SEQEND
  8
0
  0
POLYLINE
  8
0
 62
7
 66
1
  0
VERTEX
  8
0
 10
229.8420231158
 20
750.1333258065
 30
0
  0
VERTEX
  8
0
 10
233.6824697534
 20
750.6193362882
 30
0
  0
VERTEX
  8
0
 10
242.6518999847
 20
752.671273593
 30
0
  0
SEQEND
  8
0
  0
POLYLINE
  8
0
 62
7
 66
1
  0
VERTEX
  8
0
 10
199.4018999847
 20
748.3326160573
 30
0
  0
VERTEX
  8
0
 10
205.0033916755
 20
747.6385803440001
 30
0
  0
VERTEX
  8
0
 10
207.2632579203
 20
747.538810535
 30
0
  0
SEQEND
  8
0
  0
POLYLINE
  8
0
 62
7
 66
1
  0
VERTEX
  8
0
 10
121.7757156541
 20
828.657282289
 30
0
  0
VERTEX
  8
0
 10
121.7925501528
 20
828.6692468822999
 30
0
  0
VERTEX
  8
0
 10
121.7955237616
 20
828.6714069289
 30
0
  0
SEQEND
  8
0
  0
POLYLINE
  8
0
 62
7
 66
1
  0
VERTEX
  8
0
 10
228.5570904283
 20
920.6758688427
 30
0
  0
VERTEX
  8
0
 10
233.6806179693
 20
920.047220688
 30
0
  0
VERTEX
  8
0
 10
242.6518999847
 20
918.0547395618
 30
0
  0
SEQEND
  8
0
  0
POLYLINE
  8
0
 62
7
 66
1
  0
VERTEX
  8
0
 10
242.6518999847
 20
750.9614064861
 30
0
  0
VERTEX
  8
0
 10
233.7585942388
 20
748.9825373639
 30
0
  0
VERTEX
  8
0
 10
228.5584536027
 20
748.3421794355
 30
0
  0
SEQEND
  8
0
  0
POLYLINE
  8
0
 62
7
 66
1
  0
VERTEX
  8
0
 10
248.9634143301
 20
921.7063630501
 30
0
  0
VERTEX
  8
0
 10
248.3579223996
 20
921.9169902678
 30
0
  0
VERTEX
  8
0
 10
247.3886534048
 20
922.2533849893
 30
0
  0
VERTEX
  8
0
 10
247.0182309746
 20
922.3814059567
 30
0
  0
SEQEND
  8
0
  0
POLYLINE
  8
0
 62
7
 66
1
  0
VERTEX
  8
0
 10
255.6396327351
 20
919.0443919648
 30
0
  0
VERTEX
  8
0
 10
255.742039219
 20
918.9786254319999
 30
0
  0
VERTEX
  8
0
 10
255.8363955195
 20
918.8142659882
 30
0
  0
SEQEND
  8
0
  0
POLYLINE
  8
0
 62
7
 66
1
  0
VERTEX
  8
0
 10
255.8363955195
 20
918.8142659882
 30
0
  0
VERTEX
  8
0
 10
255.6500243928
 20
918.6920732507
 30
0
  0
VERTEX
  8
0
 10
254.5757825574
 20
918.7992413045
 30
0
  0
VERTEX
  8
0
 10
252.8709206291
 20
919.209963865
 30
0
  0
VERTEX
  8
0
 10
252.0757076989
 20
919.4304921951
 30
0
  0
SEQEND
  8
0
  0
POLYLINE
  8
0
 62
7
 66
1
  0
VERTEX
  8
0
 10
233.3241401519
 20
925.7364392374
 30
0
  0
VERTEX
  8
0
 10
233.2582074505
 20
925.7325682177
 30
0
  0
VERTEX
  8
0
 10
232.8708939025
 20
925.7597037922
 30
0
  0
SEQEND
  8
0
  0
POLYLINE
  8
0
 62
7
 66
1
  0
VERTEX
  8
0
 10
226.5876175308
 20
926.5231085986
 30
0
  0
VERTEX
  8
0
 10
226.2453024682
 20
926.5855917003
 30
0
  0
VERTEX
  8
0
 10
226.0621222913
 20
926.6401140249
 30
0
  0
SEQEND
  8
0
  0
POLYLINE
  8
0
 62
7
 66
1
  0
VERTEX
  8
0
 10
226.4493473005
 20
926.6044947616
 30
0
  0
VERTEX
  8
0
 10
226.8466856072
 20
926.5536935652
 30
0
  0
VERTEX
  8
0
 10
227.358911195
 20
926.4874829198
 30
0
  0
SEQEND
  8
0
  0
POLYLINE
  8
0
 62
7
 66
1
  0
VERTEX
  8
0
 10
227.358911195
 20
926.4874829198
 30
0
  0
VERTEX
  8
0
 10
227.7676839711
 20
926.4347835341
 30
0
  0
VERTEX
  8
0
 10
228.5868024257
 20
926.3297764835
 30
0
  0
VERTEX
  8
0
 10
229.1744156601
 20
926.2550517421
 30
0
  0
SEQEND
  8
0
  0
POLYLINE
  8
0
 62
7
 66
1
  0
VERTEX
  8
0
 10
229.1744156601
 20
926.2550517421
 30
0
  0
VERTEX
  8
0
 10
230.7426486372
 20
926.0539073234
 30
0
  0
VERTEX
  8
0
 10
232.1076794132
 20
925.8809232916
 30
0
  0
VERTEX
  8
0
 10
232.9351034808
 20
925.77726675
 30
0
  0
SEQEND
  8
0
  0
POLYLINE
  8
0
 62
7
 66
1
  0
VERTEX
  8
0
 10
232.8054245904
 20
925.7108908177
 30
0
  0
VERTEX
  8
0
 10
231.8651065585
 20
925.8282990703
 30
0
  0
VERTEX
  8
0
 10
230.0530215918
 20
926.0603630962
 30
0
  0
VERTEX
  8
0
 10
228.5260212083
 20
926.253598102
 30
0
  0
SEQEND
  8
0
  0
POLYLINE
  8
0
 62
7
 66
1
  0
VERTEX
  8
0
 10
121.7758424635
 20
840.3600388144999
 30
0
  0
VERTEX
  8
0
 10
121.8663382746
 20
840.3602205917
 30
0
  0
VERTEX
  8
0
 10
122.1541386243
 20
840.3608017652
 30
0
  0
SEQEND
  8
0
  0
POLYLINE
  8
0
 62
7
 66
1
  0
VERTEX
  8
0
 10
122.0376418863
 20
834.5080730239
 30
0
  0
VERTEX
  8
0
 10
122.06338954
 20
831.5816386753
 30
0
  0
VERTEX
  8
0
 10
122.1541386243
 20
828.6553442826
 30
0
  0
SEQEND
  8
0
  0
POLYLINE
  8
0
 62
7
 66
1
  0
VERTEX
  8
0
 10
150.9299422607
 20
896.2580462
 30
0
  0
VERTEX
  8
0
 10
154.5154764115
 20
899.0849847029
 30
0
  0
VERTEX
  8
0
 10
158.5246904519
 20
901.8550208241001
 30
0
  0
VERTEX
  8
0
 10
162.7452936437
 20
904.3711263211
 30
0
  0
VERTEX
  8
0
 10
167.173378909
 20
906.6061224767
 30
0
  0
VERTEX
  8
0
 10
174.6694791746
 20
909.5503043294
 30
0
  0
VERTEX
  8
0
 10
182.3579160717
 20
911.6317926875
 30
0
  0
VERTEX
  8
0
 10
189.9679811486
 20
912.9965516177
 30
0
  0
VERTEX
  8
0
 10
197.5828727257
 20
913.8488308887
 30
0
  0
SEQEND
  8
0
  0
POLYLINE
  8
0
 62
7
 66
1
  0
VERTEX
  8
0
 10
196.4237071508
 20
911.8631605826
 30
0
  0
VERTEX
  8
0
 10
196.542474333
 20
912.1925291491
 30
0
  0
VERTEX
  8
0
 10
197.5891364577
 20
913.849323
 30
0
  0
SEQEND
  8
0
  0
POLYLINE
  8
0
 62
7
 66
1
  0
VERTEX
  8
0
 10
150.9299422607
 20
772.7580998478001
 30
0
  0
VERTEX
  8
0
 10
154.5154764115
 20
769.9311613449
 30
0
  0
VERTEX
  8
0
 10
158.5246904519
 20
767.1611252237
 30
0
  0
VERTEX
  8
0
 10
162.7452936437
 20
764.6450197267
 30
0
  0
VERTEX
  8
0
 10
167.173378909
 20
762.4100235711001
 30
0
  0
VERTEX
  8
0
 10
174.6694791746
 20
759.4658417185
 30
0
  0
VERTEX
  8
0
 10
182.3579160717
 20
757.3843533604
 30
0
  0
VERTEX
  8
0
 10
189.9679811486
 20
756.0195944302
 30
0
  0
VERTEX
  8
0
 10
194.4018999847
 20
755.523338236
 30
0
  0
SEQEND
  8
0
  0
POLYLINE
  8
0
 62
7
 66
1
  0
VERTEX
  8
0
 10
135.4284073103
 20
797.4794637718001
 30
0
  0
VERTEX
  8
0
 10
134.0928746764
 20
797.276682678
 30
0
  0
VERTEX
  8
0
 10
132.3375773519
 20
797.257620822
 30
0
  0
VERTEX
  8
0
 10
131.0647543125
 20
797.5516574944001
 30
0
  0
VERTEX
  8
0
 10
130.3135617279
 20
798.1497471723
 30
0
  0
SEQEND
  8
0
  0
POLYLINE
  8
0
 62
7
 66
1
  0
VERTEX
  8
0
 10
197.575298366
 20
913.8400363357
 30
0
  0
VERTEX
  8
0
 10
198.2251906006
 20
914.2950919642
 30
0
  0
VERTEX
  8
0
 10
198.9219866438
 20
914.7311354245001
 30
0
  0
VERTEX
  8
0
 10
198.9220274143
 20
914.731159565
 30
0
  0
SEQEND
  8
0
  0
POLYLINE
  8
0
 62
7
 66
1
  0
VERTEX
  8
0
 10
199.4018999847
 20
754.0221563072
 30
0
  0
VERTEX
  8
0
 10
202.1671939504
 20
752.7105668757
 30
0
  0
VERTEX
  8
0
 10
204.0369842818
 20
752.142099548
 30
0
  0
SEQEND
  8
0
  0
POLYLINE
  8
0
 62
7
 66
1
  0
VERTEX
  8
0
 10
626.332957823
 20
516.3684135855
 30
0
  0
VERTEX
  8
0
 10
625.0529480765
 20
520.0496001721
 30
0
  0
VERTEX
  8
0
 10
623.7894786189
 20
523.0078979016
 30
0
  0
SEQEND
  8
0
  0
POLYLINE
  8
0
 62
7
 66
1
  0
VERTEX
  8
0
 10
630.6849537084
 20
496.075900513
 30
0
  0
VERTEX
  8
0
 10
629.8510921786
 20
502.3615828336
 30
0
  0
VERTEX
  8
0
 10
629.0419665763
 20
506.3684156717
 30
0
  0
SEQEND
  8
0
  0
POLYLINE
  8
0
 62
7
 66
1
  0
VERTEX
  8
0
 10
451.3320741842
 20
506.3684156717
 30
0
  0
VERTEX
  8
0
 10
450.5229485819
 20
502.3615828336
 30
0
  0
VERTEX
  8
0
 10
449.7278896759
 20
496.3684140325
 30
0
  0
SEQEND
  8
0
  0
POLYLINE
  8
0
 62
7
 66
1
  0
VERTEX
  8
0
 10
456.5845621417
 20
523.0078979016
 30
0
  0
VERTEX
  8
0
 10
455.321092684
 20
520.0496001721
 30
0
  0
VERTEX
  8
0
 10
454.0410829375
 20
516.3684135855
 30
0
  0
SEQEND
  8
0
  0
POLYLINE
  8
0
 62
7
 66
1
  0
VERTEX
  8
0
 10
629.8704860399
 20
509.3743524135
 30
0
  0
VERTEX
  8
0
 10
629.5108241627
 20
510.9094402374
 30
0
  0
VERTEX
  8
0
 10
628.7832302640001
 20
513.3765137375
 30
0
  0
SEQEND
  8
0
  0
POLYLINE
  8
0
 62
7
 66
1
  0
VERTEX
  8
0
 10
451.5901175926
 20
513.3741630793001
 30
0
  0
VERTEX
  8
0
 10
450.8632165978
 20
510.9094402374
 30
0
  0
VERTEX
  8
0
 10
450.5035547207
 20
509.3743524135
 30
0
  0
SEQEND
  8
0
  0
POLYLINE
  8
0
 62
7
 66
1
  0
VERTEX
  8
0
 10
448.1036854575
 20
495.1017221988
 30
0
  0
VERTEX
  8
0
 10
447.9046953509
 20
492.7917181135
 30
0
  0
VERTEX
  8
0
 10
447.8887436578
 20
492.4753329337
 30
0
  0
SEQEND
  8
0
  0
POLYLINE
  8
0
 62
7
 66
1
  0
VERTEX
  8
0
 10
447.6912213156
 20
486.9571367831
 30
0
  0
VERTEX
  8
0
 10
447.8140664885
 20
481.4478142739
 30
0
  0
VERTEX
  8
0
 10
447.9212058375
 20
480.1184146286
 30
0
  0
SEQEND
  8
0
  0
POLYLINE
  8
0
 62
7
 66
1
  0
VERTEX
  8
0
 10
476.1870173404
 20
548.5150127292
 30
0
  0
VERTEX
  8
0
 10
476.1605901311
 20
547.1198617101001
 30
0
  0
VERTEX
  8
0
 10
476.1164901445
 20
546.5374200226
 30
0
  0
SEQEND
  8
0
  0
POLYLINE
  8
0
 62
7
 66
1
  0
VERTEX
  8
0
 10
605.3775516937
 20
544.6767120243
 30
0
  0
VERTEX
  8
0
 10
605.0160495231
 20
544.9344425083
 30
0
  0
VERTEX
  8
0
 10
604.8425180504
 20
545.0760109902
 30
0
  0
VERTEX
  8
0
 10
604.8564655373
 20
545.0598208786
 30
0
  0
VERTEX
  8
0
 10
604.9286914656
 20
544.975182283
 30
0
  0
VERTEX
  8
0
 10
604.8923400829
 20
545.023253429
 30
0
  0
VERTEX
  8
0
 10
604.8432631085
 20
545.0944809795
 30
0
  0
VERTEX
  8
0
 10
604.6191645453
 20
545.5086960078
 30
0
  0
VERTEX
  8
0
 10
604.3910575698
 20
546.1735858203
 30
0
  0
VERTEX
  8
0
 10
604.3308270762
 20
546.4408977509
 30
0
  0
VERTEX
  8
0
 10
604.2887089441
 20
546.6883464337
 30
0
  0
VERTEX
  8
0
 10
604.2549429128
 20
547.0387025357001
 30
0
  0
SEQEND
  8
0
  0
POLYLINE
  8
0
 62
7
 66
1
  0
VERTEX
  8
0
 10
476.1191351006
 20
547.0375476957
 30
0
  0
VERTEX
  8
0
 10
476.0883642027
 20
546.7138348699
 30
0
  0
VERTEX
  8
0
 10
476.0617209265
 20
546.5389175893
 30
0
  0
VERTEX
  8
0
 10
475.9874982426
 20
546.1916013242
 30
0
  0
VERTEX
  8
0
 10
475.7691664288
 20
545.5408750654
 30
0
  0
VERTEX
  8
0
 10
475.529801626
 20
545.0929983140001
 30
0
  0
VERTEX
  8
0
 10
475.4544464538
 20
544.9868051887
 30
0
  0
VERTEX
  8
0
 10
475.5085078666
 20
545.0498669029
 30
0
  0
VERTEX
  8
0
 10
475.5449486563
 20
545.0883491517
 30
0
  0
VERTEX
  8
0
 10
475.449983556
 20
545.0069441081
 30
0
  0
VERTEX
  8
0
 10
475.1410750339
 20
544.7751639963
 30
0
  0
VERTEX
  8
0
 10
474.9870640824
 20
544.6733518124
 30
0
  0
SEQEND
  8
0
  0
POLYLINE
  8
0
 62
7
 66
1
  0
VERTEX
  8
0
 10
626.1402336547
 20
548.2169224501
 30
0
  0
VERTEX
  8
0
 10
627.6099649856
 20
547.6013033272
 30
0
  0
VERTEX
  8
0
 10
629.1401279757
 20
547.3684130789
 30
0
  0
SEQEND
  8
0
  0
POLYLINE
  8
0
 62
7
 66
1
  0
VERTEX
  8
0
 10
620.6637290905001
 20
547.3684130789
 30
0
  0
VERTEX
  8
0
 10
624.7563330124
 20
547.8571488143
 30
0
  0
VERTEX
  8
0
 10
626.1402336547
 20
548.2169224501
 30
0
  0
SEQEND
  8
0
  0
POLYLINE
  8
0
 62
7
 66
1
  0
VERTEX
  8
0
 10
615.1872319768
 20
548.2169224501
 30
0
  0
VERTEX
  8
0
 10
619.1733596513
 20
547.4357067228
 30
0
  0
VERTEX
  8
0
 10
620.6637290905001
 20
547.3684130789
 30
0
  0
SEQEND
  8
0
  0
POLYLINE
  8
0
 62
7
 66
1
  0
VERTEX
  8
0
 10
610.2340189407
 20
548.2169224501
 30
0
  0
VERTEX
  8
0
 10
611.4473757932
 20
547.6013033272
 30
0
  0
VERTEX
  8
0
 10
612.710629184
 20
547.3684130789
 30
0
  0
SEQEND
  8
0
  0
POLYLINE
  8
0
 62
7
 66
1
  0
VERTEX
  8
0
 10
574.6872318575
 20
548.2169224501
 30
0
  0
VERTEX
  8
0
 10
577.3703237662
 20
547.6013033272
 30
0
  0
VERTEX
  8
0
 10
580.1637326965
 20
547.3684130789
 30
0
  0
SEQEND
  8
0
  0
POLYLINE
  8
0
 62
7
 66
1
  0
VERTEX
  8
0
 10
585.6402335355
 20
548.2169224501
 30
0
  0
VERTEX
  8
0
 10
587.1099648664
 20
547.6013033272
 30
0
  0
VERTEX
  8
0
 10
588.6401278565
 20
547.3684130789
 30
0
  0
SEQEND
  8
0
  0
POLYLINE
  8
0
 62
7
 66
1
  0
VERTEX
  8
0
 10
572.2106253395
 20
547.3684130789
 30
0
  0
VERTEX
  8
0
 10
574.0614017139
 20
547.8571488143
 30
0
  0
VERTEX
  8
0
 10
574.6872318575
 20
548.2169224501
 30
0
  0
SEQEND
  8
0
  0
POLYLINE
  8
0
 62
7
 66
1
  0
VERTEX
  8
0
 10
569.7340188214999
 20
548.2169224501
 30
0
  0
VERTEX
  8
0
 10
571.5366420934
 20
547.4357067228
 30
0
  0
VERTEX
  8
0
 10
572.2106253395
 20
547.3684130789
 30
0
  0
SEQEND
  8
0
  0
POLYLINE
  8
0
 62
7
 66
1
  0
VERTEX
  8
0
 10
493.6872316191
 20
548.2169224501
 30
0
  0
VERTEX
  8
0
 10
496.3703235278
 20
547.6013033272
 30
0
  0
VERTEX
  8
0
 10
499.1637324581
 20
547.3684130789
 30
0
  0
SEQEND
  8
0
  0
POLYLINE
  8
0
 62
7
 66
1
  0
VERTEX
  8
0
 10
504.6402332971
 20
548.2169224501
 30
0
  0
VERTEX
  8
0
 10
505.3982963452
 20
547.8571488143
 30
0
  0
VERTEX
  8
0
 10
507.6401276181
 20
547.3684130789
 30
0
  0
SEQEND
  8
0
  0
POLYLINE
  8
0
 62
7
 66
1
  0
VERTEX
  8
0
 10
507.6401276181
 20
547.3684130789
 30
0
  0
VERTEX
  8
0
 10
508.4565175364
 20
547.4357067228
 30
0
  0
VERTEX
  8
0
 10
510.640021939
 20
548.2169224501
 30
0
  0
SEQEND
  8
0
  0
POLYLINE
  8
0
 62
7
 66
1
  0
VERTEX
  8
0
 10
488.7340185831
 20
548.2169224501
 30
0
  0
VERTEX
  8
0
 10
489.9473791609
 20
547.6013033272
 30
0
  0
VERTEX
  8
0
 10
491.2106251011
 20
547.3684130789
 30
0
  0
SEQEND
  8
0
  0
POLYLINE
  8
0
 62
7
 66
1
  0
VERTEX
  8
0
 10
464.1402331779
 20
548.2169224501
 30
0
  0
VERTEX
  8
0
 10
465.6099645088
 20
547.6013033272
 30
0
  0
VERTEX
  8
0
 10
467.1401274989
 20
547.3684130789
 30
0
  0
SEQEND
  8
0
  0
POLYLINE
  8
0
 62
7
 66
1
  0
VERTEX
  8
0
 10
458.6637286136
 20
547.3684130789
 30
0
  0
VERTEX
  8
0
 10
460.1541055033
 20
547.4357067228
 30
0
  0
VERTEX
  8
0
 10
464.1402331779
 20
548.2169224501
 30
0
  0
SEQEND
  8
0
  0
POLYLINE
  8
0
 62
7
 66
1
  0
VERTEX
  8
0
 10
453.1872314999
 20
548.2169224501
 30
0
  0
VERTEX
  8
0
 10
454.5711246917
 20
547.8571488143
 30
0
  0
VERTEX
  8
0
 10
458.6637286136
 20
547.3684130789
 30
0
  0
SEQEND
  8
0
  0
POLYLINE
  8
0
 62
7
 66
1
  0
VERTEX
  8
0
 10
448.2340184639
 20
548.2169224501
 30
0
  0
VERTEX
  8
0
 10
449.4473753164
 20
547.6013033272
 30
0
  0
VERTEX
  8
0
 10
450.7106287072
 20
547.3684130789
 30
0
  0
SEQEND
  8
0
  0
POLYLINE
  8
0
 62
7
 66
1
  0
VERTEX
  8
0
 10
621.1870206187
 20
598.2199146033
 30
0
  0
VERTEX
  8
0
 10
618.8598615716001
 20
598.8355262757
 30
0
  0
VERTEX
  8
0
 10
616.4370221684
 20
599.068416524
 30
0
  0
SEQEND
  8
0
  0
POLYLINE
  8
0
 62
7
 66
1
  0
VERTEX
  8
0
 10
625.937019069
 20
599.068416524
 30
0
  0
VERTEX
  8
0
 10
622.3873315046
 20
598.579673338
 30
0
  0
VERTEX
  8
0
 10
621.1870206187
 20
598.2199146033
 30
0
  0
SEQEND
  8
0
  0
POLYLINE
  8
0
 62
7
 66
1
  0
VERTEX
  8
0
 10
630.6870175192
 20
598.2199146033
 30
0
  0
VERTEX
  8
0
 10
627.229687352
 20
599.0011228801
 30
0
  0
VERTEX
  8
0
 10
625.937019069
 20
599.068416524
 30
0
  0
SEQEND
  8
0
  0
POLYLINE
  8
0
 62
7
 66
1
  0
VERTEX
  8
0
 10
459.1870201419
 20
598.2199146033
 30
0
  0
VERTEX
  8
0
 10
456.8598610947
 20
598.8355262757
 30
0
  0
VERTEX
  8
0
 10
454.4370216916
 20
599.068416524
 30
0
  0
SEQEND
  8
0
  0
POLYLINE
  8
0
 62
7
 66
1
  0
VERTEX
  8
0
 10
463.9370185921
 20
599.068416524
 30
0
  0
VERTEX
  8
0
 10
462.6443577597
 20
599.0011228801
 30
0
  0
VERTEX
  8
0
 10
459.1870201419
 20
598.2199146033
 30
0
  0
SEQEND
  8
0
  0
POLYLINE
  8
0
 62
7
 66
1
  0
VERTEX
  8
0
 10
468.6870170424
 20
598.2199146033
 30
0
  0
VERTEX
  8
0
 10
467.4867061565
 20
598.579673338
 30
0
  0
VERTEX
  8
0
 10
463.9370185921
 20
599.068416524
 30
0
  0
SEQEND
  8
0
  0
POLYLINE
  8
0
 62
7
 66
1
  0
VERTEX
  8
0
 10
509.1870208869
 20
598.2199146033
 30
0
  0
VERTEX
  8
0
 10
506.8598618398
 20
598.8355262757
 30
0
  0
VERTEX
  8
0
 10
504.4370187113
 20
599.068416524
 30
0
  0
SEQEND
  8
0
  0
POLYLINE
  8
0
 62
7
 66
1
  0
VERTEX
  8
0
 10
499.6870202611
 20
598.2199146033
 30
0
  0
VERTEX
  8
0
 10
497.3598612139
 20
598.8355262757
 30
0
  0
VERTEX
  8
0
 10
494.9370218108
 20
599.068416524
 30
0
  0
SEQEND
  8
0
  0
POLYLINE
  8
0
 62
7
 66
1
  0
VERTEX
  8
0
 10
590.1870211253
 20
598.2199146033
 30
0
  0
VERTEX
  8
0
 10
587.8598620782
 20
598.8355262757
 30
0
  0
VERTEX
  8
0
 10
585.4370189498
 20
599.068416524
 30
0
  0
SEQEND
  8
0
  0
POLYLINE
  8
0
 62
7
 66
1
  0
VERTEX
  8
0
 10
580.6870204995
 20
598.2199146033
 30
0
  0
VERTEX
  8
0
 10
577.2296866069
 20
599.0011228801
 30
0
  0
VERTEX
  8
0
 10
575.9370220492
 20
599.068416524
 30
0
  0
SEQEND
  8
0
  0
POLYLINE
  8
0
 62
7
 66
1
  0
VERTEX
  8
0
 10
575.9370220492
 20
599.068416524
 30
0
  0
VERTEX
  8
0
 10
572.3873307595
 20
598.579673338
 30
0
  0
VERTEX
  8
0
 10
571.1870198736
 20
598.2199146033
 30
0
  0
SEQEND
  8
0
  0
POLYLINE
  8
0
 62
7
 66
1
  0
VERTEX
  8
0
 10
568.6940034518
 20
589.0684111596
 30
0
  0
VERTEX
  8
0
 10
568.7465728859
 20
588.9820589305
 30
0
  0
VERTEX
  8
0
 10
568.9101596961
 20
588.6289014102
 30
0
  0
VERTEX
  8
0
 10
569.1736830065
 20
588.180629778
 30
0
  0
SEQEND
  8
0
  0
POLYLINE
  8
0
 62
7
 66
1
  0
VERTEX
  8
0
 10
511.200357754
 20
588.180629778
 30
0
  0
VERTEX
  8
0
 10
511.461090822
 20
588.623149562
 30
0
  0
VERTEX
  8
0
 10
511.6274678747
 20
588.9820589305
 30
0
  0
VERTEX
  8
0
 10
511.6800373087
 20
589.0684111596
 30
0
  0
SEQEND
  8
0
  0
POLYLINE
  8
0
 62
7
 66
1
  0
VERTEX
  8
0
 10
510.0793247709
 20
587.0684220076
 30
0
  0
VERTEX
  8
0
 10
510.0894519726
 20
587.0766921521
 30
0
  0
VERTEX
  8
0
 10
511.200357754
 20
588.180629778
 30
0
  0
SEQEND
  8
0
  0
POLYLINE
  8
0
 62
7
 66
1
  0
VERTEX
  8
0
 10
618.3599052618
 20
588.180629778
 30
0
  0
VERTEX
  8
0
 10
620.6763876269
 20
587.276635933
 30
0
  0
VERTEX
  8
0
 10
621.1667401383
 20
587.0766921521
 30
0
  0
VERTEX
  8
0
 10
621.1870206187
 20
587.0684220076
 30
0
  0
SEQEND
  8
0
  0
POLYLINE
  8
0
 62
7
 66
1
  0
VERTEX
  8
0
 10
459.1870201419
 20
587.0684220076
 30
0
  0
VERTEX
  8
0
 10
459.2073006222
 20
587.0766921521
 30
0
  0
VERTEX
  8
0
 10
462.0141354988
 20
588.180629778
 30
0
  0
SEQEND
  8
0
  0
POLYLINE
  8
0
 62
7
 66
1
  0
VERTEX
  8
0
 10
622.0238176773
 20
511.3684146286
 30
0
  0
VERTEX
  8
0
 10
624.0609777758
 20
513.8370974541
 30
0
  0
VERTEX
  8
0
 10
625.2185819337
 20
516.3684135855
 30
0
  0
SEQEND
  8
0
  0
POLYLINE
  8
0
 62
7
 66
1
  0
VERTEX
  8
0
 10
628.2876176427
 20
506.3684156717
 30
0
  0
VERTEX
  8
0
 10
625.7631895731
 20
508.9009685994
 30
0
  0
VERTEX
  8
0
 10
622.0238176773
 20
511.3684146286
 30
0
  0
SEQEND
  8
0
  0
POLYLINE
  8
0
 62
7
 66
1
  0
VERTEX
  8
0
 10
630.775739033
 20
485.525740552
 30
0
  0
VERTEX
  8
0
 10
630.811695535
 20
484.6234119118
 30
0
  0
VERTEX
  8
0
 10
630.8136550377
 20
483.2710365386
 30
0
  0
SEQEND
  8
0
  0
POLYLINE
  8
0
 62
7
 66
1
  0
VERTEX
  8
0
 10
630.8136550377
 20
483.2710365386
 30
0
  0
VERTEX
  8
0
 10
630.7861325929
 20
482.1546396793
 30
0
  0
VERTEX
  8
0
 10
630.7809320877
 20
482.0705803663
 30
0
  0
SEQEND
  8
0
  0
POLYLINE
  8
0
 62
7
 66
1
  0
VERTEX
  8
0
 10
625.9324444125
 20
492.8591644944
 30
0
  0
VERTEX
  8
0
 10
626.0861275385
 20
492.2021722973
 30
0
  0
VERTEX
  8
0
 10
626.176912863
 20
491.5741926611
 30
0
  0
SEQEND
  8
0
  0
POLYLINE
  8
0
 62
7
 66
1
  0
VERTEX
  8
0
 10
452.0864231179
 20
506.3684156717
 30
0
  0
VERTEX
  8
0
 10
454.6108511875
 20
508.9009685994
 30
0
  0
VERTEX
  8
0
 10
458.3502230833
 20
511.3684146286
 30
0
  0
SEQEND
  8
0
  0
POLYLINE
  8
0
 62
7
 66
1
  0
VERTEX
  8
0
 10
455.1554588268
 20
516.3684135855
 30
0
  0
VERTEX
  8
0
 10
456.2982810328
 20
513.8599223078001
 30
0
  0
VERTEX
  8
0
 10
458.3502230833
 20
511.3684146286
 30
0
  0
SEQEND
  8
0
  0
POLYLINE
  8
0
 62
7
 66
1
  0
VERTEX
  8
0
 10
627.1798951218
 20
493.7750271142
 30
0
  0
VERTEX
  8
0
 10
626.9339067528
 20
494.0756617666
 30
0
  0
VERTEX
  8
0
 10
626.7995578835
 20
494.1504991234
 30
0
  0
VERTEX
  8
0
 10
626.6654623339
 20
494.1751791716
 30
0
  0
SEQEND
  8
0
  0
POLYLINE
  8
0
 62
7
 66
1
  0
VERTEX
  8
0
 10
626.6654623339
 20
494.1751791716
 30
0
  0
VERTEX
  8
0
 10
626.4505577872
 20
494.1199740947
 30
0
  0
VERTEX
  8
0
 10
626.298193414
 20
493.9902632118
 30
0
  0
VERTEX
  8
0
 10
626.0791165421
 20
493.5749529482
 30
0
  0
SEQEND
  8
0
  0
POLYLINE
  8
0
 62
7
 66
1
  0
VERTEX
  8
0
 10
627.2186604927
 20
489.1732803167
 30
0
  0
VERTEX
  8
0
 10
627.6061428378
 20
489.074165243
 30
0
  0
VERTEX
  8
0
 10
627.9397947381
 20
488.8138084293
 30
0
  0
VERTEX
  8
0
 10
628.4847898076
 20
487.9728241444
 30
0
  0
SEQEND
  8
0
  0
POLYLINE
  8
0
 62
7
 66
1
  0
VERTEX
  8
0
 10
625.1094383786
 20
494.8754443408
 30
0
  0
VERTEX
  8
0
 10
625.6751609633
 20
495.7931472541
 30
0
  0
VERTEX
  8
0
 10
626.0264781902
 20
496.0102646232
 30
0
  0
VERTEX
  8
0
 10
626.4044908474
 20
496.075900513
 30
0
  0
SEQEND
  8
0
  0
POLYLINE
  8
0
 62
7
 66
1
  0
VERTEX
  8
0
 10
623.7336886714001
 20
511.3684146286
 30
0
  0
VERTEX
  8
0
 10
627.3392034361
 20
508.9369996072
 30
0
  0
VERTEX
  8
0
 10
629.8464653680001
 20
506.3684156717
 30
0
  0
SEQEND
  8
0
  0
POLYLINE
  8
0
 62
7
 66
1
  0
VERTEX
  8
0
 10
626.8339795659
 20
516.3684135855
 30
0
  0
VERTEX
  8
0
 10
625.7261676381
 20
513.8604363979
 30
0
  0
VERTEX
  8
0
 10
623.7336886714001
 20
511.3684146286
 30
0
  0
SEQEND
  8
0
  0
POLYLINE
  8
0
 62
7
 66
1
  0
VERTEX
  8
0
 10
456.6403520892
 20
511.3684146286
 30
0
  0
VERTEX
  8
0
 10
454.6614853332
 20
513.8387775601
 30
0
  0
VERTEX
  8
0
 10
453.5400611947
 20
516.3684135855
 30
0
  0
SEQEND
  8
0
  0
POLYLINE
  8
0
 62
7
 66
1
  0
VERTEX
  8
0
 10
456.6403520892
 20
511.3684146286
 30
0
  0
VERTEX
  8
0
 10
453.0348373244
 20
508.9369996072
 30
0
  0
VERTEX
  8
0
 10
450.5275753925
 20
506.3684156717
 30
0
  0
SEQEND
  8
0
  0
POLYLINE
  8
0
 62
7
 66
1
  0
VERTEX
  8
0
 10
631.5205363224
 20
479.0694417984
 30
0
  0
VERTEX
  8
0
 10
631.5741954038
 20
478.775473553
 30
0
  0
VERTEX
  8
0
 10
631.6908267925001
 20
478.508830312
 30
0
  0
VERTEX
  8
0
 10
631.7717326472
 20
478.4692137123
 30
0
  0
SEQEND
  8
0
  0
POLYLINE
  8
0
 62
7
 66
1
  0
VERTEX
  8
0
 10
631.9325459788
 20
489.1732803167
 30
0
  0
VERTEX
  8
0
 10
632.0427847693001
 20
489.1094362915
 30
0
  0
VERTEX
  8
0
 10
632.1489629934
 20
488.9114855409
 30
0
  0
VERTEX
  8
0
 10
632.2465506981
 20
488.5695858479
 30
0
  0
VERTEX
  8
0
 10
632.3361141274
 20
488.0728593648
 30
0
  0
SEQEND
  8
0
  0
POLYLINE
  8
0
 62
7
 66
1
  0
VERTEX
  8
0
 10
631.6240323374
 20
476.5759019733
 30
0
  0
VERTEX
  8
0
 10
631.4931107352001
 20
476.6313361556
 30
0
  0
VERTEX
  8
0
 10
631.3594845722
 20
476.8239373893
 30
0
  0
VERTEX
  8
0
 10
631.2310365627
 20
477.1808518649
 30
0
  0
VERTEX
  8
0
 10
631.1108959506
 20
477.7689466805
 30
0
  0
SEQEND
  8
0
  0
LINE
  8
1
 62
2
 10
283.7283988420588
 20
348.1683769461
 30
0
 11
283.4973988420588
 21
347.5683769461
 31
0
  0
LINE
  8
1
 62
2
 10
283.8438988420588
 20
348.7683769461
 30
0
 11
283.7283988420588
 21
348.1683769461
 31
0
  0
LINE
  8
1
 62
2
 10
283.8438988420588
 20
349.3683769461
 30
0
 11
283.8438988420588
 21
348.7683769461
 31
0
  0
LINE
  8
1
 62
2
 10
283.7283988420588
 20
349.9683769461
 30
0
 11
283.8438988420588
 21
349.3683769461
 31
0
  0
LINE
  8
1
 62
2
 10
283.4973988420588
 20
350.5683769461
 30
0
 11
283.7283988420588
 21
349.9683769461
 31
0
  0
LINE
  8
1
 62
2
 10
282.7466488420589
 20
349.9683769461
 30
0
 11
282.8043988420588
 21
349.6683769461
 31
0
  0
LINE
  8
1
 62
2
 10
282.6311488420589
 20
350.1933769461
 30
0
 11
282.7466488420589
 21
349.9683769461
 31
0
  0
LINE
  8
1
 62
2
 10
282.5156488420589
 20
350.3433769461
 30
0
 11
282.6311488420589
 21
350.1933769461
 31
0
  0
LINE
  8
1
 62
2
 10
282.3423988420588
 20
350.4933769461
 30
0
 11
282.5156488420589
 21
350.3433769461
 31
0
  0
LINE
  8
1
 62
2
 10
282.1113988420588
 20
350.5683769461
 30
0
 11
282.3423988420588
 21
350.4933769461
 31
0
  0
LINE
  8
1
 62
2
 10
281.1873988420588
 20
350.5683769461
 30
0
 11
282.1113988420588
 21
350.5683769461
 31
0
  0
LINE
  8
1
 62
2
 10
281.1873988420588
 20
347.5683769461
 30
0
 11
281.1873988420588
 21
350.5683769461
 31
0
  0
LINE
  8
1
 62
2
 10
282.1113988420588
 20
347.5683769461
 30
0
 11
281.1873988420588
 21
347.5683769461
 31
0
  0
LINE
  8
1
 62
2
 10
282.3423988420588
 20
347.6433769461
 30
0
 11
282.1113988420588
 21
347.5683769461
 31
0
  0
LINE
  8
1
 62
2
 10
282.5156488420589
 20
347.7933769461
 30
0
 11
282.3423988420588
 21
347.6433769461
 31
0
  0
LINE
  8
1
 62
2
 10
282.6311488420589
 20
347.9433769461
 30
0
 11
282.5156488420589
 21
347.7933769461
 31
0
  0
LINE
  8
1
 62
2
 10
282.7466488420589
 20
348.1683769461
 30
0
 11
282.6311488420589
 21
347.9433769461
 31
0
  0
LINE
  8
1
 62
2
 10
282.8043988420588
 20
348.4683769461
 30
0
 11
282.7466488420589
 21
348.1683769461
 31
0
  0
LINE
  8
1
 62
2
 10
282.8043988420588
 20
349.6683769461
 30
0
 11
282.8043988420588
 21
348.4683769461
 31
0
  0
LINE
  8
1
 62
2
 10
279.4888694302941
 20
348.4683769461
 30
0
 11
279.6926929597059
 21
347.9683769461
 31
0
  0
LINE
  8
1
 62
2
 10
279.4209282538235
 20
349.0683769461
 30
0
 11
279.4888694302941
 21
348.4683769461
 31
0
  0
LINE
  8
1
 62
2
 10
279.4888694302941
 20
349.6683769461
 30
0
 11
279.4209282538235
 21
349.0683769461
 31
0
  0
LINE
  8
1
 62
2
 10
279.6926929597059
 20
350.1683769461
 30
0
 11
279.4888694302941
 21
349.6683769461
 31
0
  0
LINE
  8
1
 62
2
 10
276.4994576655882
 20
349.2683769461
 30
0
 11
277.858281195
 21
349.2683769461
 31
0
  0
LINE
  8
1
 62
2
 10
277.1109282538235
 20
347.4683769461
 30
0
 11
276.0918106067647
 21
347.7683769461
 31
0
  0
LINE
  8
1
 62
2
 10
277.5865164891176
 20
347.8683769461
 30
0
 11
277.1109282538235
 21
347.4683769461
 31
0
  0
LINE
  8
1
 62
2
 10
277.6544576655882
 20
348.5683769461
 30
0
 11
277.5865164891176
 21
347.8683769461
 31
0
  0
LINE
  8
1
 62
2
 10
276.3635753126471
 20
348.5683769461
 30
0
 11
277.6544576655882
 21
348.5683769461
 31
0
  0
LINE
  8
1
 62
2
 10
276.4994576655882
 20
349.2683769461
 30
0
 11
276.3635753126471
 21
348.5683769461
 31
0
  0
LINE
  8
1
 62
2
 10
275.8200459008824
 20
349.2683769461
 30
0
 11
276.4994576655882
 21
349.2683769461
 31
0
  0
LINE
  8
1
 62
2
 10
276.0918106067647
 20
349.5683769461
 30
0
 11
276.0918106067647
 21
350.4683769461
 31
0
  0
LINE
  8
1
 62
2
 10
277.6544576655882
 20
349.5683769461
 30
0
 11
276.0918106067647
 21
349.5683769461
 31
0
  0
LINE
  8
1
 62
2
 10
277.6544576655882
 20
350.4683769461
 30
0
 11
277.6544576655882
 21
349.5683769461
 31
0
  0
LINE
  8
1
 62
2
 10
276.0918106067647
 20
350.4683769461
 30
0
 11
277.6544576655882
 21
350.4683769461
 31
0
  0
LINE
  8
1
 62
2
 10
275.1406341361765
 20
347.5683769461
 30
0
 11
275.1406341361765
 21
348.2683769461
 31
0
  0
LINE
  8
1
 62
2
 10
274.1215164891176
 20
347.5683769461
 30
0
 11
275.1406341361765
 21
347.5683769461
 31
0
  0
LINE
  8
1
 62
2
 10
274.1215164891176
 20
349.2683769461
 30
0
 11
274.1215164891176
 21
347.5683769461
 31
0
  0
LINE
  8
1
 62
2
 10
275.0047517832353
 20
349.2683769461
 30
0
 11
274.1215164891176
 21
349.2683769461
 31
0
  0
LINE
  8
1
 62
2
 10
275.0047517832353
 20
350.4683769461
 30
0
 11
275.0047517832353
 21
349.2683769461
 31
0
  0
LINE
  8
1
 62
2
 10
274.053575312647
 20
350.4683769461
 30
0
 11
275.0047517832353
 21
350.4683769461
 31
0
  0
LINE
  8
1
 62
2
 10
273.1703400185294
 20
347.5683769461
 30
0
 11
273.1703400185294
 21
348.5683769461
 31
0
  0
LINE
  8
1
 62
2
 10
273.9176929597059
 20
347.5683769461
 30
0
 11
273.1703400185294
 21
347.5683769461
 31
0
  0
LINE
  8
1
 62
2
 10
273.9176929597059
 20
348.5683769461
 30
0
 11
273.9176929597059
 21
347.5683769461
 31
0
  0
LINE
  8
1
 62
2
 10
273.1703400185294
 20
348.5683769461
 30
0
 11
273.9176929597059
 21
348.5683769461
 31
0
  0
LINE
  8
1
 62
2
 10
273.238281195
 20
348.9683769461
 30
0
 11
273.8497517832353
 21
348.9683769461
 31
0
  0
LINE
  8
1
 62
2
 10
273.238281195
 20
349.4683769461
 30
0
 11
273.8497517832353
 21
349.4683769461
 31
0
  0
LINE
  8
1
 62
2
 10
273.1023988420588
 20
349.9683769461
 30
0
 11
273.9856341361764
 21
349.9683769461
 31
0
  0
LINE
  8
1
 62
2
 10
273.238281195
 20
350.4683769461
 30
0
 11
273.8497517832353
 21
350.4683769461
 31
0
  0
LINE
  8
1
 62
2
 10
270.7923988420588
 20
349.2683769461
 30
0
 11
271.2679870773529
 21
349.2683769461
 31
0
  0
LINE
  8
1
 62
2
 10
270.7923988420588
 20
349.2683769461
 30
0
 11
270.7923988420588
 21
347.5683769461
 31
0
  0
LINE
  8
1
 62
2
 10
272.2191635479412
 20
350.4683769461
 30
0
 11
272.2191635479412
 21
347.5683769461
 31
0
  0
LINE
  8
1
 62
2
 10
271.3359282538235
 20
348.0683769461
 30
0
 11
272.422987077353
 21
348.3683769461
 31
0
  0
LINE
  8
1
 62
2
 10
271.4038694302941
 20
349.4683769461
 30
0
 11
272.0153400185294
 21
348.6683769461
 31
0
  0
LINE
  8
1
 62
2
 10
271.4718106067647
 20
350.3683769461
 30
0
 11
272.0153400185294
 21
349.6683769461
 31
0
  0
LINE
  8
1
 62
2
 10
270.7923988420588
 20
349.2683769461
 30
0
 11
271.2679870773529
 21
348.3683769461
 31
0
  0
LINE
  8
1
 62
2
 10
270.7923988420588
 20
349.2683769461
 30
0
 11
270.3847517832353
 21
348.0683769461
 31
0
  0
LINE
  8
1
 62
2
 10
270.7923988420588
 20
350.5683769461
 30
0
 11
270.7923988420588
 21
349.2683769461
 31
0
  0
LINE
  8
1
 62
2
 10
270.3847517832353
 20
349.2683769461
 30
0
 11
270.7923988420588
 21
349.2683769461
 31
0
  0
LINE
  8
1
 62
2
 10
271.2679870773529
 20
350.3683769461
 30
0
 11
270.9962223714706
 21
349.5683769461
 31
0
  0
LINE
  8
1
 62
2
 10
270.4526929597059
 20
350.3683769461
 30
0
 11
270.588575312647
 21
349.4683769461
 31
0
  0
LINE
  8
1
 62
2
 10
268.0747517832353
 20
350.0683769461
 30
0
 11
268.4823988420588
 21
350.0683769461
 31
0
  0
LINE
  8
1
 62
2
 10
268.0747517832353
 20
350.0683769461
 30
0
 11
268.0747517832353
 21
347.5683769461
 31
0
  0
LINE
  8
1
 62
2
 10
269.433575312647
 20
350.0683769461
 30
0
 11
269.433575312647
 21
347.5683769461
 31
0
  0
LINE
  8
1
 62
2
 10
269.433575312647
 20
350.0683769461
 30
0
 11
268.4823988420588
 21
348.2683769461
 31
0
  0
LINE
  8
1
 62
2
 10
269.433575312647
 20
347.5683769461
 30
0
 11
268.8221047244118
 21
347.9683769461
 31
0
  0
LINE
  8
1
 62
2
 10
269.433575312647
 20
350.5683769461
 30
0
 11
269.433575312647
 21
350.0683769461
 31
0
  0
LINE
  8
1
 62
2
 10
268.618281195
 20
350.0683769461
 30
0
 11
269.7053400185294
 21
350.0683769461
 31
0
  0
LINE
  8
1
 62
2
 10
268.0747517832353
 20
350.0683769461
 30
0
 11
268.4823988420588
 21
348.8683769461
 31
0
  0
LINE
  8
1
 62
2
 10
268.0747517832353
 20
350.0683769461
 30
0
 11
267.6671047244117
 21
348.5683769461
 31
0
  0
LINE
  8
1
 62
2
 10
268.0747517832353
 20
350.5683769461
 30
0
 11
268.0747517832353
 21
350.0683769461
 31
0
  0
LINE
  8
1
 62
2
 10
267.6671047244117
 20
350.0683769461
 30
0
 11
268.0747517832353
 21
350.0683769461
 31
0
  0
LINE
  8
1
 62
2
 10
266.9197517832353
 20
350.6683769461
 30
0
 11
267.0556341361765
 21
350.2683769461
 31
0
  0
LINE
  8
1
 62
2
 10
266.5800459008823
 20
350.6683769461
 30
0
 11
266.7159282538235
 21
350.2683769461
 31
0
  0
LINE
  8
1
 62
2
 10
266.4441635479412
 20
350.1683769461
 30
0
 11
266.8518106067647
 21
349.0683769461
 31
0
  0
LINE
  8
1
 62
2
 10
266.5121047244118
 20
349.6683769461
 30
0
 11
266.4441635479412
 21
350.1683769461
 31
0
  0
LINE
  8
1
 62
2
 10
266.5800459008823
 20
349.2683769461
 30
0
 11
266.5121047244118
 21
349.6683769461
 31
0
  0
LINE
  8
1
 62
2
 10
266.5121047244118
 20
348.7683769461
 30
0
 11
266.5800459008823
 21
349.2683769461
 31
0
  0
LINE
  8
1
 62
2
 10
266.3762223714706
 20
348.3683769461
 30
0
 11
266.5121047244118
 21
348.7683769461
 31
0
  0
LINE
  8
1
 62
2
 10
266.1044576655883
 20
348.0683769461
 30
0
 11
266.3762223714706
 21
348.3683769461
 31
0
  0
LINE
  8
1
 62
2
 10
265.6968106067647
 20
347.8683769461
 30
0
 11
266.1044576655883
 21
348.0683769461
 31
0
  0
LINE
  8
1
 62
2
 10
265.3571047244118
 20
348.0683769461
 30
0
 11
265.6968106067647
 21
347.8683769461
 31
0
  0
LINE
  8
1
 62
2
 10
265.2212223714706
 20
348.6683769461
 30
0
 11
265.3571047244118
 21
348.0683769461
 31
0
  0
LINE
  8
1
 62
2
 10
265.3571047244118
 20
349.2683769461
 30
0
 11
265.2212223714706
 21
348.6683769461
 31
0
  0
LINE
  8
1
 62
2
 10
265.5609282538235
 20
349.7683769461
 30
0
 11
265.3571047244118
 21
349.2683769461
 31
0
  0
LINE
  8
1
 62
2
 10
265.8326929597059
 20
350.1683769461
 30
0
 11
265.5609282538235
 21
349.7683769461
 31
0
  0
LINE
  8
1
 62
2
 10
265.2212223714706
 20
350.1683769461
 30
0
 11
265.8326929597059
 21
350.1683769461
 31
0
  0
LINE
  8
1
 62
2
 10
263.2509282538235
 20
349.7683769461
 30
0
 11
263.2509282538235
 21
348.2683769461
 31
0
  0
LINE
  8
1
 62
2
 10
263.7265164891176
 20
348.4683769461
 30
0
 11
264.1341635479412
 21
348.0683769461
 31
0
  0
LINE
  8
1
 62
2
 10
263.2509282538235
 20
348.6683769461
 30
0
 11
263.7265164891176
 21
348.4683769461
 31
0
  0
LINE
  8
1
 62
2
 10
262.843281195
 20
348.7683769461
 30
0
 11
263.2509282538235
 21
348.6683769461
 31
0
  0
LINE
  8
1
 62
2
 10
262.5715164891176
 20
348.6683769461
 30
0
 11
262.843281195
 21
348.7683769461
 31
0
  0
LINE
  8
1
 62
2
 10
262.4356341361764
 20
348.2683769461
 30
0
 11
262.5715164891176
 21
348.6683769461
 31
0
  0
LINE
  8
1
 62
2
 10
262.5715164891176
 20
347.8683769461
 30
0
 11
262.4356341361764
 21
348.2683769461
 31
0
  0
LINE
  8
1
 62
2
 10
262.843281195
 20
347.7683769461
 30
0
 11
262.5715164891176
 21
347.8683769461
 31
0
  0
LINE
  8
1
 62
2
 10
263.1150459008823
 20
347.8683769461
 30
0
 11
262.843281195
 21
347.7683769461
 31
0
  0
LINE
  8
1
 62
2
 10
263.2509282538235
 20
348.2683769461
 30
0
 11
263.1150459008823
 21
347.8683769461
 31
0
  0
LINE
  8
1
 62
2
 10
263.2509282538235
 20
350.4683769461
 30
0
 11
263.2509282538235
 21
349.7683769461
 31
0
  0
LINE
  8
1
 62
2
 10
263.2509282538235
 20
349.7683769461
 30
0
 11
264.0662223714705
 21
349.7683769461
 31
0
  0
LINE
  8
1
 62
2
 10
261.2126929597059
 20
350.1683769461
 30
0
 11
261.5523988420588
 21
349.5683769461
 31
0
  0
LINE
  8
1
 62
2
 10
261.0768106067647
 20
347.8683769461
 30
0
 11
260.7371047244118
 21
347.7683769461
 31
0
  0
LINE
  8
1
 62
2
 10
261.348575312647
 20
348.2683769461
 30
0
 11
261.0768106067647
 21
347.8683769461
 31
0
  0
LINE
  8
1
 62
2
 10
261.4165164891177
 20
348.8683769461
 30
0
 11
261.348575312647
 21
348.2683769461
 31
0
  0
LINE
  8
1
 62
2
 10
261.1447517832353
 20
349.2683769461
 30
0
 11
261.4165164891177
 21
348.8683769461
 31
0
  0
LINE
  8
1
 62
2
 10
260.8050459008824
 20
349.4683769461
 30
0
 11
261.1447517832353
 21
349.2683769461
 31
0
  0
LINE
  8
1
 62
2
 10
260.3973988420588
 20
349.3683769461
 30
0
 11
260.8050459008824
 21
349.4683769461
 31
0
  0
LINE
  8
1
 62
2
 10
260.1935753126471
 20
349.2683769461
 30
0
 11
260.3973988420588
 21
349.3683769461
 31
0
  0
LINE
  8
1
 62
2
 10
259.9897517832353
 20
349.0683769461
 30
0
 11
260.1935753126471
 21
349.2683769461
 31
0
  0
LINE
  8
1
 62
2
 10
259.8538694302941
 20
348.8683769461
 30
0
 11
259.9897517832353
 21
349.0683769461
 31
0
  0
LINE
  8
1
 62
2
 10
259.7179870773529
 20
348.4683769461
 30
0
 11
259.8538694302941
 21
348.8683769461
 31
0
  0
LINE
  8
1
 62
2
 10
259.7859282538235
 20
347.9683769461
 30
0
 11
259.7179870773529
 21
348.4683769461
 31
0
  0
LINE
  8
1
 62
2
 10
260.1256341361765
 20
347.7683769461
 30
0
 11
259.7859282538235
 21
347.9683769461
 31
0
  0
LINE
  8
1
 62
2
 10
260.3294576655882
 20
347.9683769461
 30
0
 11
260.1256341361765
 21
347.7683769461
 31
0
  0
LINE
  8
1
 62
2
 10
260.3294576655882
 20
350.4683769461
 30
0
 11
260.3294576655882
 21
347.9683769461
 31
0
  0
LINE
  8
1
 62
2
 10
259.8538694302941
 20
350.0683769461
 30
0
 11
260.8050459008824
 21
350.0683769461
 31
0
  0
LINE
  8
1
 62
2
 10
257.1362223714706
 20
348.2683769461
 30
0
 11
258.9026929597059
 21
348.2683769461
 31
0
  0
LINE
  8
1
 62
2
 10
258.0194576655882
 20
350.2683769461
 30
0
 11
258.9026929597059
 21
350.2683769461
 31
0
  0
LINE
  8
1
 62
2
 10
258.0194576655882
 20
350.2683769461
 30
0
 11
258.0194576655882
 21
347.4683769461
 31
0
  0
LINE
  8
1
 62
2
 10
256.728575312647
 20
348.2683769461
 30
0
 11
257.1362223714706
 21
348.2683769461
 31
0
  0
LINE
  8
1
 62
2
 10
257.1362223714706
 20
349.4683769461
 30
0
 11
257.1362223714706
 21
348.2683769461
 31
0
  0
LINE
  8
1
 62
2
 10
258.8347517832353
 20
349.4683769461
 30
0
 11
257.1362223714706
 21
349.4683769461
 31
0
  0
LINE
  8
1
 62
2
 10
257.2041635479412
 20
350.2683769461
 30
0
 11
258.0194576655882
 21
350.2683769461
 31
0
  0
LINE
  8
1
 62
2
 10
257.2041635479412
 20
350.2683769461
 30
0
 11
256.8644576655882
 21
349.6683769461
 31
0
  0
LINE
  8
1
 62
2
 10
257.3400459008823
 20
350.6683769461
 30
0
 11
257.2041635479412
 21
350.2683769461
 31
0
  0
LINE
  8
1
 62
2
 10
255.3697517832353
 20
349.3683769461
 30
0
 11
256.1171047244118
 21
349.3683769461
 31
0
  0
LINE
  8
1
 62
2
 10
254.8262223714706
 20
347.9683769461
 30
0
 11
254.8262223714706
 21
348.9683769461
 31
0
  0
LINE
  8
1
 62
2
 10
255.913281195
 20
347.9683769461
 30
0
 11
254.8262223714706
 21
347.9683769461
 31
0
  0
LINE
  8
1
 62
2
 10
255.913281195
 20
348.9683769461
 30
0
 11
255.913281195
 21
347.9683769461
 31
0
  0
LINE
  8
1
 62
2
 10
254.8262223714706
 20
348.9683769461
 30
0
 11
255.913281195
 21
348.9683769461
 31
0
  0
LINE
  8
1
 62
2
 10
255.3697517832353
 20
350.5683769461
 30
0
 11
255.3697517832353
 21
349.3683769461
 31
0
  0
LINE
  8
1
 62
2
 10
254.5544576655882
 20
349.3683769461
 30
0
 11
255.3697517832353
 21
349.3683769461
 31
0
  0
LINE
  8
1
 62
2
 10
254.758281195
 20
350.0683769461
 30
0
 11
256.0491635479412
 21
350.0683769461
 31
0
  0
LINE
  8
1
 62
2
 10
254.758281195
 20
350.0683769461
 30
0
 11
254.5544576655882
 21
349.6683769461
 31
0
  0
LINE
  8
1
 62
2
 10
254.8262223714706
 20
350.4683769461
 30
0
 11
254.758281195
 21
350.0683769461
 31
0
  0
LINE
  8
1
 62
2
 10
255.0300459008824
 20
347.5683769461
 30
0
 11
256.1850459008824
 21
347.5683769461
 31
0
  0
LINE
  8
1
 62
2
 10
254.4185753126471
 20
348.2683769461
 30
0
 11
255.0300459008824
 21
347.5683769461
 31
0
  0
LINE
  8
1
 62
2
 10
254.4185753126471
 20
348.2683769461
 30
0
 11
254.0788694302941
 21
347.5683769461
 31
0
  0
LINE
  8
1
 62
2
 10
254.4185753126471
 20
349.2683769461
 30
0
 11
254.4185753126471
 21
348.2683769461
 31
0
  0
LINE
  8
1
 62
2
 10
254.0788694302941
 20
349.2683769461
 30
0
 11
254.4185753126471
 21
349.2683769461
 31
0
  0
LINE
  8
1
 62
2
 10
254.1468106067647
 20
350.4683769461
 30
0
 11
254.4865164891176
 21
349.9683769461
 31
0
  0
LINE
  8
1
 62
2
 10
251.7688694302941
 20
349.5683769461
 30
0
 11
252.1085753126471
 21
349.5683769461
 31
0
  0
LINE
  8
1
 62
2
 10
251.7688694302941
 20
347.6683769461
 30
0
 11
252.1765164891176
 21
347.7683769461
 31
0
  0
LINE
  8
1
 62
2
 10
253.2635753126471
 20
349.4683769461
 30
0
 11
253.4673988420588
 21
349.4683769461
 31
0
  0
LINE
  8
1
 62
2
 10
252.7879870773529
 20
348.5683769461
 30
0
 11
252.9918106067647
 21
347.8683769461
 31
0
  0
LINE
  8
1
 62
2
 10
253.2635753126471
 20
347.5683769461
 30
0
 11
252.7200459008824
 21
347.7683769461
 31
0
  0
LINE
  8
1
 62
2
 10
253.2635753126471
 20
349.4683769461
 30
0
 11
253.2635753126471
 21
347.5683769461
 31
0
  0
LINE
  8
1
 62
2
 10
252.3123988420588
 20
348.7683769461
 30
0
 11
253.4673988420588
 21
348.7683769461
 31
0
  0
LINE
  8
1
 62
2
 10
252.7200459008824
 20
349.1683769461
 30
0
 11
252.3123988420588
 21
347.8683769461
 31
0
  0
LINE
  8
1
 62
2
 10
252.7879870773529
 20
350.5683769461
 30
0
 11
252.7200459008824
 21
349.1683769461
 31
0
  0
LINE
  8
1
 62
2
 10
252.2444576655882
 20
349.4683769461
 30
0
 11
253.2635753126471
 21
349.4683769461
 31
0
  0
LINE
  8
1
 62
2
 10
252.3803400185294
 20
349.8683769461
 30
0
 11
253.3315164891176
 21
349.8683769461
 31
0
  0
LINE
  8
1
 62
2
 10
252.3123988420588
 20
350.2683769461
 30
0
 11
253.3994576655882
 21
350.2683769461
 31
0
  0
LINE
  8
1
 62
2
 10
251.3612223714706
 20
347.5683769461
 30
0
 11
251.7688694302941
 21
347.6683769461
 31
0
  0
LINE
  8
1
 62
2
 10
252.1765164891176
 20
348.6683769461
 30
0
 11
252.0406341361765
 21
347.9683769461
 31
0
  0
LINE
  8
1
 62
2
 10
251.4291635479412
 20
348.6683769461
 30
0
 11
251.5650459008824
 21
347.8683769461
 31
0
  0
LINE
  8
1
 62
2
 10
251.7688694302941
 20
349.5683769461
 30
0
 11
251.7688694302941
 21
347.6683769461
 31
0
  0
LINE
  8
1
 62
2
 10
251.3612223714706
 20
348.9683769461
 30
0
 11
252.1765164891176
 21
348.9683769461
 31
0
  0
LINE
  8
1
 62
2
 10
251.4291635479412
 20
349.5683769461
 30
0
 11
251.7688694302941
 21
349.5683769461
 31
0
  0
LINE
  8
1
 62
2
 10
251.8368106067647
 20
350.4683769461
 30
0
 11
252.1765164891176
 21
349.8683769461
 31
0
  0
LINE
  8
1
 62
2
 10
251.3612223714706
 20
349.7683769461
 30
0
 11
251.8368106067647
 21
350.4683769461
 31
0
  0
LINE
  8
1
 62
2
 10
699.801686934353
 20
554.7990772736999
 30
0
 11
700.7528634049412
 21
554.7990772736999
 31
0
  0
LINE
  8
1
 62
2
 10
699.801686934353
 20
553.1990772736999
 30
0
 11
700.7528634049412
 21
553.1990772736999
 31
0
  0
LINE
  8
1
 62
2
 10
698.8505104637648
 20
553.1990772736999
 30
0
 11
698.8505104637648
 21
554.7990772736999
 31
0
  0
LINE
  8
1
 62
2
 10
700.7528634049412
 20
553.1990772736999
 30
0
 11
700.7528634049412
 21
551.8990772737
 31
0
  0
LINE
  8
1
 62
2
 10
698.8505104637648
 20
553.1990772736999
 30
0
 11
699.801686934353
 21
553.1990772736999
 31
0
  0
LINE
  8
1
 62
2
 10
699.801686934353
 20
554.7990772736999
 30
0
 11
699.801686934353
 21
553.1990772736999
 31
0
  0
LINE
  8
1
 62
2
 10
700.7528634049412
 20
551.8990772737
 30
0
 11
700.2093339931765
 21
552.0990772737
 31
0
  0
LINE
  8
1
 62
2
 10
700.7528634049412
 20
554.7990772736999
 30
0
 11
700.7528634049412
 21
553.1990772736999
 31
0
  0
LINE
  8
1
 62
2
 10
698.8505104637648
 20
554.7990772736999
 30
0
 11
699.801686934353
 21
554.7990772736999
 31
0
  0
LINE
  8
1
 62
2
 10
698.8505104637648
 20
551.8990772737
 30
0
 11
698.8505104637648
 21
553.1990772736999
 31
0
  0
LINE
  8
1
 62
2
 10
696.336686934353
 20
554.2990772736999
 30
0
 11
696.336686934353
 21
553.7990772736999
 31
0
  0
LINE
  8
1
 62
2
 10
696.336686934353
 20
553.7990772736999
 30
0
 11
696.336686934353
 21
551.8990772737
 31
0
  0
LINE
  8
1
 62
2
 10
696.8802163461177
 20
553.2990772736999
 30
0
 11
698.1710986990588
 21
553.2990772736999
 31
0
  0
LINE
  8
1
 62
2
 10
697.3558045814118
 20
552.4990772737
 30
0
 11
698.1031575225883
 21
551.7990772736999
 31
0
  0
LINE
  8
1
 62
2
 10
696.8802163461177
 20
553.2990772736999
 30
0
 11
697.3558045814118
 21
552.4990772737
 31
0
  0
LINE
  8
1
 62
2
 10
697.8993339931765
 20
552.9990772737
 30
0
 11
697.3558045814118
 21
552.4990772737
 31
0
  0
LINE
  8
1
 62
2
 10
696.0649222284707
 20
553.2990772736999
 30
0
 11
696.8802163461177
 21
553.2990772736999
 31
0
  0
LINE
  8
1
 62
2
 10
696.336686934353
 20
553.7990772736999
 30
0
 11
697.8993339931765
 21
553.7990772736999
 31
0
  0
LINE
  8
1
 62
2
 10
696.336686934353
 20
554.2990772736999
 30
0
 11
697.8993339931765
 21
554.2990772736999
 31
0
  0
LINE
  8
1
 62
2
 10
696.336686934353
 20
551.8990772737
 30
0
 11
697.151981052
 21
552.0990772737
 31
0
  0
LINE
  8
1
 62
2
 10
696.1328634049412
 20
551.8990772737
 30
0
 11
696.336686934353
 21
551.8990772737
 31
0
  0
LINE
  8
1
 62
2
 10
696.336686934353
 20
554.7990772736999
 30
0
 11
696.336686934353
 21
554.2990772736999
 31
0
  0
LINE
  8
1
 62
2
 10
697.9672751696471
 20
554.7990772736999
 30
0
 11
696.336686934353
 21
554.7990772736999
 31
0
  0
LINE
  8
1
 62
2
 10
694.5959413974
 20
552.1990772736999
 30
0
 11
694.0761913974001
 21
551.8990772737
 31
0
  0
LINE
  8
1
 62
2
 10
695.0001913974
 20
552.6490772737
 30
0
 11
694.5959413974
 21
552.1990772736999
 31
0
  0
LINE
  8
1
 62
2
 10
695.1734413974
 20
552.9490772736999
 30
0
 11
695.0001913974
 21
552.6490772737
 31
0
  0
LINE
  8
1
 62
2
 10
695.2311913974
 20
553.2490772737
 30
0
 11
695.1734413974
 21
552.9490772736999
 31
0
  0
LINE
  8
1
 62
2
 10
695.2889413974
 20
553.6240772737
 30
0
 11
695.2311913974
 21
553.2490772737
 31
0
  0
LINE
  8
1
 62
2
 10
695.2889413974
 20
554.1490772737
 30
0
 11
695.2889413974
 21
553.6240772737
 31
0
  0
LINE
  8
1
 62
2
 10
695.2311913974
 20
554.4490772736999
 30
0
 11
695.2889413974
 21
554.1490772737
 31
0
  0
LINE
  8
1
 62
2
 10
695.1156913974
 20
554.6740772736999
 30
0
 11
695.2311913974
 21
554.4490772736999
 31
0
  0
LINE
  8
1
 62
2
 10
694.9424413974
 20
554.8240772736999
 30
0
 11
695.1156913974
 21
554.6740772736999
 31
0
  0
LINE
  8
1
 62
2
 10
694.7691913974001
 20
554.8990772737
 30
0
 11
694.9424413974
 21
554.8240772736999
 31
0
  0
LINE
  8
1
 62
2
 10
694.4226913974001
 20
554.8990772737
 30
0
 11
694.7691913974001
 21
554.8990772737
 31
0
  0
LINE
  8
1
 62
2
 10
694.2494413974
 20
554.8240772736999
 30
0
 11
694.4226913974001
 21
554.8990772737
 31
0
  0
LINE
  8
1
 62
2
 10
694.0761913974001
 20
554.6740772736999
 30
0
 11
694.2494413974
 21
554.8240772736999
 31
0
  0
LINE
  8
1
 62
2
 10
693.9606913974001
 20
554.4490772736999
 30
0
 11
694.0761913974001
 21
554.6740772736999
 31
0
  0
LINE
  8
1
 62
2
 10
693.9029413974
 20
554.1490772737
 30
0
 11
693.9606913974001
 21
554.4490772736999
 31
0
  0
LINE
  8
1
 62
2
 10
693.9029413974
 20
553.9990772737
 30
0
 11
693.9029413974
 21
554.1490772737
 31
0
  0
LINE
  8
1
 62
2
 10
693.9606913974001
 20
553.6990772736999
 30
0
 11
693.9029413974
 21
553.9990772737
 31
0
  0
LINE
  8
1
 62
2
 10
694.0761913974001
 20
553.4740772737
 30
0
 11
693.9606913974001
 21
553.6990772736999
 31
0
  0
LINE
  8
1
 62
2
 10
694.2494413974
 20
553.3240772736999
 30
0
 11
694.0761913974001
 21
553.4740772737
 31
0
  0
LINE
  8
1
 62
2
 10
694.4226913974001
 20
553.2490772737
 30
0
 11
694.2494413974
 21
553.3240772736999
 31
0
  0
LINE
  8
1
 62
2
 10
695.2311913974
 20
553.2490772737
 30
0
 11
694.4226913974001
 21
553.2490772737
 31
0
  0
LINE
  8
1
 62
2
 10
693.2099413974
 20
554.8990772737
 30
0
 11
693.2099413974
 21
551.8990772737
 31
0
  0
LINE
  8
1
 62
2
 10
692.5169413974001
 20
553.9990772737
 30
0
 11
693.2099413974
 21
554.8990772737
 31
0
  0
LINE
  8
1
 62
2
 10
690.4777673727
 20
554.8990775065
 30
0
 11
689.5537673727
 21
551.8990775065
 31
0
  0
LINE
  8
1
 62
2
 10
690.7665173727
 20
553.8490775065001
 30
0
 11
690.8242673727
 21
553.5490775065
 31
0
  0
LINE
  8
1
 62
2
 10
690.5932673727
 20
554.1490775065
 30
0
 11
690.7665173727
 21
553.8490775065001
 31
0
  0
LINE
  8
1
 62
2
 10
690.3622673727
 20
554.3740775065
 30
0
 11
690.5932673727
 21
554.1490775065
 31
0
  0
LINE
  8
1
 62
2
 10
690.1312673727
 20
554.4490775065
 30
0
 11
690.3622673727
 21
554.3740775065
 31
0
  0
LINE
  8
1
 62
2
 10
689.9002673727
 20
554.4490775065
 30
0
 11
690.1312673727
 21
554.4490775065
 31
0
  0
LINE
  8
1
 62
2
 10
689.6692673727
 20
554.3740775065
 30
0
 11
689.9002673727
 21
554.4490775065
 31
0
  0
LINE
  8
1
 62
2
 10
689.4382673727
 20
554.1490775065
 30
0
 11
689.6692673727
 21
554.3740775065
 31
0
  0
LINE
  8
1
 62
2
 10
689.2650173727001
 20
553.8490775065001
 30
0
 11
689.4382673727
 21
554.1490775065
 31
0
  0
LINE
  8
1
 62
2
 10
689.2072673727
 20
553.5490775065
 30
0
 11
689.2650173727001
 21
553.8490775065001
 31
0
  0
LINE
  8
1
 62
2
 10
689.2072673727
 20
553.2490775065
 30
0
 11
689.2072673727
 21
553.5490775065
 31
0
  0
LINE
  8
1
 62
2
 10
689.2650173727001
 20
552.9490775065
 30
0
 11
689.2072673727
 21
553.2490775065
 31
0
  0
LINE
  8
1
 62
2
 10
689.4382673727
 20
552.6490775065
 30
0
 11
689.2650173727001
 21
552.9490775065
 31
0
  0
LINE
  8
1
 62
2
 10
689.6692673727
 20
552.4240775065
 30
0
 11
689.4382673727
 21
552.6490775065
 31
0
  0
LINE
  8
1
 62
2
 10
689.9002673727
 20
552.3490775065001
 30
0
 11
689.6692673727
 21
552.4240775065
 31
0
  0
LINE
  8
1
 62
2
 10
690.1312673727
 20
552.3490775065001
 30
0
 11
689.9002673727
 21
552.3490775065001
 31
0
  0
LINE
  8
1
 62
2
 10
690.3622673727
 20
552.4240775065
 30
0
 11
690.1312673727
 21
552.3490775065001
 31
0
  0
LINE
  8
1
 62
2
 10
690.5932673727
 20
552.6490775065
 30
0
 11
690.3622673727
 21
552.4240775065
 31
0
  0
LINE
  8
1
 62
2
 10
690.7665173727
 20
552.9490775065
 30
0
 11
690.5932673727
 21
552.6490775065
 31
0
  0
LINE
  8
1
 62
2
 10
690.8242673727
 20
553.2490775065
 30
0
 11
690.7665173727
 21
552.9490775065
 31
0
  0
LINE
  8
1
 62
2
 10
690.8242673727
 20
553.5490775065
 30
0
 11
690.8242673727
 21
553.2490775065
 31
0
  0
LINE
  8
1
 62
2
 10
687.7946007390999
 20
552.9490775065
 30
0
 11
688.9496007390999
 21
552.9490775065
 31
0
  0
LINE
  8
1
 62
2
 10
686.7551007390999
 20
553.0990775065001
 30
0
 11
686.7551007390999
 21
551.8990775065
 31
0
  0
LINE
  8
1
 62
2
 10
685.7156007391
 20
552.4990775065
 30
0
 11
687.1016007390999
 21
552.4990775065
 31
0
  0
LINE
  8
1
 62
2
 10
686.7551007390999
 20
554.8990775065
 30
0
 11
685.7156007391
 21
552.4990775065
 31
0
  0
LINE
  8
1
 62
2
 10
392.6338242554992
 20
222.0308514917386
 30
0
 11
392.9671575888325
 21
222.4058514917386
 31
0
  0
LINE
  8
1
 62
2
 10
392.6338242554992
 20
224.2808514917386
 30
0
 11
390.6338242554992
 21
224.2808514917386
 31
0
  0
LINE
  8
1
 62
2
 10
397.6338242554992
 20
215.6558514917386
 30
0
 11
400.6338242554992
 21
215.6558514917386
 31
0
  0
LINE
  8
1
 62
2
 10
394.3004909221658
 20
215.6558514917386
 30
0
 11
397.6338242554992
 21
215.6558514917386
 31
0
  0
LINE
  8
1
 62
2
 10
397.6338242554992
 20
226.5308514917386
 30
0
 11
397.6338242554992
 21
215.6558514917386
 31
0
  0
LINE
  8
1
 62
2
 10
395.3004909221658
 20
222.0308514917386
 30
0
 11
399.9671575888325
 21
222.0308514917386
 31
0
  0
LINE
  8
1
 62
2
 10
393.3004909221658
 20
221.6558514917386
 30
0
 11
394.9671575888325
 21
219.7808514917386
 31
0
  0
LINE
  8
1
 62
2
 10
392.6338242554992
 20
224.2808514917386
 30
0
 11
392.6338242554992
 21
226.5308514917386
 31
0
  0
LINE
  8
1
 62
2
 10
394.3004909221658
 20
224.2808514917386
 30
0
 11
392.6338242554992
 21
224.2808514917386
 31
0
  0
LINE
  8
1
 62
2
 10
392.9671575888325
 20
222.4058514917386
 30
0
 11
394.3004909221658
 21
224.2808514917386
 31
0
  0
LINE
  8
1
 62
2
 10
391.3004909221658
 20
220.5308514917386
 30
0
 11
392.6338242554992
 21
222.0308514917386
 31
0
  0
LINE
  8
1
 62
2
 10
389.9671575888325
 20
219.4058514917386
 30
0
 11
391.3004909221658
 21
220.5308514917386
 31
0
  0
LINE
  8
1
 62
2
 10
392.6338242554992
 20
215.2808514917386
 30
0
 11
392.6338242554992
 21
222.0308514917386
 31
0
  0
LINE
  8
1
 62
2
 10
383.3004909221658
 20
219.4058514917386
 30
0
 11
379.9671575888325
 21
215.2808514917386
 31
0
  0
LINE
  8
1
 62
2
 10
386.3004909221658
 20
216.0308514917386
 30
0
 11
384.9671575888325
 21
217.5308514917386
 31
0
  0
LINE
  8
1
 62
2
 10
387.3004909221658
 20
214.9058514917386
 30
0
 11
386.3004909221658
 21
216.0308514917386
 31
0
  0
LINE
  8
1
 62
2
 10
378.9671575888325
 20
215.2808514917386
 30
0
 11
386.3004909221658
 21
216.0308514917386
 31
0
  0
LINE
  8
1
 62
2
 10
379.6338242554992
 20
219.7808514917386
 30
0
 11
387.3004909221658
 21
219.7808514917386
 31
0
  0
LINE
  8
1
 62
2
 10
380.9671575888325
 20
221.6558514917386
 30
0
 11
385.6338242554992
 21
221.6558514917386
 31
0
  0
LINE
  8
1
 62
2
 10
383.3004909221658
 20
226.5308514917386
 30
0
 11
388.6338242554992
 21
220.9058514917386
 31
0
  0
LINE
  8
1
 62
2
 10
383.3004909221658
 20
226.5308514917386
 30
0
 11
377.9671575888325
 21
220.9058514917386
 31
0
  0
LINE
  8
1
 62
2
 10
368.9671575888325
 20
221.2808514917386
 30
0
 11
366.6338242554992
 21
221.2808514917386
 31
0
  0
LINE
  8
1
 62
2
 10
368.9671575888325
 20
217.1558514917386
 30
0
 11
371.3004909221658
 21
217.9058514917386
 31
0
  0
LINE
  8
1
 62
2
 10
375.6338242554992
 20
215.2808514917386
 30
0
 11
376.6338242554992
 21
216.4058514917386
 31
0
  0
LINE
  8
1
 62
2
 10
374.3004909221658
 20
216.7808514917386
 30
0
 11
375.6338242554992
 21
215.2808514917386
 31
0
  0
LINE
  8
1
 62
2
 10
372.9671575888325
 20
219.4058514917386
 30
0
 11
374.3004909221658
 21
216.7808514917386
 31
0
  0
LINE
  8
1
 62
2
 10
372.3004909221658
 20
222.4058514917386
 30
0
 11
372.9671575888325
 21
219.4058514917386
 31
0
  0
LINE
  8
1
 62
2
 10
371.9671575888325
 20
226.9058514917386
 30
0
 11
372.3004909221658
 21
222.4058514917386
 31
0
  0
LINE
  8
1
 62
2
 10
373.9671575888325
 20
225.4058514917386
 30
0
 11
372.9671575888325
 21
226.5308514917386
 31
0
  0
LINE
  8
1
 62
2
 10
365.9671575888325
 20
224.2808514917386
 30
0
 11
375.6338242554992
 21
224.2808514917386
 31
0
  0
LINE
  8
1
 62
2
 10
368.9671575888325
 20
221.2808514917386
 30
0
 11
368.9671575888325
 21
217.1558514917386
 31
0
  0
LINE
  8
1
 62
2
 10
371.3004909221658
 20
221.2808514917386
 30
0
 11
368.9671575888325
 21
221.2808514917386
 31
0
  0
LINE
  8
1
 62
2
 10
366.6338242554992
 20
216.4058514917386
 30
0
 11
368.9671575888325
 21
217.1558514917386
 31
0
  0
LINE
  8
1
 62
2
 10
356.3004909221658
 20
223.5308514917386
 30
0
 11
356.3004909221658
 21
226.9058514917386
 31
0
  0
LINE
  8
1
 62
2
 10
356.3004909221658
 20
223.5308514917386
 30
0
 11
354.6338242554992
 21
223.5308514917386
 31
0
  0
LINE
  8
1
 62
2
 10
362.9671575888325
 20
217.9058514917386
 30
0
 11
364.3004909221658
 21
215.2808514917386
 31
0
  0
LINE
  8
1
 62
2
 10
361.3004909221658
 20
221.2808514917386
 30
0
 11
362.9671575888325
 21
217.9058514917386
 31
0
  0
LINE
  8
1
 62
2
 10
360.3004909221658
 20
218.6558514917386
 30
0
 11
361.3004909221658
 21
221.2808514917386
 31
0
  0
LINE
  8
1
 62
2
 10
358.9671575888325
 20
216.7808514917386
 30
0
 11
360.3004909221658
 21
218.6558514917386
 31
0
  0
LINE
  8
1
 62
2
 10
357.9671575888325
 20
215.2808514917386
 30
0
 11
358.9671575888325
 21
216.7808514917386
 31
0
  0
LINE
  8
1
 62
2
 10
361.3004909221658
 20
226.9058514917386
 30
0
 11
361.3004909221658
 21
214.9058514917386
 31
0
  0
LINE
  8
1
 62
2
 10
364.3004909221658
 20
221.2808514917386
 30
0
 11
358.6338242554992
 21
221.2808514917386
 31
0
  0
LINE
  8
1
 62
2
 10
359.6338242554992
 20
223.9058514917386
 30
0
 11
363.9671575888325
 21
223.9058514917386
 31
0
  0
LINE
  8
1
 62
2
 10
359.6338242554992
 20
223.9058514917386
 30
0
 11
359.9671575888325
 21
225.7808514917386
 31
0
  0
LINE
  8
1
 62
2
 10
358.6338242554992
 20
222.0308514917386
 30
0
 11
359.6338242554992
 21
223.9058514917386
 31
0
  0
LINE
  8
1
 62
2
 10
356.3004909221658
 20
223.5308514917386
 30
0
 11
357.9671575888325
 21
220.5308514917386
 31
0
  0
LINE
  8
1
 62
2
 10
354.3004909221658
 20
218.2808514917386
 30
0
 11
356.3004909221658
 21
223.5308514917386
 31
0
  0
LINE
  8
1
 62
2
 10
357.9671575888325
 20
223.5308514917386
 30
0
 11
356.3004909221658
 21
223.5308514917386
 31
0
  0
LINE
  8
1
 62
2
 10
356.3004909221658
 20
215.2808514917386
 30
0
 11
356.3004909221658
 21
223.5308514917386
 31
0
  0
LINE
  8
1
 62
2
 10
342.9671575888325
 20
222.4058514917386
 30
0
 11
342.9671575888325
 21
224.2808514917386
 31
0
  0
LINE
  8
1
 62
2
 10
346.3004909221658
 20
224.2808514917386
 30
0
 11
346.3004909221658
 21
222.4058514917386
 31
0
  0
LINE
  8
1
 62
2
 10
342.9671575888325
 20
224.2808514917386
 30
0
 11
342.9671575888325
 21
226.1558514917386
 31
0
  0
LINE
  8
1
 62
2
 10
351.6338242554992
 20
222.4058514917386
 30
0
 11
351.6338242554992
 21
224.2808514917386
 31
0
  0
LINE
  8
1
 62
2
 10
348.3004909221658
 20
224.2808514917386
 30
0
 11
348.3004909221658
 21
222.4058514917386
 31
0
  0
LINE
  8
1
 62
2
 10
351.6338242554992
 20
224.2808514917386
 30
0
 11
351.6338242554992
 21
226.1558514917386
 31
0
  0
LINE
  8
1
 62
2
 10
342.9671575888325
 20
215.6558514917386
 30
0
 11
342.9671575888325
 21
215.2808514917386
 31
0
  0
LINE
  8
1
 62
2
 10
348.3004909221658
 20
224.2808514917386
 30
0
 11
351.6338242554992
 21
224.2808514917386
 31
0
  0
LINE
  8
1
 62
2
 10
348.3004909221658
 20
222.4058514917386
 30
0
 11
351.6338242554992
 21
222.4058514917386
 31
0
  0
LINE
  8
1
 62
2
 10
348.3004909221658
 20
226.1558514917386
 30
0
 11
348.3004909221658
 21
224.2808514917386
 31
0
  0
LINE
  8
1
 62
2
 10
351.6338242554992
 20
226.1558514917386
 30
0
 11
348.3004909221658
 21
226.1558514917386
 31
0
  0
LINE
  8
1
 62
2
 10
351.6338242554992
 20
215.6558514917386
 30
0
 11
351.6338242554992
 21
222.4058514917386
 31
0
  0
LINE
  8
1
 62
2
 10
351.3004909221658
 20
215.2808514917386
 30
0
 11
351.6338242554992
 21
215.6558514917386
 31
0
  0
LINE
  8
1
 62
2
 10
350.3004909221658
 20
215.2808514917386
 30
0
 11
351.3004909221658
 21
215.2808514917386
 31
0
  0
LINE
  8
1
 62
2
 10
346.3004909221658
 20
224.2808514917386
 30
0
 11
342.9671575888325
 21
224.2808514917386
 31
0
  0
LINE
  8
1
 62
2
 10
346.3004909221658
 20
222.4058514917386
 30
0
 11
342.9671575888325
 21
222.4058514917386
 31
0
  0
LINE
  8
1
 62
2
 10
346.3004909221658
 20
226.1558514917386
 30
0
 11
346.3004909221658
 21
224.2808514917386
 31
0
  0
LINE
  8
1
 62
2
 10
342.9671575888325
 20
226.1558514917386
 30
0
 11
346.3004909221658
 21
226.1558514917386
 31
0
  0
LINE
  8
1
 62
2
 10
342.9671575888325
 20
215.6558514917386
 30
0
 11
342.9671575888325
 21
222.4058514917386
 31
0
  0
LINE
  8
1
 62
2
 10
335.3004909221658
 20
215.2808514917386
 30
0
 11
339.3004909221658
 21
215.2808514917386
 31
0
  0
LINE
  8
1
 62
2
 10
335.3004909221658
 20
222.4058514917386
 30
0
 11
337.6338242554992
 21
222.4058514917386
 31
0
  0
LINE
  8
1
 62
2
 10
339.3004909221658
 20
222.0308514917386
 30
0
 11
340.6338242554992
 21
220.9058514917386
 31
0
  0
LINE
  8
1
 62
2
 10
336.9671575888325
 20
224.6558514917386
 30
0
 11
339.3004909221658
 21
222.0308514917386
 31
0
  0
LINE
  8
1
 62
2
 10
335.3004909221658
 20
226.9058514917386
 30
0
 11
336.9671575888325
 21
224.6558514917386
 31
0
  0
LINE
  8
1
 62
2
 10
333.6338242554992
 20
224.6558514917386
 30
0
 11
335.3004909221658
 21
226.9058514917386
 31
0
  0
LINE
  8
1
 62
2
 10
331.3004909221658
 20
222.0308514917386
 30
0
 11
333.6338242554992
 21
224.6558514917386
 31
0
  0
LINE
  8
1
 62
2
 10
329.9671575888325
 20
220.9058514917386
 30
0
 11
331.3004909221658
 21
222.0308514917386
 31
0
  0
LINE
  8
1
 62
2
 10
336.9671575888325
 20
216.7808514917386
 30
0
 11
337.6338242554992
 21
218.6558514917386
 31
0
  0
LINE
  8
1
 62
2
 10
332.9671575888325
 20
218.6558514917386
 30
0
 11
333.6338242554992
 21
216.7808514917386
 31
0
  0
LINE
  8
1
 62
2
 10
338.6338242554992
 20
220.1558514917386
 30
0
 11
331.9671575888325
 21
220.1558514917386
 31
0
  0
LINE
  8
1
 62
2
 10
332.9671575888325
 20
222.4058514917386
 30
0
 11
335.3004909221658
 21
222.4058514917386
 31
0
  0
LINE
  8
1
 62
2
 10
335.3004909221658
 20
215.2808514917386
 30
0
 11
335.3004909221658
 21
222.4058514917386
 31
0
  0
LINE
  8
1
 62
2
 10
330.9671575888325
 20
215.2808514917386
 30
0
 11
335.3004909221658
 21
215.2808514917386
 31
0
  0
LINE
  8
1
 62
2
 10
326.3004909221658
 20
218.6558514917386
 30
0
 11
327.9671575888325
 21
220.9058514917386
 31
0
  0
LINE
  8
1
 62
2
 10
323.6338242554992
 20
217.1558514917386
 30
0
 11
326.3004909221658
 21
218.6558514917386
 31
0
  0
LINE
  8
1
 62
2
 10
323.6338242554992
 20
223.9058514917386
 30
0
 11
323.6338242554992
 21
217.1558514917386
 31
0
  0
LINE
  8
1
 62
2
 10
320.9671575888325
 20
220.9058514917386
 30
0
 11
321.3004909221658
 21
223.9058514917386
 31
0
  0
LINE
  8
1
 62
2
 10
320.3004909221658
 20
218.6558514917386
 30
0
 11
320.9671575888325
 21
220.9058514917386
 31
0
  0
LINE
  8
1
 62
2
 10
319.3004909221658
 20
216.7808514917386
 30
0
 11
320.3004909221658
 21
218.6558514917386
 31
0
  0
LINE
  8
1
 62
2
 10
307.9671575888325
 20
219.7808514917386
 30
0
 11
307.9671575888325
 21
217.5308514917386
 31
0
  0
LINE
  8
1
 62
2
 10
311.6338242554992
 20
216.0308514917386
 30
0
 11
313.6338242554992
 21
216.4058514917386
 31
0
  0
LINE
  8
1
 62
2
 10
308.3004909221658
 20
216.4058514917386
 30
0
 11
311.6338242554992
 21
216.0308514917386
 31
0
  0
LINE
  8
1
 62
2
 10
307.9671575888325
 20
217.5308514917386
 30
0
 11
308.3004909221658
 21
216.4058514917386
 31
0
  0
LINE
  8
1
 62
2
 10
307.9671575888325
 20
223.9058514917386
 30
0
 11
307.9671575888325
 21
219.7808514917386
 31
0
  0
LINE
  8
1
 62
2
 10
314.3004909221658
 20
224.6558514917386
 30
0
 11
315.3004909221658
 21
223.5308514917386
 31
0
  0
LINE
  8
1
 62
2
 10
314.6338242554992
 20
222.7808514917386
 30
0
 11
313.6338242554992
 21
223.9058514917386
 31
0
  0
LINE
  8
1
 62
2
 10
310.9671575888325
 20
220.9058514917386
 30
0
 11
312.9671575888325
 21
222.0308514917386
 31
0
  0
LINE
  8
1
 62
2
 10
307.9671575888325
 20
219.7808514917386
 30
0
 11
310.9671575888325
 21
220.9058514917386
 31
0
  0
LINE
  8
1
 62
2
 10
300.6338242554992
 20
218.6558514917386
 30
0
 11
302.6338242554992
 21
216.4058514917386
 31
0
  0
LINE
  8
1
 62
2
 10
298.9671575888325
 20
220.1558514917386
 30
0
 11
300.6338242554992
 21
218.6558514917386
 31
0
  0
LINE
  8
1
 62
2
 10
302.9671575888325
 20
225.4058514917386
 30
0
 11
303.9671575888325
 21
224.2808514917386
 31
0
  0
LINE
  8
1
 62
2
 10
302.3004909221658
 20
224.6558514917386
 30
0
 11
303.3004909221658
 21
223.5308514917386
 31
0
  0
LINE
  8
1
 62
2
 10
300.9671575888325
 20
223.9058514917386
 30
0
 11
296.6338242554992
 21
223.9058514917386
 31
0
  0
LINE
  8
1
 62
2
 10
299.9671575888325
 20
221.6558514917386
 30
0
 11
300.9671575888325
 21
223.9058514917386
 31
0
  0
LINE
  8
1
 62
2
 10
297.6338242554992
 20
218.2808514917386
 30
0
 11
299.9671575888325
 21
221.6558514917386
 31
0
  0
LINE
  8
1
 62
2
 10
295.3004909221658
 20
216.4058514917386
 30
0
 11
297.6338242554992
 21
218.2808514917386
 31
0
  0
LINE
  8
1
 62
2
 10
291.3004909221658
 20
223.5308514917386
 30
0
 11
288.3004909221658
 21
220.1558514917386
 31
0
  0
LINE
  8
1
 62
2
 10
283.6338242554992
 20
223.5308514917386
 30
0
 11
291.3004909221658
 21
223.5308514917386
 31
0
  0
LINE
  8
1
 62
2
 10
287.3004909221658
 20
220.1558514917386
 30
0
 11
287.6338242554992
 21
222.0308514917386
 31
0
  0
LINE
  8
1
 62
2
 10
286.6338242554992
 20
217.9058514917386
 30
0
 11
287.3004909221658
 21
220.1558514917386
 31
0
  0
LINE
  8
1
 62
2
 10
285.3004909221658
 20
215.6558514917386
 30
0
 11
286.6338242554992
 21
217.9058514917386
 31
0
  0
LINE
  8
1
 62
2
 10
427.9338242554991
 20
244.9058514917386
 30
0
 11
428.6004909221658
 21
244.5308514917386
 31
0
  0
LINE
  8
1
 62
2
 10
421.9338242554991
 20
244.9058514917386
 30
0
 11
427.9338242554991
 21
244.9058514917386
 31
0
  0
LINE
  8
1
 62
2
 10
421.2671575888325
 20
245.2808514917386
 30
0
 11
421.9338242554991
 21
244.9058514917386
 31
0
  0
LINE
  8
1
 62
2
 10
412.6004909221658
 20
246.0308514917386
 30
0
 11
415.2671575888325
 21
243.0308514917386
 31
0
  0
LINE
  8
1
 62
2
 10
411.6004909221658
 20
247.5308514917386
 30
0
 11
409.9338242554991
 21
245.6558514917386
 31
0
  0
LINE
  8
1
 62
2
 10
413.2671575888325
 20
249.7808514917386
 30
0
 11
411.6004909221658
 21
247.5308514917386
 31
0
  0
LINE
  8
1
 62
2
 10
416.6004909221658
 20
248.2808514917386
 30
0
 11
412.2671575888325
 21
248.2808514917386
 31
0
  0
LINE
  8
1
 62
2
 10
415.2671575888325
 20
245.6558514917386
 30
0
 11
416.6004909221658
 21
248.2808514917386
 31
0
  0
LINE
  8
1
 62
2
 10
412.6004909221658
 20
242.6558514917386
 30
0
 11
415.2671575888325
 21
245.6558514917386
 31
0
  0
LINE
  8
1
 62
2
 10
409.6004909221658
 20
240.4058514917386
 30
0
 11
412.6004909221658
 21
242.6558514917386
 31
0
  0
LINE
  8
1
 62
2
 10
403.9338242554991
 20
244.9058514917386
 30
0
 11
404.6004909221658
 21
244.5308514917386
 31
0
  0
LINE
  8
1
 62
2
 10
397.9338242554991
 20
244.9058514917386
 30
0
 11
403.9338242554991
 21
244.9058514917386
 31
0
  0
LINE
  8
1
 62
2
 10
397.2671575888325
 20
245.2808514917386
 30
0
 11
397.9338242554991
 21
244.9058514917386
 31
0
  0
LINE
  8
1
 62
2
 10
389.9338242554991
 20
244.9058514917386
 30
0
 11
391.6004909221658
 21
242.2808514917386
 31
0
  0
LINE
  8
1
 62
2
 10
388.2671575888325
 20
246.7808514917386
 30
0
 11
389.9338242554991
 21
244.9058514917386
 31
0
  0
LINE
  8
1
 62
2
 10
390.6004909221658
 20
245.6558514917386
 30
0
 11
392.2671575888325
 21
249.0308514917386
 31
0
  0
LINE
  8
1
 62
2
 10
387.9338242554991
 20
242.2808514917386
 30
0
 11
390.6004909221658
 21
245.6558514917386
 31
0
  0
LINE
  8
1
 62
2
 10
385.6004909221658
 20
240.4058514917386
 30
0
 11
387.9338242554991
 21
242.2808514917386
 31
0
  0
LINE
  8
1
 62
2
 10
377.9338242554991
 20
248.2808514917386
 30
0
 11
381.6004909221658
 21
248.2808514917386
 31
0
  0
LINE
  8
1
 62
2
 10
376.9338242554991
 20
246.4058514917386
 30
0
 11
376.2671575888325
 21
246.4058514917386
 31
0
  0
LINE
  8
1
 62
2
 10
376.2671575888325
 20
244.9058514917386
 30
0
 11
376.2671575888325
 21
243.0308514917386
 31
0
  0
LINE
  8
1
 62
2
 10
380.2671575888325
 20
243.0308514917386
 30
0
 11
380.2671575888325
 21
246.4058514917386
 31
0
  0
LINE
  8
1
 62
2
 10
376.2671575888325
 20
243.0308514917386
 30
0
 11
376.2671575888325
 21
241.5308514917386
 31
0
  0
LINE
  8
1
 62
2
 10
375.6004909221658
 20
240.0308514917386
 30
0
 11
381.9338242554991
 21
240.0308514917386
 31
0
  0
LINE
  8
1
 62
2
 10
374.2671575888325
 20
240.4058514917386
 30
0
 11
375.6004909221658
 21
240.0308514917386
 31
0
  0
LINE
  8
1
 62
2
 10
373.2671575888325
 20
241.1558514917386
 30
0
 11
374.2671575888325
 21
240.4058514917386
 31
0
  0
LINE
  8
1
 62
2
 10
380.2671575888325
 20
243.0308514917386
 30
0
 11
376.2671575888325
 21
243.0308514917386
 31
0
  0
LINE
  8
1
 62
2
 10
376.2671575888325
 20
244.9058514917386
 30
0
 11
380.2671575888325
 21
244.9058514917386
 31
0
  0
LINE
  8
1
 62
2
 10
380.2671575888325
 20
246.4058514917386
 30
0
 11
376.9338242554991
 21
246.4058514917386
 31
0
  0
LINE
  8
1
 62
2
 10
380.2671575888325
 20
241.5308514917386
 30
0
 11
380.2671575888325
 21
243.0308514917386
 31
0
  0
LINE
  8
1
 62
2
 10
376.2671575888325
 20
241.5308514917386
 30
0
 11
380.2671575888325
 21
241.5308514917386
 31
0
  0
LINE
  8
1
 62
2
 10
376.2671575888325
 20
246.4058514917386
 30
0
 11
376.2671575888325
 21
244.9058514917386
 31
0
  0
LINE
  8
1
 62
2
 10
377.9338242554991
 20
248.2808514917386
 30
0
 11
376.9338242554991
 21
246.4058514917386
 31
0
  0
LINE
  8
1
 62
2
 10
374.6004909221658
 20
248.2808514917386
 30
0
 11
377.9338242554991
 21
248.2808514917386
 31
0
  0
LINE
  8
1
 62
2
 10
379.9338242554991
 20
250.5308514917386
 30
0
 11
378.6004909221658
 21
248.2808514917386
 31
0
  0
LINE
  8
1
 62
2
 10
376.2671575888325
 20
250.5308514917386
 30
0
 11
377.2671575888325
 21
249.0308514917386
 31
0
  0
LINE
  8
1
 62
2
 10
372.6004909221658
 20
250.5308514917386
 30
0
 11
373.9338242554991
 21
249.0308514917386
 31
0
  0
LINE
  8
1
 62
2
 10
373.2671575888325
 20
245.6558514917386
 30
0
 11
371.9338242554991
 21
245.6558514917386
 31
0
  0
LINE
  8
1
 62
2
 10
373.2671575888325
 20
241.1558514917386
 30
0
 11
373.2671575888325
 21
245.6558514917386
 31
0
  0
LINE
  8
1
 62
2
 10
372.2671575888325
 20
240.0308514917386
 30
0
 11
373.2671575888325
 21
241.1558514917386
 31
0
  0
LINE
  8
1
 62
2
 10
368.6004909221658
 20
242.6558514917386
 30
0
 11
370.2671575888325
 21
240.7808514917386
 31
0
  0
LINE
  8
1
 62
2
 10
367.2671575888325
 20
244.9058514917386
 30
0
 11
368.6004909221658
 21
242.6558514917386
 31
0
  0
LINE
  8
1
 62
2
 10
366.2671575888325
 20
247.5308514917386
 30
0
 11
367.2671575888325
 21
244.9058514917386
 31
0
  0
LINE
  8
1
 62
2
 10
369.2671575888325
 20
247.9058514917386
 30
0
 11
366.9338242554991
 21
246.0308514917386
 31
0
  0
LINE
  8
1
 62
2
 10
365.2671575888325
 20
238.9058514917386
 30
0
 11
364.2671575888325
 21
239.2808514917386
 31
0
  0
LINE
  8
1
 62
2
 10
365.2671575888325
 20
250.5308514917386
 30
0
 11
365.2671575888325
 21
238.9058514917386
 31
0
  0
LINE
  8
1
 62
2
 10
363.6004909221658
 20
246.7808514917386
 30
0
 11
360.2671575888325
 21
246.7808514917386
 31
0
  0
LINE
  8
1
 62
2
 10
362.9338242554991
 20
244.5308514917386
 30
0
 11
363.6004909221658
 21
246.7808514917386
 31
0
  0
LINE
  8
1
 62
2
 10
361.6004909221658
 20
242.2808514917386
 30
0
 11
362.9338242554991
 21
244.5308514917386
 31
0
  0
LINE
  8
1
 62
2
 10
360.2671575888325
 20
240.7808514917386
 30
0
 11
361.6004909221658
 21
242.2808514917386
 31
0
  0
LINE
  8
1
 62
2
 10
351.8004909221658
 20
247.3058514917386
 30
0
 11
354.2004909221658
 21
247.3058514917386
 31
0
  0
LINE
  8
1
 62
2
 10
351.8004909221658
 20
247.3058514917386
 30
0
 11
351.8004909221658
 21
238.9058514917386
 31
0
  0
LINE
  8
1
 62
2
 10
356.0004909221658
 20
245.8058514917386
 30
0
 11
356.0004909221658
 21
238.9058514917386
 31
0
  0
LINE
  8
1
 62
2
 10
355.7004909221658
 20
246.4058514917386
 30
0
 11
356.0004909221658
 21
245.8058514917386
 31
0
  0
LINE
  8
1
 62
2
 10
355.1004909221658
 20
247.0058514917386
 30
0
 11
355.7004909221658
 21
246.4058514917386
 31
0
  0
LINE
  8
1
 62
2
 10
354.2004909221658
 20
247.3058514917386
 30
0
 11
355.1004909221658
 21
247.0058514917386
 31
0
  0
LINE
  8
1
 62
2
 10
347.6004909221658
 20
247.3058514917386
 30
0
 11
351.8004909221658
 21
247.3058514917386
 31
0
  0
LINE
  8
1
 62
2
 10
347.6004909221658
 20
238.9058514917386
 30
0
 11
347.6004909221658
 21
247.3058514917386
 31
0
  0
LINE
  8
1
 62
2
 10
339.8004909221658
 20
247.3058514917386
 30
0
 11
342.2004909221658
 21
247.3058514917386
 31
0
  0
LINE
  8
1
 62
2
 10
339.8004909221658
 20
247.3058514917386
 30
0
 11
339.8004909221658
 21
238.9058514917386
 31
0
  0
LINE
  8
1
 62
2
 10
344.0004909221658
 20
245.8058514917386
 30
0
 11
344.0004909221658
 21
238.9058514917386
 31
0
  0
LINE
  8
1
 62
2
 10
343.7004909221658
 20
246.4058514917386
 30
0
 11
344.0004909221658
 21
245.8058514917386
 31
0
  0
LINE
  8
1
 62
2
 10
343.1004909221658
 20
247.0058514917386
 30
0
 11
343.7004909221658
 21
246.4058514917386
 31
0
  0
LINE
  8
1
 62
2
 10
342.2004909221658
 20
247.3058514917386
 30
0
 11
343.1004909221658
 21
247.0058514917386
 31
0
  0
LINE
  8
1
 62
2
 10
335.6004909221658
 20
247.3058514917386
 30
0
 11
339.8004909221658
 21
247.3058514917386
 31
0
  0
LINE
  8
1
 62
2
 10
335.6004909221658
 20
238.9058514917386
 30
0
 11
335.6004909221658
 21
247.3058514917386
 31
0
  0
LINE
  8
1
 62
2
 10
329.3004909221658
 20
238.9058514917386
 30
0
 11
324.8004909221658
 21
238.9058514917386
 31
0
  0
LINE
  8
1
 62
2
 10
330.2004909221658
 20
239.2058514917386
 30
0
 11
329.3004909221658
 21
238.9058514917386
 31
0
  0
LINE
  8
1
 62
2
 10
331.1004909221658
 20
239.8058514917386
 30
0
 11
330.2004909221658
 21
239.2058514917386
 31
0
  0
LINE
  8
1
 62
2
 10
331.7004909221658
 20
240.7058514917386
 30
0
 11
331.1004909221658
 21
239.8058514917386
 31
0
  0
LINE
  8
1
 62
2
 10
332.0004909221658
 20
241.9058514917386
 30
0
 11
331.7004909221658
 21
240.7058514917386
 31
0
  0
LINE
  8
1
 62
2
 10
332.0004909221658
 20
243.7058514917386
 30
0
 11
332.0004909221658
 21
241.9058514917386
 31
0
  0
LINE
  8
1
 62
2
 10
331.7004909221658
 20
244.9058514917386
 30
0
 11
332.0004909221658
 21
243.7058514917386
 31
0
  0
LINE
  8
1
 62
2
 10
330.8004909221658
 20
245.8058514917386
 30
0
 11
331.7004909221658
 21
244.9058514917386
 31
0
  0
LINE
  8
1
 62
2
 10
329.3004909221658
 20
246.1058514917386
 30
0
 11
330.8004909221658
 21
245.8058514917386
 31
0
  0
LINE
  8
1
 62
2
 10
324.8004909221658
 20
246.1058514917386
 30
0
 11
329.3004909221658
 21
246.1058514917386
 31
0
  0
LINE
  8
1
 62
2
 10
324.8004909221658
 20
250.9058514917386
 30
0
 11
324.8004909221658
 21
246.1058514917386
 31
0
  0
LINE
  8
1
 62
2
 10
331.4004909221658
 20
250.9058514917386
 30
0
 11
324.8004909221658
 21
250.9058514917386
 31
0
  0
LINE
  8
1
 62
2
 10
316.1004909221658
 20
248.2058514917386
 30
0
 11
319.4004909221658
 21
250.9058514917386
 31
0
  0
LINE
  8
1
 62
2
 10
314.9004909221658
 20
246.7058514917386
 30
0
 11
316.1004909221658
 21
248.2058514917386
 31
0
  0
LINE
  8
1
 62
2
 10
314.3004909221658
 20
245.5058514917386
 30
0
 11
314.9004909221658
 21
246.7058514917386
 31
0
  0
LINE
  8
1
 62
2
 10
314.0004909221658
 20
243.1058514917386
 30
0
 11
314.3004909221658
 21
245.5058514917386
 31
0
  0
LINE
  8
1
 62
2
 10
314.0004909221658
 20
241.9058514917386
 30
0
 11
314.0004909221658
 21
243.1058514917386
 31
0
  0
LINE
  8
1
 62
2
 10
314.3004909221658
 20
240.7058514917386
 30
0
 11
314.0004909221658
 21
241.9058514917386
 31
0
  0
LINE
  8
1
 62
2
 10
314.9004909221658
 20
239.8058514917386
 30
0
 11
314.3004909221658
 21
240.7058514917386
 31
0
  0
LINE
  8
1
 62
2
 10
315.8004909221658
 20
239.2058514917386
 30
0
 11
314.9004909221658
 21
239.8058514917386
 31
0
  0
LINE
  8
1
 62
2
 10
316.7004909221658
 20
238.9058514917386
 30
0
 11
315.8004909221658
 21
239.2058514917386
 31
0
  0
LINE
  8
1
 62
2
 10
318.5004909221658
 20
238.9058514917386
 30
0
 11
316.7004909221658
 21
238.9058514917386
 31
0
  0
LINE
  8
1
 62
2
 10
319.4004909221658
 20
239.2058514917386
 30
0
 11
318.5004909221658
 21
238.9058514917386
 31
0
  0
LINE
  8
1
 62
2
 10
320.3004909221658
 20
239.8058514917386
 30
0
 11
319.4004909221658
 21
239.2058514917386
 31
0
  0
LINE
  8
1
 62
2
 10
320.9004909221658
 20
240.7058514917386
 30
0
 11
320.3004909221658
 21
239.8058514917386
 31
0
  0
LINE
  8
1
 62
2
 10
321.2004909221658
 20
241.9058514917386
 30
0
 11
320.9004909221658
 21
240.7058514917386
 31
0
  0
LINE
  8
1
 62
2
 10
321.2004909221658
 20
243.1058514917386
 30
0
 11
321.2004909221658
 21
241.9058514917386
 31
0
  0
LINE
  8
1
 62
2
 10
320.9004909221658
 20
244.3058514917386
 30
0
 11
321.2004909221658
 21
243.1058514917386
 31
0
  0
LINE
  8
1
 62
2
 10
320.3004909221658
 20
245.2058514917386
 30
0
 11
320.9004909221658
 21
244.3058514917386
 31
0
  0
LINE
  8
1
 62
2
 10
319.4004909221658
 20
245.8058514917386
 30
0
 11
320.3004909221658
 21
245.2058514917386
 31
0
  0
LINE
  8
1
 62
2
 10
318.5004909221658
 20
246.1058514917386
 30
0
 11
319.4004909221658
 21
245.8058514917386
 31
0
  0
LINE
  8
1
 62
2
 10
316.7004909221658
 20
246.1058514917386
 30
0
 11
318.5004909221658
 21
246.1058514917386
 31
0
  0
LINE
  8
1
 62
2
 10
315.8004909221658
 20
245.8058514917386
 30
0
 11
316.7004909221658
 21
246.1058514917386
 31
0
  0
LINE
  8
1
 62
2
 10
314.9004909221658
 20
245.2058514917386
 30
0
 11
315.8004909221658
 21
245.8058514917386
 31
0
  0
LINE
  8
1
 62
2
 10
314.3004909221658
 20
244.3058514917386
 30
0
 11
314.9004909221658
 21
245.2058514917386
 31
0
  0
LINE
  8
1
 62
2
 10
314.0004909221658
 20
243.1058514917386
 30
0
 11
314.3004909221658
 21
244.3058514917386
 31
0
  0
LINE
  8
1
 62
2
 10
306.0004909221658
 20
250.1558514917386
 30
0
 11
302.6671575888325
 21
250.1558514917386
 31
0
  0
LINE
  8
1
 62
2
 10
307.6671575888325
 20
239.2808514917386
 30
0
 11
312.3338242554991
 21
239.2808514917386
 31
0
  0
LINE
  8
1
 62
2
 10
307.6671575888325
 20
243.7808514917386
 30
0
 11
307.6671575888325
 21
239.2808514917386
 31
0
  0
LINE
  8
1
 62
2
 10
311.6671575888325
 20
243.7808514917386
 30
0
 11
310.6671575888325
 21
243.7808514917386
 31
0
  0
LINE
  8
1
 62
2
 10
311.6671575888325
 20
250.5308514917386
 30
0
 11
311.6671575888325
 21
243.7808514917386
 31
0
  0
LINE
  8
1
 62
2
 10
309.3338242554991
 20
245.2808514917386
 30
0
 11
309.3338242554991
 21
250.1558514917386
 31
0
  0
LINE
  8
1
 62
2
 10
306.0004909221658
 20
250.1558514917386
 30
0
 11
306.0004909221658
 21
243.7808514917386
 31
0
  0
LINE
  8
1
 62
2
 10
302.3338242554991
 20
247.5308514917386
 30
0
 11
308.0004909221658
 21
247.5308514917386
 31
0
  0
LINE
  8
1
 62
2
 10
307.6671575888325
 20
250.1558514917386
 30
0
 11
306.0004909221658
 21
250.1558514917386
 31
0
  0
LINE
  8
1
 62
2
 10
304.3338242554991
 20
247.5308514917386
 30
0
 11
304.3338242554991
 21
250.1558514917386
 31
0
  0
LINE
  8
1
 62
2
 10
303.6671575888325
 20
244.9058514917386
 30
0
 11
304.3338242554991
 21
247.5308514917386
 31
0
  0
LINE
  8
1
 62
2
 10
302.6671575888325
 20
243.4058514917386
 30
0
 11
303.6671575888325
 21
244.9058514917386
 31
0
  0
LINE
  8
1
 62
2
 10
311.0004909221658
 20
241.9058514917386
 30
0
 11
303.6671575888325
 21
241.9058514917386
 31
0
  0
LINE
  8
1
 62
2
 10
302.6671575888325
 20
239.2808514917386
 30
0
 11
307.6671575888325
 21
239.2808514917386
 31
0
  0
LINE
  8
1
 62
2
 10
294.2004909221658
 20
250.9058514917386
 30
0
 11
294.2004909221658
 21
238.9058514917386
 31
0
  0
LINE
  8
1
 62
2
 10
290.0004909221658
 20
250.9058514917386
 30
0
 11
294.2004909221658
 21
250.9058514917386
 31
0
  0
LINE
  8
1
 62
2
 10
294.2004909221658
 20
250.9058514917386
 30
0
 11
298.4004909221658
 21
250.9058514917386
 31
0
  0
LINE
  8
1
 62
2
 10
286.1004909221658
 20
248.5058514917386
 30
0
 11
286.4004909221658
 21
247.3058514917386
 31
0
  0
LINE
  8
1
 62
2
 10
285.5004909221658
 20
249.4058514917386
 30
0
 11
286.1004909221658
 21
248.5058514917386
 31
0
  0
LINE
  8
1
 62
2
 10
284.9004909221658
 20
250.0058514917386
 30
0
 11
285.5004909221658
 21
249.4058514917386
 31
0
  0
LINE
  8
1
 62
2
 10
284.0004909221658
 20
250.6058514917386
 30
0
 11
284.9004909221658
 21
250.0058514917386
 31
0
  0
LINE
  8
1
 62
2
 10
282.8004909221658
 20
250.9058514917386
 30
0
 11
284.0004909221658
 21
250.6058514917386
 31
0
  0
LINE
  8
1
 62
2
 10
278.0004909221658
 20
250.9058514917386
 30
0
 11
282.8004909221658
 21
250.9058514917386
 31
0
  0
LINE
  8
1
 62
2
 10
278.0004909221658
 20
238.9058514917386
 30
0
 11
278.0004909221658
 21
250.9058514917386
 31
0
  0
LINE
  8
1
 62
2
 10
282.8004909221658
 20
238.9058514917386
 30
0
 11
278.0004909221658
 21
238.9058514917386
 31
0
  0
LINE
  8
1
 62
2
 10
284.0004909221658
 20
239.2058514917386
 30
0
 11
282.8004909221658
 21
238.9058514917386
 31
0
  0
LINE
  8
1
 62
2
 10
284.9004909221658
 20
239.8058514917386
 30
0
 11
284.0004909221658
 21
239.2058514917386
 31
0
  0
LINE
  8
1
 62
2
 10
285.5004909221658
 20
240.4058514917386
 30
0
 11
284.9004909221658
 21
239.8058514917386
 31
0
  0
LINE
  8
1
 62
2
 10
286.1004909221658
 20
241.3058514917386
 30
0
 11
285.5004909221658
 21
240.4058514917386
 31
0
  0
LINE
  8
1
 62
2
 10
286.4004909221658
 20
242.5058514917386
 30
0
 11
286.1004909221658
 21
241.3058514917386
 31
0
  0
LINE
  8
1
 62
2
 10
286.4004909221658
 20
247.3058514917386
 30
0
 11
286.4004909221658
 21
242.5058514917386
 31
0
  0
LINE
  8
1
 62
2
 10
266.0004909221658
 20
245.5058514917386
 30
0
 11
266.0004909221658
 21
238.9058514917386
 31
0
  0
LINE
  8
1
 62
2
 10
266.0004909221658
 20
250.9058514917386
 30
0
 11
266.0004909221658
 21
245.5058514917386
 31
0
  0
LINE
  8
1
 62
2
 10
274.4004909221658
 20
250.9058514917386
 30
0
 11
266.0004909221658
 21
250.9058514917386
 31
0
  0
LINE
  8
1
 62
2
 10
266.0004909221658
 20
245.5058514917386
 30
0
 11
274.4004909221658
 21
245.5058514917386
 31
0
  0
LINE
  8
1
 62
2
 10
262.4004909221658
 20
245.5058514917386
 30
0
 11
259.4004909221658
 21
245.5058514917386
 31
0
  0
LINE
  8
1
 62
2
 10
262.4004909221658
 20
238.9058514917386
 30
0
 11
262.4004909221658
 21
245.5058514917386
 31
0
  0
LINE
  8
1
 62
2
 10
257.3004909221658
 20
238.9058514917386
 30
0
 11
262.4004909221658
 21
238.9058514917386
 31
0
  0
LINE
  8
1
 62
2
 10
256.4004909221658
 20
239.2058514917386
 30
0
 11
257.3004909221658
 21
238.9058514917386
 31
0
  0
LINE
  8
1
 62
2
 10
255.2004909221658
 20
239.8058514917386
 30
0
 11
256.4004909221658
 21
239.2058514917386
 31
0
  0
LINE
  8
1
 62
2
 10
254.6004909221658
 20
240.4058514917386
 30
0
 11
255.2004909221658
 21
239.8058514917386
 31
0
  0
LINE
  8
1
 62
2
 10
254.3004909221658
 20
241.3058514917386
 30
0
 11
254.6004909221658
 21
240.4058514917386
 31
0
  0
LINE
  8
1
 62
2
 10
254.0004909221658
 20
242.5058514917386
 30
0
 11
254.3004909221658
 21
241.3058514917386
 31
0
  0
LINE
  8
1
 62
2
 10
254.0004909221658
 20
247.3058514917386
 30
0
 11
254.0004909221658
 21
242.5058514917386
 31
0
  0
LINE
  8
1
 62
2
 10
254.3004909221658
 20
248.5058514917386
 30
0
 11
254.0004909221658
 21
247.3058514917386
 31
0
  0
LINE
  8
1
 62
2
 10
254.6004909221658
 20
249.4058514917386
 30
0
 11
254.3004909221658
 21
248.5058514917386
 31
0
  0
LINE
  8
1
 62
2
 10
255.2004909221658
 20
250.0058514917386
 30
0
 11
254.6004909221658
 21
249.4058514917386
 31
0
  0
LINE
  8
1
 62
2
 10
256.1004909221658
 20
250.6058514917386
 30
0
 11
255.2004909221658
 21
250.0058514917386
 31
0
  0
LINE
  8
1
 62
2
 10
257.3004909221658
 20
250.9058514917386
 30
0
 11
256.1004909221658
 21
250.6058514917386
 31
0
  0
LINE
  8
1
 62
2
 10
262.4004909221658
 20
250.9058514917386
 30
0
 11
257.3004909221658
 21
250.9058514917386
 31
0
  0
LINE
  8
0
 62
7
 10
227.1518999847
 20
547.3684149266001
 30
0
 11
227.1663449967
 21
547.3767547582
 31
0
  0
LINE
  8
0
 62
7
 10
141.5038422781
 20
547.3684149266001
 30
0
 11
141.5038422781
 21
546.0684149266
 31
0
  0
LINE
  8
0
 62
7
 10
153.5038422781
 20
546.0684149266
 30
0
 11
153.5038422781
 21
547.3684149266001
 31
0
  0
LINE
  8
0
 62
7
 10
158.4734973927
 20
598.2199091506
 30
0
 11
157.0038422781
 21
599.0684149266
 31
0
  0
LINE
  8
0
 62
7
 10
138.0038422781
 20
599.0684149266
 30
0
 11
136.5341871635
 21
598.2199091506
 31
0
  0
LINE
  8
0
 62
7
 10
211.6518999847
 20
547.3684149266001
 30
0
 11
211.6518999847
 21
546.0684149266
 31
0
  0
LINE
  8
0
 62
7
 10
223.6518999847
 20
546.0684149266
 30
0
 11
223.6518999847
 21
547.3684149266001
 31
0
  0
LINE
  8
0
 62
7
 10
228.6215550993
 20
598.2199091506
 30
0
 11
227.1518999847
 21
599.0684149266
 31
0
  0
LINE
  8
0
 62
7
 10
208.1518999847
 20
599.0684149266
 30
0
 11
206.6822448701
 21
598.2199091506
 31
0
  0
LINE
  8
0
 62
7
 10
281.7999576912
 20
547.3684149266001
 30
0
 11
281.7999576912
 21
546.0684149266
 31
0
  0
LINE
  8
0
 62
7
 10
293.7999576912
 20
546.0684149266
 30
0
 11
293.7999576912
 21
547.3684149266001
 31
0
  0
LINE
  8
0
 62
7
 10
298.7696128058
 20
598.2199091506
 30
0
 11
297.2999576912
 21
599.0684149266
 31
0
  0
LINE
  8
0
 62
7
 10
278.2999576912
 20
599.0684149266
 30
0
 11
276.8303025766
 21
598.2199091506
 31
0
  0
LINE
  8
0
 62
7
 10
270.6518999847
 20
595.2184149266
 30
0
 11
270.6518999847
 21
612.7184149266
 31
0
  0
LINE
  8
0
 62
7
 10
164.6518999847
 20
614.7184149266
 30
0
 11
164.6518999847
 21
613.2184149266
 31
0
  0
LINE
  8
0
 62
7
 10
275.6518999847
 20
612.7184149266
 30
0
 11
275.6518999847
 21
614.7184149266
 31
0
  0
LINE
  8
0
 62
7
 10
229.6518999847
 20
586.0684149266
 30
0
 11
229.6518999847
 21
591.0684149266
 31
0
  0
LINE
  8
0
 62
7
 10
205.6518999847
 20
591.0684149266
 30
0
 11
205.6518999847
 21
586.0684149266
 31
0
  0
LINE
  8
0
 62
7
 10
159.5038422781
 20
589.0684149266
 30
0
 11
159.5038422781
 21
591.0684149266
 31
0
  0
LINE
  8
0
 62
7
 10
135.5038422781
 20
591.0684149266
 30
0
 11
135.5038422781
 21
582.3664348676
 31
0
  0
LINE
  8
0
 62
7
 10
299.7999576912
 20
582.3664348676
 30
0
 11
299.7999576912
 21
591.0684149266
 31
0
  0
LINE
  8
0
 62
7
 10
275.7999576912
 20
591.0684149266
 30
0
 11
275.7999576912
 21
589.0684149266
 31
0
  0
LINE
  8
0
 62
7
 10
300.6518999847
 20
559.3684149881439
 30
0
 11
300.6518999847
 21
559.3688546256561
 31
0
  0
LINE
  8
0
 62
7
 10
134.6518999847
 20
582.0684149266
 30
0
 11
134.6518999847
 21
559.3688546249005
 31
0
  0
LINE
  8
0
 62
7
 10
342.6518999847
 20
549.3684149266001
 30
0
 11
326.6518999847
 21
549.3684149266001
 31
0
  0
LINE
  8
0
 62
7
 10
326.6518999847
 20
363.3684149266
 30
0
 11
342.6518999847
 21
363.3684149266
 31
0
  0
LINE
  8
0
 62
7
 10
76.6518999847
 20
363.3684149266
 30
0
 11
92.6518999847
 21
363.3684149266
 31
0
  0
LINE
  8
0
 62
7
 10
92.6518999847
 20
549.3684149266001
 30
0
 11
76.6518999847
 21
549.3684149266001
 31
0
  0
LINE
  8
0
 62
7
 10
342.6518999847
 20
398.3684149266
 30
0
 11
344.6518999847
 21
400.3684149266
 31
0
  0
LINE
  8
0
 62
7
 10
344.6518999847
 20
512.3684149266001
 30
0
 11
342.6518999847
 21
514.3684149266001
 31
0
  0
LINE
  8
0
 62
7
 10
76.6518999847
 20
514.3684149266001
 30
0
 11
74.6518999847
 21
512.3684149266001
 31
0
  0
LINE
  8
0
 62
7
 10
74.6518999847
 20
400.3684149266
 30
0
 11
76.6518999847
 21
398.3684149266
 31
0
  0
LINE
  8
0
 62
7
 10
146.8996011349
 20
548.2169207026
 30
0
 11
146.8996011349
 21
557.3684149266001
 31
0
  0
LINE
  8
0
 62
7
 10
137.7161447878
 20
548.2169207026
 30
0
 11
137.7161447878
 21
557.3684149266001
 31
0
  0
LINE
  8
0
 62
7
 10
298.6518999236735
 20
557.3684149266001
 30
0
 11
298.6514602851265
 21
557.3684149266001
 31
0
  0
LINE
  8
0
 62
7
 10
156.9894191968
 20
547.3684149266001
 30
0
 11
138.0182653594
 21
547.3684149266001
 31
0
  0
LINE
  8
0
 62
7
 10
156.6872986252
 20
548.2169207026
 30
0
 11
156.6872986252
 21
557.3684149266001
 31
0
  0
LINE
  8
0
 62
7
 10
157.2915397684
 20
548.2169207026
 30
0
 11
157.2915397684
 21
557.3684149266001
 31
0
  0
LINE
  8
0
 62
7
 10
296.9834140383
 20
548.2169207026
 30
0
 11
296.9834140383
 21
557.3684149266001
 31
0
  0
LINE
  8
0
 62
7
 10
287.195716548
 20
548.2169207026
 30
0
 11
287.195716548
 21
557.3684149266001
 31
0
  0
LINE
  8
0
 62
7
 10
297.2855346099
 20
547.3684149266001
 30
0
 11
278.3143807725
 21
547.3684149266001
 31
0
  0
LINE
  8
0
 62
7
 10
278.0122602009
 20
548.2169207026
 30
0
 11
278.0122602009
 21
557.3684149266001
 31
0
  0
LINE
  8
0
 62
7
 10
297.5876551815
 20
548.2169207026
 30
0
 11
297.5876551815
 21
557.3684149266001
 31
0
  0
LINE
  8
0
 62
7
 10
226.8353563318
 20
548.2169207026
 30
0
 11
226.8353563318
 21
557.3684149266001
 31
0
  0
LINE
  8
0
 62
7
 10
217.0476588415
 20
548.2169207026
 30
0
 11
217.0476588415
 21
557.3684149266001
 31
0
  0
LINE
  8
0
 62
7
 10
227.1518999847
 20
547.3684149266001
 30
0
 11
208.166323066
 21
547.3684149266001
 31
0
  0
LINE
  8
0
 62
7
 10
207.8642024944
 20
548.2169207026
 30
0
 11
207.8642024944
 21
557.3684149266001
 31
0
  0
LINE
  8
0
 62
7
 10
227.439597475
 20
548.2169207026
 30
0
 11
227.439597475
 21
557.3684149266001
 31
0
  0
LINE
  8
0
 62
7
 10
142.0190147208
 20
598.2199091506
 30
0
 11
142.0190147208
 21
591.0684149266
 31
0
  0
LINE
  8
0
 62
7
 10
152.9886698354
 20
598.2199091506
 30
0
 11
152.9886698354
 21
591.0684149266
 31
0
  0
LINE
  8
0
 62
7
 10
157.0038422781
 20
599.0684149266
 30
0
 11
138.0038422781
 21
599.0684149266
 31
0
  0
LINE
  8
0
 62
7
 10
158.4734973927
 20
598.2199091506
 30
0
 11
158.4734973927
 21
591.0684149266
 31
0
  0
LINE
  8
0
 62
7
 10
136.5341871635
 20
598.2199091506
 30
0
 11
136.5341871635
 21
591.0684149266
 31
0
  0
LINE
  8
0
 62
7
 10
153.5038422781
 20
546.0684149266
 30
0
 11
141.5038422781
 21
546.0684149266
 31
0
  0
LINE
  8
0
 62
7
 10
212.1670724274
 20
598.2199091506
 30
0
 11
212.1670724274
 21
591.0684149266
 31
0
  0
LINE
  8
0
 62
7
 10
223.136727542
 20
598.2199091506
 30
0
 11
223.136727542
 21
591.0684149266
 31
0
  0
LINE
  8
0
 62
7
 10
227.1518999847
 20
599.0684149266
 30
0
 11
208.1518999847
 21
599.0684149266
 31
0
  0
LINE
  8
0
 62
7
 10
228.6215550993
 20
598.2199091506
 30
0
 11
228.6215550993
 21
591.0684149266
 31
0
  0
LINE
  8
0
 62
7
 10
206.6822448701
 20
598.2199091506
 30
0
 11
206.6822448701
 21
591.0684149266
 31
0
  0
LINE
  8
0
 62
7
 10
223.6518999847
 20
546.0684149266
 30
0
 11
211.6518999847
 21
546.0684149266
 31
0
  0
LINE
  8
0
 62
7
 10
293.2847852485
 20
598.2199091506
 30
0
 11
293.2847852485
 21
591.0684149266
 31
0
  0
LINE
  8
0
 62
7
 10
298.7696128058
 20
598.2199091506
 30
0
 11
298.7696128058
 21
591.0684149266
 31
0
  0
LINE
  8
0
 62
7
 10
297.2999576912
 20
599.0684149266
 30
0
 11
278.2999576912
 21
599.0684149266
 31
0
  0
LINE
  8
0
 62
7
 10
282.3151301339
 20
598.2199091506
 30
0
 11
282.3151301339
 21
591.0684149266
 31
0
  0
LINE
  8
0
 62
7
 10
276.8303025766
 20
598.2199091506
 30
0
 11
276.8303025766
 21
591.0684149266
 31
0
  0
LINE
  8
0
 62
7
 10
293.7999576912
 20
546.0684149266
 30
0
 11
281.7999576912
 21
546.0684149266
 31
0
  0
LINE
  8
0
 62
7
 10
192.6518999847
 20
604.2184149266
 30
0
 11
200.3837835053
 21
604.2184149266
 31
0
  0
LINE
  8
0
 62
7
 10
192.6518999847
 20
603.2184149266
 30
0
 11
200.6357964475
 21
603.2184149266
 31
0
  0
LINE
  8
0
 62
7
 10
198.1577521602
 20
604.7184149266
 30
0
 11
198.1577521602
 21
604.2184149266
 31
0
  0
LINE
  8
0
 62
7
 10
200.2577770343
 20
604.7184149266
 30
0
 11
198.1577521602
 21
604.7184149266
 31
0
  0
LINE
  8
0
 62
7
 10
197.7859205053
 20
604.7184149266
 30
0
 11
197.7859205053
 21
604.2184149266
 31
0
  0
LINE
  8
0
 62
7
 10
198.1414401709
 20
604.7184149266
 30
0
 11
198.1414401709
 21
604.2184149266
 31
0
  0
LINE
  8
0
 62
7
 10
198.1414401709
 20
604.7184149266
 30
0
 11
197.684343458
 21
604.7184149266
 31
0
  0
LINE
  8
0
 62
7
 10
197.684343458
 20
604.7184149266
 30
0
 11
197.684343458
 21
604.2184149266
 31
0
  0
LINE
  8
0
 62
7
 10
199.5018999847
 20
599.2184149266
 30
0
 11
199.3426343004
 21
600.1144149266
 31
0
  0
LINE
  8
0
 62
7
 10
193.6518999847
 20
596.7184149266
 30
0
 11
193.6518999847
 21
597.9684149266
 31
0
  0
LINE
  8
0
 62
7
 10
201.1518999847
 20
596.7184149266
 30
0
 11
201.1518999847
 21
597.9684149266
 31
0
  0
LINE
  8
0
 62
7
 10
200.1518999847
 20
597.9684149266
 30
0
 11
200.1518999847
 21
596.7184149266
 31
0
  0
LINE
  8
0
 62
7
 10
192.6518999847
 20
595.2184149266
 30
0
 11
192.6518999847
 21
610.7184149266
 31
0
  0
LINE
  8
0
 62
7
 10
263.6518999847
 20
621.7184149266
 30
0
 11
171.6518999847
 21
621.7184149266
 31
0
  0
LINE
  8
0
 62
7
 10
227.6518999847
 20
622.7184149266
 30
0
 11
227.6518999847
 21
621.7184149266
 31
0
  0
LINE
  8
0
 62
7
 10
227.6518999847
 20
622.7184149266
 30
0
 11
239.6518999847
 21
622.7184149266
 31
0
  0
LINE
  8
0
 62
7
 10
239.6518999847
 20
622.7184149266
 30
0
 11
239.6518999847
 21
621.7184149266
 31
0
  0
LINE
  8
0
 62
7
 10
242.6518999847
 20
622.7184149266
 30
0
 11
242.6518999847
 21
621.7184149266
 31
0
  0
LINE
  8
0
 62
7
 10
242.6518999847
 20
622.7184149266
 30
0
 11
254.6518999847
 21
622.7184149266
 31
0
  0
LINE
  8
0
 62
7
 10
254.6518999847
 20
622.7184149266
 30
0
 11
254.6518999847
 21
621.7184149266
 31
0
  0
LINE
  8
0
 62
7
 10
181.6518999847
 20
622.7184149266
 30
0
 11
181.6518999847
 21
621.7184149266
 31
0
  0
LINE
  8
0
 62
7
 10
181.6518999847
 20
622.7184149266
 30
0
 11
191.6518999847
 21
622.7184149266
 31
0
  0
LINE
  8
0
 62
7
 10
191.6518999847
 20
622.7184149266
 30
0
 11
191.6518999847
 21
621.7184149266
 31
0
  0
LINE
  8
0
 62
7
 10
157.1518999847
 20
608.2184149266
 30
0
 11
160.9495190823
 21
608.2184149266
 31
0
  0
LINE
  8
0
 62
7
 10
155.1518999847
 20
599.0684149266
 30
0
 11
155.1518999847
 21
606.2184149266
 31
0
  0
LINE
  8
0
 62
7
 10
209.6518999847
 20
622.7184149266
 30
0
 11
209.6518999847
 21
621.7184149266
 31
0
  0
LINE
  8
0
 62
7
 10
217.1518999847
 20
622.7184149266
 30
0
 11
217.1518999847
 21
621.7184149266
 31
0
  0
LINE
  8
0
 62
7
 10
194.6518999847
 20
622.7184149266
 30
0
 11
224.6518999847
 21
622.7184149266
 31
0
  0
LINE
  8
0
 62
7
 10
202.1518999847
 20
622.7184149266
 30
0
 11
202.1518999847
 21
621.7184149266
 31
0
  0
LINE
  8
0
 62
7
 10
275.6518999847
 20
612.7184149266
 30
0
 11
269.3750313095
 21
612.7184149266
 31
0
  0
LINE
  8
0
 62
7
 10
269.3750313095
 20
614.7184149266
 30
0
 11
275.6518999847
 21
614.7184149266
 31
0
  0
LINE
  8
0
 62
7
 10
224.6518999847
 20
622.7184149266
 30
0
 11
224.6518999847
 21
621.7184149266
 31
0
  0
LINE
  8
0
 62
7
 10
194.6518999847
 20
622.7184149266
 30
0
 11
194.6518999847
 21
621.7184149266
 31
0
  0
LINE
  8
0
 62
7
 10
228.6215550993
 20
595.2184149266
 30
0
 11
276.8303025766
 21
595.2184149266
 31
0
  0
LINE
  8
0
 62
7
 10
300.6518999847
 20
572.0684149266
 30
0
 11
134.6518999847
 21
572.0684149266
 31
0
  0
LINE
  8
0
 62
7
 10
229.6518999847
 20
591.0684149266
 30
0
 11
205.6518999847
 21
591.0684149266
 31
0
  0
LINE
  8
0
 62
7
 10
156.0608258782
 20
584.0684149266
 30
0
 11
203.6518999847
 21
584.0684149266
 31
0
  0
LINE
  8
0
 62
7
 10
231.6518999847
 20
584.0684149266
 30
0
 11
279.2429740911
 21
584.0684149266
 31
0
  0
LINE
  8
0
 62
7
 10
157.6854362611
 20
589.0684149266
 30
0
 11
205.6518999847
 21
589.0684149266
 31
0
  0
LINE
  8
0
 62
7
 10
229.6518999847
 20
589.0684149266
 30
0
 11
277.6183637083
 21
589.0684149266
 31
0
  0
LINE
  8
0
 62
7
 10
158.4734973927
 20
592.2184149266
 30
0
 11
206.6822448701
 21
592.2184149266
 31
0
  0
LINE
  8
0
 62
7
 10
228.6215550993
 20
592.2184149266
 30
0
 11
276.8303025766
 21
592.2184149266
 31
0
  0
LINE
  8
0
 62
7
 10
164.1465991572
 20
593.2184149266
 30
0
 11
164.1465991572
 21
592.2184149266
 31
0
  0
LINE
  8
0
 62
7
 10
163.1518999847
 20
595.2184149266
 30
0
 11
206.6822448701
 21
595.2184149266
 31
0
  0
LINE
  8
0
 62
7
 10
159.5038422781
 20
591.0684149266
 30
0
 11
135.5038422781
 21
591.0684149266
 31
0
  0
LINE
  8
0
 62
7
 10
299.7999576912
 20
591.0684149266
 30
0
 11
275.7999576912
 21
591.0684149266
 31
0
  0
LINE
  8
0
 62
7
 10
202.2738805714
 20
596.7184149266
 30
0
 11
192.6518999847
 21
596.7184149266
 31
0
  0
LINE
  8
0
 62
7
 10
163.395737003
 20
592.2184149266
 30
0
 11
163.395737003
 21
593.2184149266
 31
0
  0
LINE
  8
0
 62
7
 10
163.3932601197
 20
592.2184149266
 30
0
 11
163.3932601197
 21
593.2184149266
 31
0
  0
LINE
  8
0
 62
7
 10
217.4755787155
 20
496.0684149266
 30
0
 11
217.8225024552
 21
496.0684149266
 31
0
  0
LINE
  8
0
 62
7
 10
243.7024782265
 20
472.5684149266
 30
0
 11
249.7721804203
 21
472.5684149266
 31
0
  0
LINE
  8
0
 62
7
 10
213.2941128473
 20
473.7136535387
 30
0
 11
213.2941128473
 21
473.8684149266
 31
0
  0
LINE
  8
0
 62
7
 10
299.0235049726
 20
515.0796655611
 30
0
 11
297.560954355
 21
517.4044792754
 31
0
  0
LINE
  8
0
 62
7
 10
342.6518999847
 20
363.3684149266
 30
0
 11
342.6518999847
 21
549.3684149266001
 31
0
  0
LINE
  8
0
 62
7
 10
326.6518999847
 20
363.3684149266
 30
0
 11
326.6518999847
 21
549.3684149266001
 31
0
  0
LINE
  8
0
 62
7
 10
92.6518999847
 20
363.3684149266
 30
0
 11
92.6518999847
 21
549.3684149266001
 31
0
  0
LINE
  8
0
 62
7
 10
76.6518999847
 20
456.3684149266
 30
0
 11
76.6518999847
 21
549.3684149266001
 31
0
  0
LINE
  8
0
 62
7
 10
76.6518999847
 20
363.3684149266
 30
0
 11
76.6518999847
 21
456.3684149266
 31
0
  0
LINE
  8
0
 62
7
 10
208.9916459468
 20
481.3684149266
 30
0
 11
204.6615189279
 21
473.8684149266
 31
0
  0
LINE
  8
0
 62
7
 10
204.6615189279
 20
488.8684149266
 30
0
 11
208.9916459468
 21
481.3684149266
 31
0
  0
LINE
  8
0
 62
7
 10
213.3217729657
 20
488.8684149266
 30
0
 11
204.6615189279
 21
488.8684149266
 31
0
  0
LINE
  8
0
 62
7
 10
217.6518999847
 20
496.3684149266
 30
0
 11
213.3217729657
 21
488.8684149266
 31
0
  0
LINE
  8
0
 62
7
 10
217.6518999847
 20
496.3684149266
 30
0
 11
221.9820270036
 21
488.8684149266
 31
0
  0
LINE
  8
0
 62
7
 10
221.9820270036
 20
488.8684149266
 30
0
 11
230.6422810414
 21
488.8684149266
 31
0
  0
LINE
  8
0
 62
7
 10
230.6422810414
 20
488.8684149266
 30
0
 11
226.3121540225
 21
481.3684149266
 31
0
  0
LINE
  8
0
 62
7
 10
226.3121540225
 20
481.3684149266
 30
0
 11
230.6422810414
 21
473.8684149266
 31
0
  0
LINE
  8
0
 62
7
 10
230.6422810414
 20
473.8684149266
 30
0
 11
221.9820270036
 21
473.8684149266
 31
0
  0
LINE
  8
0
 62
7
 10
221.9820270036
 20
473.8684149266
 30
0
 11
218.0338134621
 21
467.0299084736
 31
0
  0
LINE
  8
0
 62
7
 10
213.3217729657
 20
473.8684149266
 30
0
 11
217.3845324319
 21
466.8315091123
 31
0
  0
LINE
  8
0
 62
7
 10
204.6615189279
 20
473.8684149266
 30
0
 11
213.3217729657
 21
473.8684149266
 31
0
  0
LINE
  8
0
 62
7
 10
214.4764735041
 20
486.8684149266
 30
0
 11
208.125620543
 21
486.8684149266
 31
0
  0
LINE
  8
0
 62
7
 10
208.125620543
 20
486.8684149266
 30
0
 11
211.3010470236
 21
481.3684149266
 31
0
  0
LINE
  8
0
 62
7
 10
211.3010470236
 20
481.3684149266
 30
0
 11
208.125620543
 21
475.8684149266
 31
0
  0
LINE
  8
0
 62
7
 10
208.125620543
 20
475.8684149266
 30
0
 11
214.4764735041
 21
475.8684149266
 31
0
  0
LINE
  8
0
 62
7
 10
214.4764735041
 20
475.8684149266
 30
0
 11
217.6518999847
 21
470.3684149266
 31
0
  0
LINE
  8
0
 62
7
 10
220.8273264652
 20
475.8684149266
 30
0
 11
217.6518999847
 21
470.3684149266
 31
0
  0
LINE
  8
0
 62
7
 10
227.1781794263
 20
475.8684149266
 30
0
 11
220.8273264652
 21
475.8684149266
 31
0
  0
LINE
  8
0
 62
7
 10
224.0027529458
 20
481.3684149266
 30
0
 11
227.1781794263
 21
475.8684149266
 31
0
  0
LINE
  8
0
 62
7
 10
227.1781794263
 20
486.8684149266
 30
0
 11
224.0027529458
 21
481.3684149266
 31
0
  0
LINE
  8
0
 62
7
 10
220.8273264652
 20
486.8684149266
 30
0
 11
227.1781794263
 21
486.8684149266
 31
0
  0
LINE
  8
0
 62
7
 10
217.6518999847
 20
492.3684149266
 30
0
 11
220.8273264652
 21
486.8684149266
 31
0
  0
LINE
  8
0
 62
7
 10
217.6518999847
 20
492.3684149266
 30
0
 11
214.4764735041
 21
486.8684149266
 31
0
  0
LINE
  8
0
 62
7
 10
192.6518999847
 20
513.3684149266001
 30
0
 11
192.6518999847
 21
509.3684149266
 31
0
  0
LINE
  8
0
 62
7
 10
224.6518999847
 20
513.3684149266001
 30
0
 11
192.6518999847
 21
513.3684149266001
 31
0
  0
LINE
  8
0
 62
7
 10
224.6518999847
 20
516.3684149266001
 30
0
 11
224.6518999847
 21
513.3684149266001
 31
0
  0
LINE
  8
0
 62
7
 10
242.6518999847
 20
511.3684149266
 30
0
 11
224.6518999847
 21
516.3684149266001
 31
0
  0
LINE
  8
0
 62
7
 10
242.6518999847
 20
511.3684149266
 30
0
 11
224.6518999847
 21
506.3684149266
 31
0
  0
LINE
  8
0
 62
7
 10
224.6518999847
 20
506.3684149266
 30
0
 11
224.6518999847
 21
509.3684149266
 31
0
  0
LINE
  8
0
 62
7
 10
224.6518999847
 20
509.3684149266
 30
0
 11
192.6518999847
 21
509.3684149266
 31
0
  0
LINE
  8
0
 62
7
 10
218.7518999847
 20
486.8684149266
 30
0
 11
216.5518999847
 21
486.8684149266
 31
0
  0
LINE
  8
0
 62
7
 10
218.7518999847
 20
482.6184149266
 30
0
 11
218.7518999847
 21
486.8684149266
 31
0
  0
LINE
  8
0
 62
7
 10
218.7518999847
 20
482.6184149266
 30
0
 11
223.1518999847
 21
482.6184149266
 31
0
  0
LINE
  8
0
 62
7
 10
223.1518999847
 20
482.6184149266
 30
0
 11
223.1518999847
 21
480.1184149266
 31
0
  0
LINE
  8
0
 62
7
 10
223.1518999847
 20
480.1184149266
 30
0
 11
218.7518999847
 21
480.1184149266
 31
0
  0
LINE
  8
0
 62
7
 10
218.7518999847
 20
480.1184149266
 30
0
 11
218.7518999847
 21
475.8684149266
 31
0
  0
LINE
  8
0
 62
7
 10
218.7518999847
 20
475.8684149266
 30
0
 11
216.5518999847
 21
475.8684149266
 31
0
  0
LINE
  8
0
 62
7
 10
216.5518999847
 20
480.1184149266
 30
0
 11
216.5518999847
 21
475.8684149266
 31
0
  0
LINE
  8
0
 62
7
 10
212.1518999847
 20
480.1184149266
 30
0
 11
216.5518999847
 21
480.1184149266
 31
0
  0
LINE
  8
0
 62
7
 10
212.1518999847
 20
482.6184149266
 30
0
 11
212.1518999847
 21
480.1184149266
 31
0
  0
LINE
  8
0
 62
7
 10
216.5518999847
 20
482.6184149266
 30
0
 11
212.1518999847
 21
482.6184149266
 31
0
  0
LINE
  8
0
 62
7
 10
216.5518999847
 20
482.6184149266
 30
0
 11
216.5518999847
 21
486.8684149266
 31
0
  0
LINE
  8
0
 62
7
 10
217.3792047628
 20
466.8407369059
 30
0
 11
217.6518999847
 21
466.3684149266
 31
0
  0
LINE
  8
0
 62
7
 10
218.0423142406
 20
467.0446322539
 30
0
 11
217.6518999847
 21
466.3684149266
 31
0
  0
LINE
  8
0
 62
7
 10
217.6518999847
 20
368.2502529955
 30
0
 11
214.1124053838
 21
368.2498925825
 31
0
  0
LINE
  8
0
 62
7
 10
223.2550160781
 20
405.7632467716
 30
0
 11
222.8599942275
 21
405.7632467716
 31
0
  0
LINE
  8
0
 62
7
 10
222.8599942275
 20
405.7632467716
 30
0
 11
222.8599942275
 21
400.1225475506
 31
0
  0
LINE
  8
0
 62
7
 10
222.8599942275
 20
400.1225475506
 30
0
 11
223.2550160781
 21
400.1225475506
 31
0
  0
LINE
  8
0
 62
7
 10
223.2550160781
 20
399.4428971611
 30
0
 11
222.0100987306
 21
399.4428971611
 31
0
  0
LINE
  8
0
 62
7
 10
222.0100987306
 20
399.4428971611
 30
0
 11
222.0100987306
 21
406.4428971611
 31
0
  0
LINE
  8
0
 62
7
 10
222.0100987306
 20
406.4428971611
 30
0
 11
223.2550160781
 21
406.4428971611
 31
0
  0
LINE
  8
0
 62
7
 10
226.6518999847
 20
396.8684149266
 30
0
 11
208.6518999847
 21
396.8684149266
 31
0
  0
LINE
  8
0
 62
7
 10
208.6518999847
 20
408.8684149266
 30
0
 11
226.6518999847
 21
408.8684149266
 31
0
  0
LINE
  8
0
 62
7
 10
226.6518999847
 20
408.8684149266
 30
0
 11
226.6518999847
 21
396.8684149266
 31
0
  0
LINE
  8
0
 62
7
 10
208.6518999847
 20
396.8684149266
 30
0
 11
208.6518999847
 21
408.8684149266
 31
0
  0
LINE
  8
0
 62
7
 10
266.0565306511
 20
367.0878358517
 30
0
 11
268.6971855677
 21
368.3160838124
 31
0
  0
LINE
  8
0
 62
7
 10
217.6518999831
 20
368.2501887795
 30
0
 11
221.1971855677
 21
368.3160838124
 31
0
  0
LINE
  8
0
 62
7
 10
344.6518999847
 20
512.3684149266001
 30
0
 11
344.6518999847
 21
400.3684149266
 31
0
  0
LINE
  8
0
 62
7
 10
74.6518999847
 20
512.3684149266001
 30
0
 11
74.6518999847
 21
400.3684149266
 31
0
  0
LINE
  8
0
 62
7
 10
221.1971855677
 20
368.3160838124
 30
0
 11
220.1518999847
 21
356.3684149266
 31
0
  0
LINE
  8
0
 62
7
 10
215.1518999847
 20
356.3684149266
 30
0
 11
220.1518999847
 21
356.3684149266
 31
0
  0
LINE
  8
0
 62
7
 10
214.1124053838
 20
368.2498925825
 30
0
 11
215.1518999847
 21
356.3684149266
 31
0
  0
LINE
  8
0
 62
7
 10
119.5851935344
 20
385.472932461
 30
0
 11
118.8925588335
 21
385.2387945615
 31
0
  0
LINE
  8
0
 62
7
 10
305.6434834784
 20
513.6072960242
 30
0
 11
304.3916365968
 21
513.0643734092
 31
0
  0
LINE
  8
0
 62
7
 10
167.6518999847
 20
356.3684149266
 30
0
 11
182.6518999847
 21
356.3684149266
 31
0
  0
LINE
  8
0
 62
7
 10
167.1177290663
 20
362.4740164618
 30
0
 11
167.6518999847
 21
356.3684149266
 31
0
  0
LINE
  8
0
 62
7
 10
182.8765046941
 20
358.9356585026
 30
0
 11
182.6518999847
 21
356.3684149266
 31
0
  0
LINE
  8
0
 62
7
 10
268.6971855677
 20
368.3160838124
 30
0
 11
267.6518999847
 21
356.3684149266
 31
0
  0
LINE
  8
0
 62
7
 10
252.6518999847
 20
356.3684149266
 30
0
 11
267.6518999847
 21
356.3684149266
 31
0
  0
LINE
  8
0
 62
7
 10
252.1401517339
 20
362.2177241991
 30
0
 11
252.6518999847
 21
356.3684149266
 31
0
  0
LINE
  8
0
 62
7
 10
98.0576549573
 20
523.5723225499
 30
0
 11
114.8201644634
 21
514.9020211245
 31
0
  0
LINE
  8
0
 62
7
 10
321.8434673709
 20
523.4476340910001
 30
0
 11
305.6434834784
 21
513.6072960242
 31
0
  0
LINE
  8
0
 62
7
 10
118.8925588335
 20
385.2387945615
 30
0
 11
96.05071275340001
 21
377.5173479523
 31
0
  0
LINE
  8
0
 62
7
 10
321.2689900917
 20
389.1702750044
 30
0
 11
295.8047229951
 21
402.4246884733
 31
0
  0
LINE
  8
0
 62
7
 10
192.9018999847
 20
604.2184149266
 30
0
 11
192.9018999847
 21
599.4045555882
 31
0
  0
LINE
  8
0
 62
7
 10
167.6401111247
 20
596.2184149266
 30
0
 11
167.613274708
 21
595.2184149266
 31
0
  0
LINE
  8
0
 62
7
 10
167.6401111247
 20
606.2184149266
 30
0
 11
167.6401111247
 21
596.2184149266
 31
0
  0
LINE
  8
0
 62
7
 10
269.3750313095
 20
612.7184149266
 30
0
 11
269.3750313095
 21
614.7184149266
 31
0
  0
LINE
  8
0
 62
7
 10
300.6518999847003
 20
582.0684149266
 30
0
 11
299.7893424609
 21
582.0684149266
 31
0
  0
LINE
  8
0
 62
7
 10
135.5144575084
 20
582.0684149266
 30
0
 11
134.6518999847
 21
582.0684149266
 31
0
  0
LINE
  8
0
 62
7
 10
274.5992440843
 20
593.2184149266
 30
0
 11
274.5992440843
 21
592.2184149266
 31
0
  0
LINE
  8
0
 62
7
 10
276.6518999847
 20
592.2184149266
 30
0
 11
276.6518999847
 21
595.2184149266
 31
0
  0
LINE
  8
0
 62
7
 10
217.8273789735
 20
496.0637817192
 30
0
 11
217.4742147476
 21
496.0637817192
 31
0
  0
LINE
  8
0
 62
7
 10
300.6518999847
 20
559.3684149266001
 30
0
 11
299.7973199976
 21
559.3684149266001
 31
0
  0
LINE
  8
0
 62
7
 10
122.1541386243
 20
518.5711416496
 30
0
 11
121.7758424635
 21
513.2687265674
 31
0
  0
LINE
  8
0
 62
7
 10
199.4018999847
 20
706.7080730239001
 30
0
 11
199.4018999847
 21
784.7492798312001
 31
0
  0
LINE
  8
0
 62
7
 10
194.4018999847
 20
786.8799563280001
 30
0
 11
194.4018999847
 21
706.7080730239001
 31
0
  0
LINE
  8
0
 62
7
 10
76.6518999847
 20
741.5080730239
 30
0
 11
92.6518999847
 21
741.5080730239
 31
0
  0
LINE
  8
0
 62
7
 10
92.6518999847
 20
927.5080730239
 30
0
 11
76.6518999847
 21
927.5080730239
 31
0
  0
LINE
  8
0
 62
7
 10
342.6518999847
 20
927.5080730239
 30
0
 11
326.6518999847
 21
927.5080730239
 31
0
  0
LINE
  8
0
 62
7
 10
326.6518999847
 20
741.5080730239
 30
0
 11
342.6518999847
 21
741.5080730239
 31
0
  0
LINE
  8
0
 62
7
 10
342.6518999847
 20
776.5080730239
 30
0
 11
344.6518999847
 21
778.5080730239
 31
0
  0
LINE
  8
0
 62
7
 10
344.6518999847
 20
890.5080730239
 30
0
 11
342.6518999847
 21
892.5080730239
 31
0
  0
LINE
  8
0
 62
7
 10
76.6518999847
 20
892.5080730239
 30
0
 11
74.6518999847
 21
890.5080730239
 31
0
  0
LINE
  8
0
 62
7
 10
74.6518999847
 20
778.5080730239
 30
0
 11
76.6518999847
 21
776.5080730239
 31
0
  0
LINE
  8
0
 62
7
 10
245.8672294274
 20
922.6754983294001
 30
0
 11
242.7272190118
 21
923.6677662463
 31
0
  0
LINE
  8
0
 62
7
 10
255.8188688251
 20
918.9703112679
 30
0
 11
252.5684365848
 21
920.2798512261001
 31
0
  0
LINE
  8
0
 62
7
 10
226.4438589833
 20
926.5456739323
 30
0
 11
223.5577487201
 21
926.8109898772
 31
0
  0
LINE
  8
0
 62
7
 10
194.4018999847
 20
706.7080730239001
 30
0
 11
199.4018999847
 21
706.7080730239001
 31
0
  0
LINE
  8
0
 62
7
 10
254.5476248564
 20
859.4926445611
 30
0
 11
254.5476248564
 21
858.2636876924
 31
0
  0
LINE
  8
0
 62
7
 10
254.5476248564
 20
858.2636876924
 30
0
 11
249.3729716168
 21
858.2636876924
 31
0
  0
LINE
  8
0
 62
7
 10
249.976277716
 20
856.6641817072
 30
0
 11
254.5476248564
 21
856.6641817072
 31
0
  0
LINE
  8
0
 62
7
 10
254.5476248564
 20
856.6641817072
 30
0
 11
254.5476248564
 21
855.4352248385
 31
0
  0
LINE
  8
0
 62
7
 10
254.5476248564
 20
855.4352248385
 30
0
 11
249.3226961086
 21
855.4352248385
 31
0
  0
LINE
  8
0
 62
7
 10
249.976277716
 20
853.893442585
 30
0
 11
254.5476248564
 21
853.893442585
 31
0
  0
LINE
  8
0
 62
7
 10
254.5476248564
 20
853.893442585
 30
0
 11
254.5476248564
 21
852.6644857163
 31
0
  0
LINE
  8
0
 62
7
 10
254.5476248564
 20
852.6644857163
 30
0
 11
247.6636043358
 21
852.6644857163
 31
0
  0
LINE
  8
0
 62
7
 10
247.6636043358
 20
852.6644857163
 30
0
 11
247.6636043358
 21
853.893442585
 31
0
  0
LINE
  8
0
 62
7
 10
247.6636043358
 20
853.893442585
 30
0
 11
248.5182879763
 21
853.893442585
 31
0
  0
LINE
  8
0
 62
7
 10
248.9204920424
 20
859.4926445611
 30
0
 11
254.5476248564
 21
859.4926445611
 31
0
  0
LINE
  8
0
 62
7
 10
227.6518999847
 20
861.5080730239
 30
0
 11
227.6518999847
 21
807.5080730239
 31
0
  0
LINE
  8
0
 62
7
 10
227.6518999847
 20
807.5080730239
 30
0
 11
239.6518999847
 21
807.5080730239
 31
0
  0
LINE
  8
0
 62
7
 10
239.6518999847
 20
807.5080730239
 30
0
 11
239.6518999847
 21
861.5080730239
 31
0
  0
LINE
  8
0
 62
7
 10
239.6518999847
 20
861.5080730239
 30
0
 11
227.6518999847
 21
861.5080730239
 31
0
  0
LINE
  8
0
 62
7
 10
254.5476248564
 20
850.4926445611
 30
0
 11
254.5476248564
 21
849.2636876924
 31
0
  0
LINE
  8
0
 62
7
 10
254.5476248564
 20
849.2636876924
 30
0
 11
249.3729716168
 21
849.2636876924
 31
0
  0
LINE
  8
0
 62
7
 10
249.976277716
 20
847.6641817072
 30
0
 11
254.5476248564
 21
847.6641817072
 31
0
  0
LINE
  8
0
 62
7
 10
254.5476248564
 20
847.6641817072
 30
0
 11
254.5476248564
 21
846.4352248385
 31
0
  0
LINE
  8
0
 62
7
 10
254.5476248564
 20
846.4352248385
 30
0
 11
249.3226961086
 21
846.4352248385
 31
0
  0
LINE
  8
0
 62
7
 10
249.976277716
 20
844.893442585
 30
0
 11
254.5476248564
 21
844.893442585
 31
0
  0
LINE
  8
0
 62
7
 10
254.5476248564
 20
844.893442585
 30
0
 11
254.5476248564
 21
843.6644857163
 31
0
  0
LINE
  8
0
 62
7
 10
254.5476248564
 20
843.6644857163
 30
0
 11
247.6636043358
 21
843.6644857163
 31
0
  0
LINE
  8
0
 62
7
 10
247.6636043358
 20
843.6644857163
 30
0
 11
247.6636043358
 21
844.893442585
 31
0
  0
LINE
  8
0
 62
7
 10
247.6636043358
 20
844.893442585
 30
0
 11
248.5182879763
 21
844.893442585
 31
0
  0
LINE
  8
0
 62
7
 10
248.9204920424
 20
850.4926445611
 30
0
 11
254.5476248564
 21
850.4926445611
 31
0
  0
LINE
  8
0
 62
7
 10
217.1518999847
 20
847.4984540807
 30
0
 11
209.6518999847
 21
843.1683270618
 31
0
  0
LINE
  8
0
 62
7
 10
224.6518999847
 20
834.5080730239
 30
0
 11
217.1518999847
 21
838.8382000429
 31
0
  0
LINE
  8
0
 62
7
 10
217.1518999847
 20
830.177946005
 30
0
 11
224.6518999847
 21
834.5080730239
 31
0
  0
LINE
  8
0
 62
7
 10
217.1518999847
 20
821.5176919672
 30
0
 11
217.1518999847
 21
830.177946005
 31
0
  0
LINE
  8
0
 62
7
 10
209.6518999847
 20
825.8478189861
 30
0
 11
217.1518999847
 21
821.5176919672
 31
0
  0
LINE
  8
0
 62
7
 10
202.1518999847
 20
821.5176919672
 30
0
 11
209.6518999847
 21
825.8478189861
 31
0
  0
LINE
  8
0
 62
7
 10
202.1518999847
 20
830.177946005
 30
0
 11
202.1518999847
 21
821.5176919672
 31
0
  0
LINE
  8
0
 62
7
 10
194.6518999847
 20
834.5080730239
 30
0
 11
202.1518999847
 21
830.177946005
 31
0
  0
LINE
  8
0
 62
7
 10
202.1518999847
 20
838.8382000429
 30
0
 11
194.6518999847
 21
834.5080730239
 31
0
  0
LINE
  8
0
 62
7
 10
202.1518999847
 20
847.4984540807
 30
0
 11
202.1518999847
 21
838.8382000429
 31
0
  0
LINE
  8
0
 62
7
 10
204.1518999847
 20
837.6834995045
 30
0
 11
198.6518999847
 21
834.5080730239
 31
0
  0
LINE
  8
0
 62
7
 10
198.6518999847
 20
834.5080730239
 30
0
 11
204.1518999847
 21
831.3326465434
 31
0
  0
LINE
  8
0
 62
7
 10
204.1518999847
 20
831.3326465434
 30
0
 11
204.1518999847
 21
824.9817935823
 31
0
  0
LINE
  8
0
 62
7
 10
204.1518999847
 20
824.9817935823
 30
0
 11
209.6518999847
 21
828.1572200628
 31
0
  0
LINE
  8
0
 62
7
 10
209.6518999847
 20
828.1572200628
 30
0
 11
215.1518999847
 21
824.9817935823
 31
0
  0
LINE
  8
0
 62
7
 10
215.1518999847
 20
824.9817935823
 30
0
 11
215.1518999847
 21
831.3326465434
 31
0
  0
LINE
  8
0
 62
7
 10
215.1518999847
 20
831.3326465434
 30
0
 11
220.6518999847
 21
834.5080730239
 31
0
  0
LINE
  8
0
 62
7
 10
220.6518999847
 20
834.5080730239
 30
0
 11
215.1518999847
 21
837.6834995045
 31
0
  0
LINE
  8
0
 62
7
 10
215.1518999847
 20
837.6834995045
 30
0
 11
215.1518999847
 21
844.0343524656
 31
0
  0
LINE
  8
0
 62
7
 10
215.1518999847
 20
844.0343524656
 30
0
 11
209.6518999847
 21
840.858925985
 31
0
  0
LINE
  8
0
 62
7
 10
209.6518999847
 20
840.858925985
 30
0
 11
204.1518999847
 21
844.0343524656
 31
0
  0
LINE
  8
0
 62
7
 10
204.1518999847
 20
844.0343524656
 30
0
 11
204.1518999847
 21
837.6834995045
 31
0
  0
LINE
  8
0
 62
7
 10
217.1518999847
 20
838.8382000429
 30
0
 11
217.1518999847
 21
847.4984540807
 31
0
  0
LINE
  8
0
 62
7
 10
209.6518999847
 20
843.1683270618
 30
0
 11
202.1518999847
 21
847.4984540807
 31
0
  0
LINE
  8
0
 62
7
 10
191.6518999847
 20
852.5080730239
 30
0
 11
181.6518999847
 21
852.5080730239
 31
0
  0
LINE
  8
0
 62
7
 10
181.6518999847
 20
816.5080730239
 30
0
 11
191.6518999847
 21
816.5080730239
 31
0
  0
LINE
  8
0
 62
7
 10
191.6518999847
 20
816.5080730239
 30
0
 11
191.6518999847
 21
852.5080730239
 31
0
  0
LINE
  8
0
 62
7
 10
181.6518999847
 20
852.5080730239
 30
0
 11
181.6518999847
 21
816.5080730239
 31
0
  0
LINE
  8
0
 62
7
 10
242.6518999847
 20
839.5080730239
 30
0
 11
242.6518999847
 21
809.5080730239
 31
0
  0
LINE
  8
0
 62
7
 10
254.6518999847
 20
839.5080730239
 30
0
 11
242.6518999847
 21
839.5080730239
 31
0
  0
LINE
  8
0
 62
7
 10
242.6518999847
 20
809.5080730239
 30
0
 11
254.6518999847
 21
809.5080730239
 31
0
  0
LINE
  8
0
 62
7
 10
254.6518999847
 20
809.5080730239
 30
0
 11
254.6518999847
 21
839.5080730239
 31
0
  0
LINE
  8
0
 62
7
 10
215.1518999847
 20
833.4080730239
 30
0
 11
215.1518999847
 21
835.6080730239
 31
0
  0
LINE
  8
0
 62
7
 10
210.7518999847
 20
833.4080730239
 30
0
 11
215.1518999847
 21
833.4080730239
 31
0
  0
LINE
  8
0
 62
7
 10
210.7518999847
 20
829.0080730239
 30
0
 11
210.7518999847
 21
833.4080730239
 31
0
  0
LINE
  8
0
 62
7
 10
208.5518999847
 20
829.0080730239
 30
0
 11
210.7518999847
 21
829.0080730239
 31
0
  0
LINE
  8
0
 62
7
 10
208.5518999847
 20
829.0080730239
 30
0
 11
208.5518999847
 21
833.4080730239
 31
0
  0
LINE
  8
0
 62
7
 10
204.1518999847
 20
833.4080730239
 30
0
 11
208.5518999847
 21
833.4080730239
 31
0
  0
LINE
  8
0
 62
7
 10
204.1518999847
 20
833.4080730239
 30
0
 11
204.1518999847
 21
835.6080730239
 31
0
  0
LINE
  8
0
 62
7
 10
204.1518999847
 20
835.6080730239
 30
0
 11
208.5518999847
 21
835.6080730239
 31
0
  0
LINE
  8
0
 62
7
 10
210.7518999847
 20
835.6080730239
 30
0
 11
215.1518999847
 21
835.6080730239
 31
0
  0
LINE
  8
0
 62
7
 10
208.5518999847
 20
840.0080730239
 30
0
 11
210.7518999847
 21
840.0080730239
 31
0
  0
LINE
  8
0
 62
7
 10
210.7518999847
 20
835.6080730239
 30
0
 11
210.7518999847
 21
840.0080730239
 31
0
  0
LINE
  8
0
 62
7
 10
208.5518999847
 20
835.6080730239
 30
0
 11
208.5518999847
 21
840.0080730239
 31
0
  0
LINE
  8
0
 62
7
 10
271.3268475859
 20
824.5080730239
 30
0
 11
273.0775258269
 21
824.5080730239
 31
0
  0
LINE
  8
0
 62
7
 10
273.0775258269
 20
844.5080730239
 30
0
 11
271.3268475859
 21
844.5080730239
 31
0
  0
LINE
  8
0
 62
7
 10
155.1518999847
 20
822.3080730239
 30
0
 11
155.1518999847
 21
846.7080730239001
 31
0
  0
LINE
  8
0
 62
7
 10
157.1518999847
 20
848.7080730239001
 30
0
 11
162.9220178361
 21
848.7080730239001
 31
0
  0
LINE
  8
0
 62
7
 10
162.9220178361
 20
820.3080730239
 30
0
 11
157.1518999847
 21
820.3080730239
 31
0
  0
LINE
  8
0
 62
7
 10
275.9018999847
 20
839.4515030073
 30
0
 11
275.4485101542
 21
839.3610981543
 31
0
  0
LINE
  8
0
 62
7
 10
275.4485101542
 20
829.6550478936
 30
0
 11
275.9018999847
 21
829.5646430406
 31
0
  0
LINE
  8
0
 62
7
 10
275.9018999847
 20
839.4515030073
 30
0
 11
275.9018999847
 21
829.5646430406
 31
0
  0
LINE
  8
0
 62
7
 10
277.4018999847
 20
829.5646430406
 30
0
 11
277.4018999847
 21
839.4515030073
 31
0
  0
LINE
  8
0
 62
7
 10
271.6536918033
 20
824.0770385412
 30
0
 11
271.7708169595
 21
824.5080730239
 31
0
  0
LINE
  8
0
 62
7
 10
271.7708169595
 20
844.5080730239
 30
0
 11
271.6536918033
 21
844.9391075067
 31
0
  0
LINE
  8
0
 62
7
 10
276.6518999847
 20
842.5080730239
 30
0
 11
275.09752645
 21
842.5080730239
 31
0
  0
LINE
  8
0
 62
7
 10
275.09752645
 20
826.5080730239
 30
0
 11
276.6518999847
 21
826.5080730239
 31
0
  0
LINE
  8
0
 62
7
 10
164.7368737634077
 20
849.5080730238981
 30
0
 11
155.0519798569485
 21
852.0080730238751
 31
0
  0
LINE
  8
0
 62
7
 10
155.0519798569484
 20
817.0080730239249
 30
0
 11
164.7368737634076
 21
819.5080730239019
 31
0
  0
LINE
  8
0
 62
7
 10
154.192659521888
 20
820.4394981179974
 30
0
 11
144.4296994507112
 21
818.2751019785135
 31
0
  0
LINE
  8
0
 62
7
 10
154.1926595219091
 20
848.5766479298979
 30
0
 11
144.4296994507059
 21
850.7410440692626
 31
0
  0
LINE
  8
0
 62
7
 10
201.7143999847
 20
761.220993032
 30
0
 11
199.4018999847
 21
761.7623686834
 31
0
  0
LINE
  8
0
 62
7
 10
205.6518999847
 20
912.6809583487
 30
0
 11
205.6518999847
 21
915.5080730239
 31
0
  0
LINE
  8
0
 62
7
 10
229.6518999847001
 20
915.5080730239
 30
0
 11
229.6518999847
 21
912.6809583487
 31
0
  0
LINE
  8
0
 62
7
 10
153.5038422781
 20
885.4003778693
 30
0
 11
155.9521954063
 21
883.9868205317
 31
0
  0
LINE
  8
0
 62
7
 10
279.3516045629839
 20
883.9868205316907
 30
0
 11
281.7999576912
 21
885.4003778693
 31
0
  0
LINE
  8
0
 62
7
 10
143.9521954063
 20
863.2022108409
 30
0
 11
141.5038422781
 21
864.6157681785001
 31
0
  0
LINE
  8
0
 62
7
 10
293.7999576912
 20
864.6157681785001
 30
0
 11
291.351604563
 21
863.2022108409
 31
0
  0
LINE
  8
0
 62
7
 10
291.3516045629268
 20
805.8139352070423
 30
0
 11
293.7999576912
 21
804.4003778693
 31
0
  0
LINE
  8
0
 62
7
 10
141.5038422781
 20
804.4003778693
 30
0
 11
143.9521954063
 21
805.8139352069778
 31
0
  0
LINE
  8
0
 62
7
 10
281.7999576912
 20
783.6157681785001
 30
0
 11
279.3516045629406
 21
785.0293255161344
 31
0
  0
LINE
  8
0
 62
7
 10
155.9521954063
 20
785.0293255161222
 30
0
 11
153.5038422781
 21
783.6157681785001
 31
0
  0
LINE
  8
0
 62
7
 10
229.6518999847
 20
756.3351876992
 30
0
 11
229.6518999847001
 21
753.5080730239
 31
0
  0
LINE
  8
0
 62
7
 10
205.6518999847
 20
753.5080730239
 30
0
 11
205.6518999847
 21
756.3351876992
 31
0
  0
LINE
  8
0
 62
7
 10
137.3429507162
 20
836.0453616426
 30
0
 11
137.3429507162
 21
835.376541578
 31
0
  0
LINE
  8
0
 62
7
 10
138.6767907314
 20
835.346140666
 30
0
 11
138.6767907314
 21
836.0757625546
 31
0
  0
LINE
  8
0
 62
7
 10
137.7020614895
 20
830.9805696988
 30
0
 11
138.1875260534
 21
830.9805696988
 31
0
  0
LINE
  8
0
 62
7
 10
138.1875260534
 20
828.913307681
 30
0
 11
140.1132338247
 21
828.913307681
 31
0
  0
LINE
  8
0
 62
7
 10
140.1132338247
 20
828.913307681
 30
0
 11
140.1132338247
 21
831.3149797311
 31
0
  0
LINE
  8
0
 62
7
 10
140.5986983886
 20
828.1941361058
 30
0
 11
135.5986983886
 21
828.1941361058
 31
0
  0
LINE
  8
0
 62
7
 10
136.0841629526
 20
828.913307681
 30
0
 11
137.7020614895
 21
828.913307681
 31
0
  0
LINE
  8
0
 62
7
 10
137.7020614895
 20
828.913307681
 30
0
 11
137.7020614895
 21
830.9805696988
 31
0
  0
LINE
  8
0
 62
7
 10
140.5986983886
 20
831.3149797311
 30
0
 11
140.5986983886
 21
828.1941361058
 31
0
  0
LINE
  8
0
 62
7
 10
138.1875260534
 20
830.9805696988
 30
0
 11
138.1875260534
 21
828.913307681
 31
0
  0
LINE
  8
0
 62
7
 10
135.5986983886
 20
828.1941361058
 30
0
 11
135.5986983886
 21
831.162975171
 31
0
  0
LINE
  8
0
 62
7
 10
136.0841629526
 20
831.162975171
 30
0
 11
136.0841629526
 21
828.913307681
 31
0
  0
LINE
  8
0
 62
7
 10
135.5986983886
 20
831.162975171
 30
0
 11
136.0841629526
 21
831.162975171
 31
0
  0
LINE
  8
0
 62
7
 10
140.1132338247
 20
831.3149797311
 30
0
 11
140.5986983886
 21
831.3149797311
 31
0
  0
LINE
  8
0
 62
7
 10
271.7351691166
 20
844.5080730239
 30
0
 11
271.6536918033
 21
844.9391075067
 31
0
  0
LINE
  8
0
 62
7
 10
271.6536918033
 20
824.0770385412
 30
0
 11
271.7351691166
 21
824.5080730239
 31
0
  0
LINE
  8
0
 62
7
 10
300.6518999847
 20
834.5080730239
 30
0
 11
299.7973199976
 21
875.2596633458001
 31
0
  0
LINE
  8
0
 62
7
 10
300.6518999847
 20
834.5080730239
 30
0
 11
299.7973199976
 21
793.7564827021
 31
0
  0
LINE
  8
0
 62
7
 10
135.5064799718
 20
793.7564827021
 30
0
 11
134.6518999847
 21
834.5080730239
 31
0
  0
LINE
  8
0
 62
7
 10
135.5064799718
 20
875.2596633458001
 30
0
 11
134.6518999847
 21
834.5080730239
 31
0
  0
LINE
  8
0
 62
7
 10
76.6518999847
 20
741.5080730239
 30
0
 11
76.6518999847
 21
927.5080730239
 31
0
  0
LINE
  8
0
 62
7
 10
92.6518999847
 20
741.5080730239
 30
0
 11
92.6518999847
 21
927.5080730239
 31
0
  0
LINE
  8
0
 62
7
 10
342.6518999847
 20
741.5080730239
 30
0
 11
342.6518999847
 21
927.5080730239
 31
0
  0
LINE
  8
0
 62
7
 10
326.6518999847
 20
741.5080730239
 30
0
 11
326.6518999847
 21
927.5080730239
 31
0
  0
LINE
  8
0
 62
7
 10
122.1541386243
 20
828.6553442826
 30
0
 11
121.7758424635
 21
828.6561072334
 31
0
  0
LINE
  8
0
 62
7
 10
118.7999286249
 20
831.5080730239
 30
0
 11
95.6518999847
 21
831.5080730239
 31
0
  0
LINE
  8
0
 62
7
 10
95.6518999847
 20
837.5080730239
 30
0
 11
118.7999286249
 21
837.5080730239
 31
0
  0
LINE
  8
0
 62
7
 10
208.8610962606
 20
925.1047026781201
 30
0
 11
208.8610962606
 21
926.6130320109
 31
0
  0
LINE
  8
0
 62
7
 10
208.8610962606
 20
925.1069552573
 30
0
 11
210.6388440387
 21
925.2441578332
 31
0
  0
LINE
  8
0
 62
7
 10
235.69541129
 20
923.7838519774
 30
0
 11
236.3067546303
 21
923.6723332685
 31
0
  0
LINE
  8
0
 62
7
 10
192.6518999847
 20
749.6431057948
 30
0
 11
194.4018999847
 21
749.2907062305
 31
0
  0
LINE
  8
0
 62
7
 10
230.6422810414
 20
744.5496949928
 30
0
 11
224.8140201598
 21
743.9606629459
 31
0
  0
LINE
  8
0
 62
7
 10
208.1609792658
 20
744.0751634368
 30
0
 11
210.5485735674
 21
743.863954631
 31
0
  0
LINE
  8
0
 62
7
 10
192.6518999847
 20
921.9029839065927
 30
0
 11
192.6518999847
 21
920.9641310377907
 31
0
  0
LINE
  8
0
 62
7
 10
242.6518999847
 20
918.0547395618
 30
0
 11
242.6518999847
 21
916.3448724548
 31
0
  0
LINE
  8
0
 62
7
 10
242.6518999847
 20
750.9614064860969
 30
0
 11
242.6518999847
 21
752.671273593
 31
0
  0
LINE
  8
0
 62
7
 10
194.4018999847
 20
746.7268324302
 30
0
 11
192.6518999847
 21
747.1131621413
 31
0
  0
LINE
  8
0
 62
7
 10
192.6518999847
 20
749.6431057948
 30
0
 11
192.6518999847
 21
747.1131621413
 31
0
  0
LINE
  8
0
 62
7
 10
194.4018999847
 20
747.7127881991
 30
0
 11
192.6518999847
 21
748.05201501
 31
0
  0
LINE
  8
0
 62
7
 10
344.6518999847
 20
890.5080730239
 30
0
 11
344.6518999847
 21
778.5080730239
 31
0
  0
LINE
  8
0
 62
7
 10
74.6518999847
 20
890.5080730239
 30
0
 11
74.6518999847
 21
778.5080730239
 31
0
  0
LINE
  8
0
 62
7
 10
243.1278642636
 20
923.0168976228
 30
0
 11
246.110478742
 21
922.0882390641
 31
0
  0
LINE
  8
0
 62
7
 10
221.4281950935
 20
742.2196175452
 30
0
 11
221.9820270036
 21
742.1712341731
 31
0
  0
LINE
  8
0
 62
7
 10
221.9820270036
 20
742.1712341731
 30
0
 11
221.9820270036
 21
742.3165583811
 31
0
  0
LINE
  8
0
 62
7
 10
213.914329246
 20
742.1763845668
 30
0
 11
213.3217729657
 21
742.1172276701
 31
0
  0
LINE
  8
0
 62
7
 10
213.3217729657
 20
742.1172276701
 30
0
 11
213.3217729657
 21
742.3165583811
 31
0
  0
LINE
  8
0
 62
7
 10
204.6615189279
 20
742.8709911666
 30
0
 11
206.5982625548
 21
742.7796947444
 31
0
  0
LINE
  8
0
 62
7
 10
213.3217729657
 20
742.1172276701
 30
0
 11
204.6615189279
 21
742.8709911666
 31
0
  0
LINE
  8
0
 62
7
 10
221.9820270036
 20
742.1712341731
 30
0
 11
230.6422810414
 21
743.0308316387
 31
0
  0
LINE
  8
0
 62
7
 10
230.6422810414
 20
743.0308316387
 30
0
 11
227.4156410212
 21
742.5917442038
 31
0
  0
LINE
  8
0
 62
7
 10
212.021526395
 20
742.2280448245
 30
0
 11
208.125620543
 21
742.4904399127
 31
0
  0
LINE
  8
0
 62
7
 10
208.125620543
 20
742.4904399127
 30
0
 11
209.083427885
 21
742.4776146862
 31
0
  0
LINE
  8
0
 62
7
 10
227.1781794263
 20
742.5096030657001
 30
0
 11
224.0027529458
 21
742.2820167599
 31
0
  0
LINE
  8
0
 62
7
 10
220.8273264652
 20
742.0690145658
 30
0
 11
227.1781794263
 21
742.5096030657001
 31
0
  0
LINE
  8
0
 62
7
 10
232.9351034808
 20
925.77726675
 30
0
 11
235.69541129
 21
925.2804285293
 31
0
  0
LINE
  8
0
 62
7
 10
235.69541129
 20
925.2804285293
 30
0
 11
234.9173379478
 21
924.4914436080001
 31
0
  0
LINE
  8
0
 62
7
 10
234.9173379478
 20
924.4914436080001
 30
0
 11
223.5982233744
 21
926.1644840211
 31
0
  0
LINE
  8
0
 62
7
 10
223.5982233744
 20
925.931183795
 30
0
 11
223.5982233744
 21
926.3719597791001
 31
0
  0
LINE
  8
0
 62
7
 10
223.5982233744
 20
926.3719597791001
 30
0
 11
232.2867090289
 21
925.2501180084
 31
0
  0
LINE
  8
0
 62
7
 10
232.2867090289
 20
925.2501180084
 30
0
 11
232.8054245904
 21
925.7108908177
 31
0
  0
LINE
  8
0
 62
7
 10
236.3067546303
 20
925.2015716291
 30
0
 11
233.3241401519
 21
925.7364392374
 31
0
  0
LINE
  8
0
 62
7
 10
234.9173379478
 20
924.4914436080001
 30
0
 11
234.9173379478
 21
922.9420611874
 31
0
  0
LINE
  8
0
 62
7
 10
235.69541129
 20
925.2804285293
 30
0
 11
235.69541129
 21
923.7507194415
 31
0
  0
LINE
  8
0
 62
7
 10
243.1278642636
 20
923.0168976228
 30
0
 11
243.1278642636
 21
921.4435005444
 31
0
  0
LINE
  8
0
 62
7
 10
255.8363955195
 20
918.8142659882
 30
0
 11
255.8363955195
 21
917.1605037857
 31
0
  0
LINE
  8
0
 62
7
 10
204.6615189279
 20
742.8709911666
 30
0
 11
204.6615189279
 21
744.3847289431
 31
0
  0
LINE
  8
0
 62
7
 10
230.6422810414
 20
743.0308316387
 30
0
 11
230.6422810414
 21
744.5496949928
 31
0
  0
LINE
  8
0
 62
7
 10
187.2323673987
 20
922.0463865359
 30
0
 11
187.2323673987
 21
920.4581866244
 31
0
  0
LINE
  8
0
 62
7
 10
184.7904141401
 20
921.0662276803
 30
0
 11
184.7904141401
 21
919.7330888209
 31
0
  0
LINE
  8
0
 62
7
 10
181.767043439
 20
919.9980439852
 30
0
 11
181.767043439
 21
918.3697369091
 31
0
  0
LINE
  8
0
 62
7
 10
203.3957723008
 20
925.9265647655
 30
0
 11
203.3957723008
 21
924.4548722066764
 31
0
  0
LINE
  8
0
 62
7
 10
200.3724015997
 20
925.4590894386
 30
0
 11
200.3724015997
 21
923.9543474866866
 31
0
  0
LINE
  8
0
 62
7
 10
205.8377255594
 20
926.2930535635001
 30
0
 11
205.8377255594
 21
924.7839219652473
 31
0
  0
LINE
  8
0
 62
7
 10
211.3385805851
 20
926.7866964244
 30
0
 11
211.3385805851
 21
926.8011655745
 31
0
  0
LINE
  8
0
 62
7
 10
211.3385805851
 20
926.8011655745
 30
0
 11
208.8610962606
 21
926.6130320109
 31
0
  0
LINE
  8
0
 62
7
 10
198.2792988066
 20
925.0343150596
 30
0
 11
198.2792988066
 21
923.5458951198663
 31
0
  0
LINE
  8
0
 62
7
 10
179.6739406459
 20
919.0623830039
 30
0
 11
179.6739406459
 21
917.6800136128001
 31
0
  0
LINE
  8
0
 62
7
 10
192.7332224243
 20
923.7252529564
 30
0
 11
192.7332224243
 21
922.1684370967
 31
0
  0
LINE
  8
0
 62
7
 10
190.2557380998
 20
923.0151260441
 30
0
 11
190.2557380998
 21
921.4451949309
 31
0
  0
LINE
  8
0
 62
7
 10
192.7332224243
 20
923.7252529564
 30
0
 11
190.2557380998
 21
923.0151260441
 31
0
  0
LINE
  8
0
 62
7
 10
211.3385805851
 20
926.8011655745
 30
0
 11
211.3385805851
 21
925.7130717088
 31
0
  0
LINE
  8
0
 62
7
 10
223.0795078129
 20
926.8396361436001
 30
0
 11
223.0795078129
 21
926.2104593589
 31
0
  0
LINE
  8
0
 62
7
 10
242.8685064829
 20
923.6464595284
 30
0
 11
242.8685064829
 21
922.0890011862
 31
0
  0
LINE
  8
0
 62
7
 10
178.9762397149
 20
918.5792006986
 30
0
 11
178.9762397149
 21
917.3951239182001
 31
0
  0
LINE
  8
0
 62
7
 10
197.5815978756
 20
924.8090629449
 30
0
 11
197.5815978756
 21
923.4054180966559
 31
0
  0
LINE
  8
0
 62
7
 10
247.0182309746
 20
922.3814059567
 30
0
 11
247.0182309746
 21
922.1553044772001
 31
0
  0
LINE
  8
0
 62
7
 10
236.3067546303
 20
925.2015716291
 30
0
 11
236.3067546303
 21
923.6723332685
 31
0
  0
LINE
  8
0
 62
7
 10
160.9495190823
 20
822.3080730239
 30
0
 11
165.837655367
 21
823.3597971619
 31
0
  0
LINE
  8
0
 62
7
 10
160.9495190823
 20
846.7080730239001
 30
0
 11
165.837655367
 21
845.6563488860001
 31
0
  0
LINE
  8
0
 62
7
 10
197.5888418629
 20
913.8490995412
 30
0
 11
199.3881533313
 21
913.2022230786
 31
0
  0
LINE
  8
0
 62
7
 10
630.6870175192
 20
547.3684130789
 30
0
 11
631.8480712959999
 21
548.0387492657
 31
0
  0
LINE
  8
0
 62
7
 10
610.5259699414
 20
548.0387492657
 30
0
 11
611.6870237181
 21
547.3684130789
 31
0
  0
LINE
  8
0
 62
7
 10
590.1870211253
 20
547.3684130789
 30
0
 11
591.3342354486
 21
548.0307622433001
 31
0
  0
LINE
  8
0
 62
7
 10
570.0398055503
 20
548.0307622433001
 30
0
 11
571.1870198736
 21
547.3684130789
 31
0
  0
LINE
  8
0
 62
7
 10
509.1870208869
 20
547.3684130789
 30
0
 11
510.3480690757
 21
548.0387492657
 31
0
  0
LINE
  8
0
 62
7
 10
489.0259695838
 20
548.0387492657
 30
0
 11
490.1870196352
 21
547.3684130789
 31
0
  0
LINE
  8
0
 62
7
 10
468.6870170424
 20
547.3684130789
 30
0
 11
469.8480708192
 21
548.0387492657
 31
0
  0
LINE
  8
0
 62
7
 10
448.5259694646
 20
548.0387492657
 30
0
 11
449.6870232413
 21
547.3684130789
 31
0
  0
LINE
  8
0
 62
7
 10
615.1870233605
 20
547.3684130789
 30
0
 11
615.1870233605
 21
546.0684134246
 31
0
  0
LINE
  8
0
 62
7
 10
627.1870178769
 20
546.0684134246
 30
0
 11
627.1870178769
 21
547.3684130789
 31
0
  0
LINE
  8
0
 62
7
 10
453.1870228837
 20
547.3684130789
 30
0
 11
453.1870228837
 21
546.0684134246
 31
0
  0
LINE
  8
0
 62
7
 10
465.1870174
 20
546.0684134246
 30
0
 11
465.1870174
 21
547.3684130789
 31
0
  0
LINE
  8
0
 62
7
 10
493.6870192776
 20
547.3684130789
 30
0
 11
493.6870192776
 21
546.0684134246
 31
0
  0
LINE
  8
0
 62
7
 10
505.6870212445
 20
546.0684134246
 30
0
 11
505.6870212445
 21
547.3684130789
 31
0
  0
LINE
  8
0
 62
7
 10
574.687019516
 20
547.3684130789
 30
0
 11
574.687019516
 21
546.0684134246
 31
0
  0
LINE
  8
0
 62
7
 10
586.687021483
 20
546.0684134246
 30
0
 11
586.687021483
 21
547.3684130789
 31
0
  0
LINE
  8
0
 62
7
 10
412.3870176861
 20
596.7184139968
 30
0
 11
449.6870232413
 21
596.7184139968
 31
0
  0
LINE
  8
0
 62
7
 10
468.6870170424
 20
596.7184139968
 30
0
 11
487.1870210061
 21
596.7184139968
 31
0
  0
LINE
  8
0
 62
7
 10
487.1870210061
 20
601.7184092284
 30
0
 11
412.3870176861
 21
601.7184092284
 31
0
  0
LINE
  8
0
 62
7
 10
593.1870197544
 20
595.2184184075001
 30
0
 11
593.1870197544
 21
614.7184206725
 31
0
  0
LINE
  8
0
 62
7
 10
487.1870210061
 20
614.7213748589611
 30
0
 11
487.1870210061
 21
614.7154549942388
 31
0
  0
LINE
  8
0
 62
7
 10
592.6870187411
 20
559.3684150458
 30
0
 11
592.6870187411
 21
591.0684152127
 31
0
  0
LINE
  8
0
 62
7
 10
568.6870203952
 20
591.0684152127
 30
0
 11
568.6870203952
 21
589.0684111596
 31
0
  0
LINE
  8
0
 62
7
 10
511.6870203654
 20
589.0684111596
 30
0
 11
511.6870203654
 21
591.0684152127
 31
0
  0
LINE
  8
0
 62
7
 10
487.6870220194
 20
591.0684152127
 30
0
 11
487.6870220194
 21
559.3684150458
 31
0
  0
LINE
  8
0
 62
7
 10
605.1870179961001
 20
589.0684111596
 30
0
 11
605.1870179961001
 21
590.7184167386
 31
0
  0
LINE
  8
0
 62
7
 10
475.1870227645
 20
590.7184167386
 30
0
 11
475.1870227645
 21
589.0684111596
 31
0
  0
LINE
  8
0
 62
7
 10
595.1870200822
 20
592.2184123278
 30
0
 11
595.1870200822
 21
593.2184143544
 31
0
  0
LINE
  8
0
 62
7
 10
485.1870206783
 20
593.2184143544
 30
0
 11
485.1870206783
 21
592.2184123278
 31
0
  0
LINE
  8
0
 62
7
 10
633.1870225856
 20
559.3684150458
 30
0
 11
633.1870225856
 21
591.0684152127
 31
0
  0
LINE
  8
0
 62
7
 10
609.1870186517
 20
591.0684152127
 30
0
 11
609.1870186517
 21
589.0684111596
 31
0
  0
LINE
  8
0
 62
7
 10
471.1870221088
 20
589.0684111596
 30
0
 11
471.1870221088
 21
591.0684152127
 31
0
  0
LINE
  8
0
 62
7
 10
447.1870181749
 20
591.0684152127
 30
0
 11
447.1870181749
 21
559.3684150458
 31
0
  0
LINE
  8
0
 62
7
 10
476.1870173404
 20
552.3684157611
 30
0
 11
476.1870173404
 21
548.5151915432
 31
0
  0
LINE
  8
0
 62
7
 10
604.1870234201
 20
548.5151915432
 30
0
 11
604.1870234201
 21
552.3684157611
 31
0
  0
LINE
  8
0
 62
7
 10
604.0710625837
 20
547.5562273145
 30
0
 11
603.6499557684
 21
547.931766379
 31
0
  0
LINE
  8
0
 62
7
 10
476.7240849922
 20
547.931766379
 30
0
 11
476.3029781768
 21
547.5562273145
 31
0
  0
LINE
  8
0
 62
7
 10
447.8887436578
 20
492.4753329337
 30
0
 11
447.8514236996
 21
491.7350134433
 31
0
  0
LINE
  8
0
 62
7
 10
604.2651427577
 20
546.5354009151999
 30
0
 11
604.1870234201
 21
548.5150127292
 31
0
  0
LINE
  8
0
 62
7
 10
604.2591003368
 20
546.8924178363
 30
0
 11
604.1870234201
 21
548.5147892118
 31
0
  0
LINE
  8
0
 62
7
 10
476.1870173404
 20
548.5147892118
 30
0
 11
476.1149404237
 21
546.8924178363
 31
0
  0
LINE
  8
0
 62
7
 10
632.1400222967
 20
548.2169224501
 30
0
 11
632.1400222967
 21
557.3684184433
 31
0
  0
LINE
  8
0
 62
7
 10
626.1402336547
 20
548.2169224501
 30
0
 11
626.1402336547
 21
557.3684184433
 31
0
  0
LINE
  8
0
 62
7
 10
632.1400222967
 20
557.3684184433
 30
0
 11
448.2340184639
 21
557.3684184433
 31
0
  0
LINE
  8
0
 62
7
 10
630.6870175192
 20
547.3684130789
 30
0
 11
611.6870237181
 21
547.3684130789
 31
0
  0
LINE
  8
0
 62
7
 10
615.1872319768
 20
548.2169224501
 30
0
 11
615.1872319768
 21
557.3684184433
 31
0
  0
LINE
  8
0
 62
7
 10
610.2340189407
 20
548.2169224501
 30
0
 11
610.2340189407
 21
557.3684184433
 31
0
  0
LINE
  8
0
 62
7
 10
632.1400222967
 20
548.2169224501
 30
0
 11
631.8346528003
 21
548.0619876265999
 31
0
  0
LINE
  8
0
 62
7
 10
585.6402335355
 20
548.2169224501
 30
0
 11
585.6402335355
 21
557.3684184433
 31
0
  0
LINE
  8
0
 62
7
 10
574.6872318575
 20
548.2169224501
 30
0
 11
574.6872318575
 21
557.3684184433
 31
0
  0
LINE
  8
0
 62
7
 10
590.1870211253
 20
547.3684130789
 30
0
 11
571.1870198736
 21
547.3684130789
 31
0
  0
LINE
  8
0
 62
7
 10
591.6400221775
 20
548.2169224501
 30
0
 11
591.6400221775
 21
557.3684184433
 31
0
  0
LINE
  8
0
 62
7
 10
569.7340188214999
 20
548.2169224501
 30
0
 11
569.7340188214999
 21
557.3684184433
 31
0
  0
LINE
  8
0
 62
7
 10
591.6400221775
 20
548.2169224501
 30
0
 11
591.311373342
 21
548.0279906274
 31
0
  0
LINE
  8
0
 62
7
 10
504.6402332971
 20
548.2169224501
 30
0
 11
504.6402332971
 21
557.3684184433
 31
0
  0
LINE
  8
0
 62
7
 10
493.6872316191
 20
548.2169224501
 30
0
 11
493.6872316191
 21
557.3684184433
 31
0
  0
LINE
  8
0
 62
7
 10
509.1870208869
 20
547.3684130789
 30
0
 11
490.1870196352
 21
547.3684130789
 31
0
  0
LINE
  8
0
 62
7
 10
510.640021939
 20
548.2169224501
 30
0
 11
510.640021939
 21
557.3684184433
 31
0
  0
LINE
  8
0
 62
7
 10
488.7340185831
 20
548.2169224501
 30
0
 11
488.7340185831
 21
557.3684184433
 31
0
  0
LINE
  8
0
 62
7
 10
510.640021939
 20
548.2169224501
 30
0
 11
510.3346524427
 21
548.0619876265999
 31
0
  0
LINE
  8
0
 62
7
 10
470.1400218198
 20
548.2169224501
 30
0
 11
470.1400218198
 21
557.3684184433
 31
0
  0
LINE
  8
0
 62
7
 10
464.1402331779
 20
548.2169224501
 30
0
 11
464.1402331779
 21
557.3684184433
 31
0
  0
LINE
  8
0
 62
7
 10
449.6870232413
 20
547.3684130789
 30
0
 11
468.6870170424
 21
547.3684130789
 31
0
  0
LINE
  8
0
 62
7
 10
453.1872314999
 20
548.2169224501
 30
0
 11
453.1872314999
 21
557.3684184433
 31
0
  0
LINE
  8
0
 62
7
 10
448.2340184639
 20
548.2169224501
 30
0
 11
448.2340184639
 21
557.3684184433
 31
0
  0
LINE
  8
0
 62
7
 10
470.1400218198
 20
548.2169224501
 30
0
 11
469.8346523235
 21
548.0619876265999
 31
0
  0
LINE
  8
0
 62
7
 10
611.6870237181
 20
599.068416524
 30
0
 11
611.6870237181
 21
591.0684152127
 31
0
  0
LINE
  8
0
 62
7
 10
621.1870206187
 20
598.2199146033
 30
0
 11
621.1870206187
 21
591.0684152127
 31
0
  0
LINE
  8
0
 62
7
 10
630.6870175192
 20
599.068416524
 30
0
 11
611.6870237181
 21
599.068416524
 31
0
  0
LINE
  8
0
 62
7
 10
630.6870175192
 20
599.068416524
 30
0
 11
630.6870175192
 21
591.0684152127
 31
0
  0
LINE
  8
0
 62
7
 10
627.1870178769
 20
546.0684134246
 30
0
 11
615.1870233605
 21
546.0684134246
 31
0
  0
LINE
  8
0
 62
7
 10
449.6870232413
 20
599.068416524
 30
0
 11
449.6870232413
 21
591.0684152127
 31
0
  0
LINE
  8
0
 62
7
 10
459.1870201419
 20
598.2199146033
 30
0
 11
459.1870201419
 21
591.0684152127
 31
0
  0
LINE
  8
0
 62
7
 10
468.6870170424
 20
599.068416524
 30
0
 11
449.6870232413
 21
599.068416524
 31
0
  0
LINE
  8
0
 62
7
 10
468.6870170424
 20
599.068416524
 30
0
 11
468.6870170424
 21
591.0684152127
 31
0
  0
LINE
  8
0
 62
7
 10
465.1870174
 20
546.0684134246
 30
0
 11
453.1870228837
 21
546.0684134246
 31
0
  0
LINE
  8
0
 62
7
 10
499.6870202611
 20
598.2199146033
 30
0
 11
499.6870202611
 21
591.0684152127
 31
0
  0
LINE
  8
0
 62
7
 10
509.1870208869
 20
599.068416524
 30
0
 11
509.1870208869
 21
591.0684152127
 31
0
  0
LINE
  8
0
 62
7
 10
509.1870208869
 20
599.068416524
 30
0
 11
490.1870196352
 21
599.068416524
 31
0
  0
LINE
  8
0
 62
7
 10
490.1870196352
 20
599.068416524
 30
0
 11
490.1870196352
 21
591.0684152127
 31
0
  0
LINE
  8
0
 62
7
 10
505.6870212445
 20
546.0684134246
 30
0
 11
493.6870192776
 21
546.0684134246
 31
0
  0
LINE
  8
0
 62
7
 10
580.6870204995
 20
598.2199146033
 30
0
 11
580.6870204995
 21
591.0684152127
 31
0
  0
LINE
  8
0
 62
7
 10
590.1870211253
 20
599.068416524
 30
0
 11
590.1870211253
 21
591.0684152127
 31
0
  0
LINE
  8
0
 62
7
 10
590.1870211253
 20
599.068416524
 30
0
 11
571.1870198736
 21
599.068416524
 31
0
  0
LINE
  8
0
 62
7
 10
571.1870198736
 20
599.068416524
 30
0
 11
571.1870198736
 21
591.0684152127
 31
0
  0
LINE
  8
0
 62
7
 10
586.687021483
 20
546.0684134246
 30
0
 11
574.687019516
 21
546.0684134246
 31
0
  0
LINE
  8
0
 62
7
 10
412.3870176861
 20
601.7184092284
 30
0
 11
412.3870176861
 21
596.7184139968
 31
0
  0
LINE
  8
0
 62
7
 10
528.6233840177
 20
614.7184206725
 30
0
 11
551.7506567428
 21
614.7184206725
 31
0
  0
LINE
  8
0
 62
7
 10
528.6233840177
 20
612.7184166194001
 30
0
 11
551.7506567428
 21
612.7184166194001
 31
0
  0
LINE
  8
0
 62
7
 10
487.1870210061
 20
595.2184184075001
 30
0
 11
490.1870196352
 21
595.2184184075001
 31
0
  0
LINE
  8
0
 62
7
 10
509.1870208869
 20
595.2184184075001
 30
0
 11
571.1870198736
 21
595.2184184075001
 31
0
  0
LINE
  8
0
 62
7
 10
590.1870211253
 20
595.2184184075001
 30
0
 11
593.1870197544
 21
595.2184184075001
 31
0
  0
LINE
  8
0
 62
7
 10
494.1870203803
 20
621.7184149266
 30
0
 11
586.1870203803001
 21
621.7184149266
 31
0
  0
LINE
  8
0
 62
7
 10
515.1870200077
 20
622.7184219838
 30
0
 11
515.1870200077
 21
621.7184199572
 31
0
  0
LINE
  8
0
 62
7
 10
513.1870196799
 20
622.7184219838
 30
0
 11
567.1870210806
 21
622.7184219838
 31
0
  0
LINE
  8
0
 62
7
 10
545.1870202685
 20
622.7184219838
 30
0
 11
545.1870202685
 21
621.7184199572
 31
0
  0
LINE
  8
0
 62
7
 10
563.9426359573999
 20
622.7184219838
 30
0
 11
563.9426359573999
 21
621.7184199572
 31
0
  0
LINE
  8
0
 62
7
 10
565.171592463
 20
622.7184219838
 30
0
 11
565.171592463
 21
621.7184199572
 31
0
  0
LINE
  8
0
 62
7
 10
561.1141720454
 20
622.7184219838
 30
0
 11
561.1141720454
 21
621.7184199572
 31
0
  0
LINE
  8
0
 62
7
 10
562.343128551
 20
622.7184219838
 30
0
 11
562.343128551
 21
621.7184199572
 31
0
  0
LINE
  8
0
 62
7
 10
558.3434333692001
 20
622.7184219838
 30
0
 11
558.3434333692001
 21
621.7184199572
 31
0
  0
LINE
  8
0
 62
7
 10
559.5723898748
 20
622.7184219838
 30
0
 11
559.5723898748
 21
621.7184199572
 31
0
  0
LINE
  8
0
 62
7
 10
554.9426354135001
 20
622.7184219838
 30
0
 11
554.9426354135001
 21
621.7184199572
 31
0
  0
LINE
  8
0
 62
7
 10
556.1715909878
 20
622.7184219838
 30
0
 11
556.1715909878
 21
621.7184199572
 31
0
  0
LINE
  8
0
 62
7
 10
552.1141724328001
 20
622.7184219838
 30
0
 11
552.1141724328001
 21
621.7184199572
 31
0
  0
LINE
  8
0
 62
7
 10
553.3431289384
 20
622.7184219838
 30
0
 11
553.3431289384
 21
621.7184199572
 31
0
  0
LINE
  8
0
 62
7
 10
549.3434328253001
 20
622.7184219838
 30
0
 11
549.3434328253001
 21
621.7184199572
 31
0
  0
LINE
  8
0
 62
7
 10
550.5723902623
 20
622.7184219838
 30
0
 11
550.5723902623
 21
621.7184199572
 31
0
  0
LINE
  8
0
 62
7
 10
562.7471958885
 20
622.7184219838
 30
0
 11
562.7471958885
 21
621.7184199572
 31
0
  0
LINE
  8
0
 62
7
 10
559.9764553497
 20
622.7184219838
 30
0
 11
559.9764553497
 21
621.7184199572
 31
0
  0
LINE
  8
0
 62
7
 10
553.7471953446
 20
622.7184219838
 30
0
 11
553.7471953446
 21
621.7184199572
 31
0
  0
LINE
  8
0
 62
7
 10
550.9764557371
 20
622.7184219838
 30
0
 11
550.9764557371
 21
621.7184199572
 31
0
  0
LINE
  8
0
 62
7
 10
563.7862221936
 20
622.7184219838
 30
0
 11
563.7862221936
 21
621.7184199572
 31
0
  0
LINE
  8
0
 62
7
 10
554.786222581
 20
622.7184219838
 30
0
 11
554.786222581
 21
621.7184199572
 31
0
  0
LINE
  8
0
 62
7
 10
561.0154835174
 20
622.7184219838
 30
0
 11
561.0154835174
 21
621.7184199572
 31
0
  0
LINE
  8
0
 62
7
 10
552.0154829735
 20
622.7184219838
 30
0
 11
552.0154829735
 21
621.7184199572
 31
0
  0
LINE
  8
0
 62
7
 10
563.3244333456
 20
622.7184219838
 30
0
 11
563.3244333456
 21
621.7184199572
 31
0
  0
LINE
  8
0
 62
7
 10
560.6114180426
 20
622.7184219838
 30
0
 11
560.6114180426
 21
621.7184199572
 31
0
  0
LINE
  8
0
 62
7
 10
554.3244328017
 20
622.7184219838
 30
0
 11
554.3244328017
 21
621.7184199572
 31
0
  0
LINE
  8
0
 62
7
 10
551.6114174987
 20
622.7184219838
 30
0
 11
551.6114174987
 21
621.7184199572
 31
0
  0
LINE
  8
0
 62
7
 10
513.1870196799
 20
622.7184219838
 30
0
 11
513.1870196799
 21
621.7184199572
 31
0
  0
LINE
  8
0
 62
7
 10
567.1870210806
 20
622.7184219838
 30
0
 11
567.1870210806
 21
621.7184199572
 31
0
  0
LINE
  8
0
 62
7
 10
509.1084470639
 20
584.068415928
 30
0
 11
571.2655936966
 21
584.068415928
 31
0
  0
LINE
  8
0
 62
7
 10
633.1870225856
 20
572.068413961
 30
0
 11
447.1870181749
 21
572.068413961
 31
0
  0
LINE
  8
0
 62
7
 10
592.6870187411
 20
591.0684152127
 30
0
 11
568.6870203952
 21
591.0684152127
 31
0
  0
LINE
  8
0
 62
7
 10
511.6870203654
 20
591.0684152127
 30
0
 11
487.6870220194
 21
591.0684152127
 31
0
  0
LINE
  8
0
 62
7
 10
511.6800373087
 20
589.0684111596
 30
0
 11
568.6940034518
 21
589.0684111596
 31
0
  0
LINE
  8
0
 62
7
 10
592.6870187411
 20
584.068415928
 30
0
 11
619.3891731689
 21
584.068415928
 31
0
  0
LINE
  8
0
 62
7
 10
460.9848675916
 20
584.068415928
 30
0
 11
487.6870220194
 21
584.068415928
 31
0
  0
LINE
  8
0
 62
7
 10
534.6380426215
 20
589.0684111596
 30
0
 11
534.6380426215
 21
590.7184167444871
 31
0
  0
LINE
  8
0
 62
7
 10
532.1870200003
 20
592.2184123278
 30
0
 11
532.1870200003
 21
595.2184184075001
 31
0
  0
LINE
  8
0
 62
7
 10
548.1870207602
 20
592.2184123278
 30
0
 11
548.1870207602
 21
595.2184184075001
 31
0
  0
LINE
  8
0
 62
7
 10
476.6870183537
 20
592.2184123278
 30
0
 11
490.1870196352
 21
592.2184123278
 31
0
  0
LINE
  8
0
 62
7
 10
509.1870208869
 20
592.2184123278
 30
0
 11
533.3350571475251
 21
592.2184123278
 31
0
  0
LINE
  8
0
 62
7
 10
590.1870211253
 20
592.2184123278
 30
0
 11
603.6870224068
 21
592.2184123278
 31
0
  0
LINE
  8
0
 62
7
 10
592.6870187411
 20
589.0684111596
 30
0
 11
615.5450014064001
 21
589.0684111596
 31
0
  0
LINE
  8
0
 62
7
 10
464.8290393541
 20
589.0684111596
 30
0
 11
487.6870220194
 21
589.0684111596
 31
0
  0
LINE
  8
0
 62
7
 10
633.1870225856
 20
591.0684152127
 30
0
 11
609.1870186517
 21
591.0684152127
 31
0
  0
LINE
  8
0
 62
7
 10
471.1870221088
 20
591.0684152127
 30
0
 11
447.1870181749
 21
591.0684152127
 31
0
  0
LINE
  8
0
 62
7
 10
494.2834829579
 20
397.0568201125
 30
0
 11
497.8474085817
 21
400.6247392476
 31
0
  0
LINE
  8
0
 62
7
 10
484.4433447013
 20
414.0288031281
 30
0
 11
480.8754255662
 21
410.4648775042
 31
0
  0
LINE
  8
0
 62
7
 10
480.8754255662
 20
502.271952349
 30
0
 11
484.4433447013
 21
498.7080267251
 31
0
  0
LINE
  8
0
 62
7
 10
497.8474085817
 20
512.1120906056
 30
0
 11
494.2834829579
 21
515.6800097407
 31
0
  0
LINE
  8
0
 62
7
 10
595.9306960592001
 20
414.0288031281
 30
0
 11
599.4986151943
 21
410.4648775042
 31
0
  0
LINE
  8
0
 62
7
 10
586.0905578027
 20
397.0568201125
 30
0
 11
582.5266321788
 21
400.6247392476
 31
0
  0
LINE
  8
0
 62
7
 10
582.5266321788
 20
512.1120906056
 30
0
 11
586.0905578027
 21
515.6800097407
 31
0
  0
LINE
  8
0
 62
7
 10
599.4986151943
 20
502.271952349
 30
0
 11
595.9306960592001
 21
498.7080267251
 31
0
  0
LINE
  8
0
 62
7
 10
628.6210087726
 20
496.075900513
 30
0
 11
629.4296649883
 21
485.3718357713
 31
0
  0
LINE
  8
0
 62
7
 10
624.7854647825
 20
496.075900513
 30
0
 11
624.3233276198
 21
495.9659709216
 31
0
  0
LINE
  8
0
 62
7
 10
449.9543649743
 20
478.8598364771
 30
0
 11
449.6264947245
 21
481.3684152991
 31
0
  0
LINE
  8
0
 62
7
 10
449.6264947245
 20
481.3684152991
 30
0
 11
450.2286431978
 21
488.8684137345
 31
0
  0
LINE
  8
0
 62
7
 10
449.3533936927
 20
488.8684137345
 30
0
 11
449.7378585527
 21
496.3684140325
 31
0
  0
LINE
  8
0
 62
7
 10
588.5916506538
 20
367.0878394128
 30
0
 11
591.2323077808001
 21
368.3160825253
 31
0
  0
LINE
  8
0
 62
7
 10
489.1417329798
 20
368.3160825253
 30
0
 11
491.7823901067
 21
367.0878394128
 31
0
  0
LINE
  8
0
 62
7
 10
543.3040122168
 20
363.420663643
 30
0
 11
542.6870203244
 21
356.3684134365
 31
0
  0
LINE
  8
0
 62
7
 10
537.6870204361001
 20
356.3684134365
 30
0
 11
542.6870203244
 21
356.3684134365
 31
0
  0
LINE
  8
0
 62
7
 10
537.0700285437
 20
363.420663643
 30
0
 11
537.6870204361001
 21
356.3684134365
 31
0
  0
LINE
  8
0
 62
7
 10
626.0791165421
 20
493.5749529482
 30
0
 11
625.8083922455
 21
492.2537675679
 31
0
  0
LINE
  8
0
 62
7
 10
624.9534977267
 20
494.3907393695
 30
0
 11
625.1094383786
 21
494.8754443408
 31
0
  0
LINE
  8
0
 62
7
 10
628.6958424041
 20
491.5741926611
 30
0
 11
627.7671871374
 21
491.5741926611
 31
0
  0
LINE
  8
0
 62
7
 10
625.1094383786
 20
494.8754443408
 30
0
 11
624.8404798696
 21
494.8754443408
 31
0
  0
LINE
  8
0
 62
7
 10
627.2186604927
 20
489.1732803167
 30
0
 11
627.2090939472
 21
489.1732803167
 31
0
  0
LINE
  8
0
 62
7
 10
626.4044908474
 20
496.075900513
 30
0
 11
624.7854647825
 21
496.075900513
 31
0
  0
LINE
  8
0
 62
7
 10
627.1798951218
 20
493.7750271142
 30
0
 11
626.1846614668
 21
493.7750271142
 31
0
  0
LINE
  8
0
 62
7
 10
627.7671871374
 20
491.5741926611
 30
0
 11
626.2657833884
 21
491.5741926611
 31
0
  0
LINE
  8
0
 62
7
 10
629.8464653680001
 20
506.3684156717
 30
0
 11
629.0601534436
 21
509.3684143008
 31
0
  0
LINE
  8
0
 62
7
 10
627.8557223866
 20
513.3684149564
 30
0
 11
626.8339795659
 21
516.3684135855
 31
0
  0
LINE
  8
0
 62
7
 10
628.7561474035
 20
513.3684149564
 30
0
 11
627.8557223866
 21
513.3684149564
 31
0
  0
LINE
  8
0
 62
7
 10
629.0601534436
 20
509.3684143008
 30
0
 11
629.8454520891
 21
509.3684143008
 31
0
  0
LINE
  8
0
 62
7
 10
623.7336886714001
 20
511.3684146286
 30
0
 11
622.0238176773
 21
511.3684146286
 31
0
  0
LINE
  8
0
 62
7
 10
629.8464653680001
 20
506.3684156717
 30
0
 11
628.2876176427
 21
506.3684156717
 31
0
  0
LINE
  8
0
 62
7
 10
626.8339795659
 20
516.3684135855
 30
0
 11
625.2185819337
 21
516.3684135855
 31
0
  0
LINE
  8
0
 62
7
 10
456.6403520892
 20
511.3684146286
 30
0
 11
458.3502230833
 21
511.3684146286
 31
0
  0
LINE
  8
0
 62
7
 10
453.5400611947
 20
516.3684135855
 30
0
 11
455.1554588268
 21
516.3684135855
 31
0
  0
LINE
  8
0
 62
7
 10
450.5275753925
 20
506.3684156717
 30
0
 11
452.0864231179
 21
506.3684156717
 31
0
  0
LINE
  8
0
 62
7
 10
451.313887317
 20
509.3684143008
 30
0
 11
450.5285886715
 21
509.3684143008
 31
0
  0
LINE
  8
0
 62
7
 10
452.5183183739
 20
513.3684149564
 30
0
 11
451.6093326399
 21
513.3684149564
 31
0
  0
LINE
  8
0
 62
7
 10
453.5400611947
 20
516.3684135855
 30
0
 11
452.5183183739
 21
513.3684149564
 31
0
  0
LINE
  8
0
 62
7
 10
450.5275753925
 20
506.3684156717
 30
0
 11
451.313887317
 21
509.3684143008
 31
0
  0
LINE
  8
0
 62
7
 10
631.4562154601
 20
485.3718357713
 30
0
 11
630.959373493
 21
485.3718357713
 31
0
  0
LINE
  8
0
 62
7
 10
630.959373493
 20
485.3718357713
 30
0
 11
630.1703942607001
 21
496.075900513
 31
0
  0
LINE
  8
0
 62
7
 10
630.1703942607001
 20
496.075900513
 30
0
 11
631.8434295843
 21
496.075900513
 31
0
  0
LINE
  8
0
 62
7
 10
631.8434295843
 20
496.075900513
 30
0
 11
632.0509059022
 21
494.182588774
 31
0
  0
LINE
  8
0
 62
7
 10
632.0509059022
 20
494.182588774
 30
0
 11
630.9290645311
 21
494.182588774
 31
0
  0
LINE
  8
0
 62
7
 10
630.9290645311
 20
494.182588774
 30
0
 11
631.3898382375
 21
487.6727073074
 31
0
  0
LINE
  8
0
 62
7
 10
630.8805165479
 20
482.0705803663
 30
0
 11
631.4153862784
 21
482.0705803663
 31
0
  0
LINE
  8
0
 62
7
 10
631.1108959506
 20
477.7689466805
 30
0
 11
630.6912568996
 21
477.7689466805
 31
0
  0
LINE
  8
0
 62
7
 10
630.8805165479
 20
482.0705803663
 30
0
 11
629.5648632238
 21
482.0705803663
 31
0
  0
LINE
  8
0
 62
7
 10
630.959373493
 20
485.3718357713
 30
0
 11
629.4296649883
 21
485.3718357713
 31
0
  0
LINE
  8
0
 62
7
 10
630.1703942607001
 20
496.075900513
 30
0
 11
628.6210087726
 21
496.075900513
 31
0
  0
LINE
  8
0
 62
7
 10
631.6240323374
 20
476.5759019733
 30
0
 11
630.9650880883
 21
476.5759019733
 31
0
  0
LINE
  8
0
 62
7
 10
631.9325459788
 20
489.1732803167
 30
0
 11
631.2836302111
 21
489.1732803167
 31
0
  0
LINE
  8
0
 62
7
 10
448.7097752879
 20
488.8684137345
 30
0
 11
448.1205237696
 21
481.3684152991
 31
0
  0
LINE
  8
0
 62
7
 10
448.7097752879
 20
488.8684137345
 30
0
 11
450.2286431978
 21
488.8684137345
 31
0
  0
LINE
  8
0
 62
7
 10
448.1205237696
 20
481.3684152991
 30
0
 11
449.6264947245
 21
481.3684152991
 31
0
  0
LINE
  8
0
 62
7
 10
448.1205237696
 20
481.3684152991
 30
0
 11
449.0871993492
 21
473.8684150011
 31
0
  0
LINE
  8
0
 62
7
 10
448.2284677813
 20
496.3684140325
 30
0
 11
448.1552136729
 21
495.0975200713
 31
0
  0
LINE
  8
0
 62
7
 10
448.2284677813
 20
496.3684140325
 30
0
 11
447.8501794527
 21
488.8684137345
 31
0
  0
LINE
  8
0
 62
7
 10
447.8501794527
 20
488.8684137345
 30
0
 11
448.7097752879
 21
488.8684137345
 31
0
  0
LINE
  8
0
 62
7
 10
448.5051450918
 20
473.8684150011
 30
0
 11
448.7578166316
 21
472.4328855605
 31
0
  0
LINE
  8
0
 62
7
 10
448.2571748684
 20
475.8684153289
 30
0
 11
448.5557419846
 21
473.8684150011
 31
0
  0
LINE
  8
0
 62
7
 10
448.5416380355
 20
475.8684153289
 30
0
 11
448.2571748684
 21
475.8684153289
 31
0
  0
LINE
  8
0
 62
7
 10
447.9609621356
 20
481.3684152991
 30
0
 11
448.5416380355
 21
475.8684153289
 31
0
  0
LINE
  8
0
 62
7
 10
448.1885475705
 20
486.8684152693
 30
0
 11
447.9609621356
 21
481.3684152991
 31
0
  0
LINE
  8
0
 62
7
 10
447.7479649375
 20
486.8684152693
 30
0
 11
448.1885475705
 21
486.8684152693
 31
0
  0
LINE
  8
0
 62
7
 10
447.8829545567
 20
492.3684133769
 30
0
 11
447.7479649375
 21
486.8684152693
 31
0
  0
LINE
  8
0
 62
7
 10
447.8829545567
 20
492.3684133769
 30
0
 11
447.7416468451
 21
486.8684152693
 31
0
  0
LINE
  8
0
 62
7
 10
449.0871993492
 20
473.8684150011
 30
0
 11
448.5051450918
 21
473.8684150011
 31
0
  0
LINE
  8
0
 62
7
 10
632.0466218183
 20
479.2695178271
 30
0
 11
631.5033776353
 21
479.2695178271
 31
0
  0
LINE
  8
0
 62
7
 10
632.1664271543
 20
486.8724050552
 30
0
 11
631.6669402311001
 21
486.8724050552
 31
0
  0
LINE
  8
0
 62
7
 10
632.3190597484
 20
483.2710365386
 30
0
 11
630.8136550377
 21
483.2710365386
 31
0
  0
LINE
  8
0
 62
7
 10
468.1870234797
 20
397.5041641475
 30
0
 11
468.1870234797
 21
396.8684135557
 31
0
  0
LINE
  8
0
 62
7
 10
468.7114996503
 20
396.8684135557
 30
0
 11
468.1870234797
 21
396.8684135557
 31
0
  0
LINE
  8
0
 62
7
 10
447.8744981477
 20
482.618414107
 30
0
 11
447.9767722676
 21
480.1184146286
 31
0
  0
LINE
  8
0
 62
7
 10
447.7607128809
 20
482.618414107
 30
0
 11
447.6982621143
 21
486.8684152693
 31
0
  0
LINE
  8
0
 62
7
 10
447.8887660096
 20
480.1184146286
 30
0
 11
448.2625020335
 21
475.8684153289
 31
0
  0
LINE
  8
0
 62
7
 10
447.7607128809
 20
482.618414107
 30
0
 11
447.8744981477
 21
482.618414107
 31
0
  0
LINE
  8
0
 62
7
 10
448.2284677813
 20
496.3684140325
 30
0
 11
449.7378585527
 21
496.3684140325
 31
0
  0
LINE
  8
0
 62
7
 10
591.2323077808001
 20
368.3160825253
 30
0
 11
590.1870211253
 21
356.3684134365
 31
0
  0
LINE
  8
0
 62
7
 10
490.1870196352
 20
356.3684134365
 30
0
 11
537.6870204361001
 21
356.3684134365
 31
0
  0
LINE
  8
0
 62
7
 10
542.6870203244
 20
356.3684134365
 30
0
 11
590.1870211253
 21
356.3684134365
 31
0
  0
LINE
  8
0
 62
7
 10
489.1417329798
 20
368.3160825253
 30
0
 11
490.1870196352
 21
356.3684134365
 31
0
  0
LINE
  8
0
 62
7
 10
632.4407873342
 20
486.9934956164
 30
0
 11
632.4801114986
 21
488.4909673215
 31
0
  0
LINE
  8
0
 62
7
 10
631.7861346195
 20
476.5492996753
 30
0
 11
630.9710038493
 21
476.5492996753
 31
0
  0
LINE
  8
0
 62
7
 10
632.4801114986
 20
488.4909673215
 30
0
 11
632.2607291529
 21
488.4909673215
 31
0
  0
LINE
  8
0
 62
7
 10
551.7506567428
 20
614.7184206725
 30
0
 11
551.7506567428
 21
612.7184166194001
 31
0
  0
LINE
  8
0
 62
7
 10
528.6233840177
 20
612.7184166194001
 30
0
 11
528.6233840177
 21
614.7184206725
 31
0
  0
LINE
  8
0
 62
7
 10
459.1870201419
 20
587.0684220076
 30
0
 11
459.1870201419
 21
585.8401192904
 31
0
  0
LINE
  8
0
 62
7
 10
580.9386117051
 20
559.3684150458
 30
0
 11
580.9386117051
 21
572.068413961
 31
0
  0
LINE
  8
0
 62
7
 10
580.9386117051
 20
559.3684150458
 30
0
 11
499.4354290555
 21
559.3684150458
 31
0
  0
LINE
  8
0
 62
7
 10
499.4354290555
 20
559.3684150458
 30
0
 11
499.4354290555
 21
572.068413961
 31
0
  0
LINE
  8
0
 62
2
  6
DASHDOT
 10
477.8923176911
 20
518.6631176157
 30
0
 11
502.4934776793
 21
494.0619576276
 31
0
  0
LINE
  8
0
 62
2
  6
DASHDOT
 10
603.8010561747
 20
519.982450721
 30
0
 11
577.656933693
 21
493.8383282393
 31
0
  0
LINE
  8
0
 62
2
  6
DASHDOT
 10
602.7734143704
 20
393.7820209364
 30
0
 11
576.8141697429001
 21
419.741265564
 31
0
  0
LINE
  8
0
 62
2
  6
DASHDOT
 10
477.6845249567
 20
393.8659195031
 30
0
 11
502.3760919665
 21
418.5574865129
 31
0
  0
LINE
  8
0
 62
7
 10
570.2947155349
 20
587.0684223776809
 30
0
 11
570.2947155349
 21
584.0684149266
 31
0
  0
LINE
  8
0
 62
7
 10
510.0793252257
 20
587.0684149266
 30
0
 11
510.0793252257
 21
584.0684149266
 31
0
  0
LINE
  8
0
 62
7
 10
459.1870203803
 20
587.0684149266
 30
0
 11
459.1870203803
 21
584.1628700773
 31
0
  0
LINE
  8
1
 62
2
  6
DASHDOT
 10
61.936206403
 20
834.5080730239
 30
0
 11
354.5698325009
 21
834.5080730239
 31
0
  0
LINE
  8
1
 62
2
  6
DASHDOT
 10
217.6518999847
 20
942.6954231758
 30
0
 11
217.6518999847
 21
724.5503564483
 31
0
  0
LINE
  8
1
 62
2
  6
DASHDOT
 10
444.6870203803001
 20
456.3684149266
 30
0
 11
635.6870203803001
 21
456.3684149266
 31
0
  0
LINE
  8
1
 62
2
  6
DASHDOT
 10
540.1870203803001
 20
638.2576103378
 30
0
 11
540.1870203803001
 21
347.505006891
 31
0
  0
LINE
  8
1
 62
2
  6
DASHDOT
 10
61.936206403
 20
456.3684149266
 30
0
 11
354.5698325009
 21
456.3684149266
 31
0
  0
LINE
  8
1
 62
2
  6
DASHDOT
 10
217.6518999847
 20
638.2576103378
 30
0
 11
217.6518999847
 21
347.505006891
 31
0
  0
LINE
  8
0
 62
7
 10
134.6518999847
 20
559.3688546249005
 30
0
 11
134.6518999847
 21
559.3684149888995
 31
0
  0
LINE
  8
0
 62
7
 10
136.6523396835177
 20
557.3684149266001
 30
0
 11
136.6519000464823
 21
557.3684149266001
 31
0
  0
LINE
  8
1
 62
7
 10
198.5609444462023
 20
611.4515317801801
 30
0
 11
202.6518999847
 21
595.2184149266
 31
0
  0
LINE
  8
0
 62
7
 10
298.6514602851265
 20
557.3684149266001
 30
0
 11
136.6523396835177
 21
557.3684149266001
 31
0
  0
LINE
  8
0
 62
7
 10
300.6518999847
 20
559.3688546256561
 30
0
 11
300.6518999847003
 21
582.0684149266
 31
0
  0
LINE
  8
0
 62
7
 10
487.1870210061
 20
614.7154549942388
 30
0
 11
487.1870210061
 21
595.2184184075001
 31
0
  0
LINE
  8
1
 62
7
 10
136.5341871635
 20
875.0080730239
 30
0
 11
142.0190147208
 21
865.5080730239
 31
0
  0
LINE
  8
1
 62
7
 10
142.0190147208
 20
865.5080730239
 30
0
 11
152.9886698354
 21
865.5080730239
 31
0
  0
LINE
  8
1
 62
7
 10
152.9886698354
 20
865.5080730239
 30
0
 11
158.4734973927
 21
875.0080730239
 31
0
  0
LINE
  8
1
 62
7
 10
158.4734973927
 20
875.0080730239
 30
0
 11
152.9886698354
 21
884.5080730239
 31
0
  0
LINE
  8
1
 62
7
 10
152.9886698354
 20
884.5080730239
 30
0
 11
142.0190147208
 21
884.5080730239
 31
0
  0
LINE
  8
1
 62
7
 10
142.0190147208
 20
884.5080730239
 30
0
 11
136.5341871635
 21
875.0080730239
 31
0
  0
LINE
  8
1
 62
7
 10
136.5341871635
 20
794.0080730239
 30
0
 11
142.0190147208
 21
784.5080730239
 31
0
  0
LINE
  8
1
 62
7
 10
142.0190147208
 20
784.5080730239
 30
0
 11
152.9886698354
 21
784.5080730239
 31
0
  0
LINE
  8
1
 62
7
 10
152.9886698354
 20
784.5080730239
 30
0
 11
158.4734973927
 21
794.0080730239
 31
0
  0
LINE
  8
1
 62
7
 10
158.4734973927
 20
794.0080730239
 30
0
 11
152.9886698354
 21
803.5080730239
 31
0
  0
LINE
  8
1
 62
7
 10
152.9886698354
 20
803.5080730239
 30
0
 11
142.0190147208
 21
803.5080730239
 31
0
  0
LINE
  8
1
 62
7
 10
142.0190147208
 20
803.5080730239
 30
0
 11
136.5341871635
 21
794.0080730239
 31
0
  0
LINE
  8
1
 62
7
 10
206.6822448701
 20
753.5080730239
 30
0
 11
212.1670724274
 21
744.0080730239
 31
0
  0
LINE
  8
1
 62
7
 10
212.1670724274
 20
744.0080730239
 30
0
 11
223.136727542
 21
744.0080730239
 31
0
  0
LINE
  8
1
 62
7
 10
223.136727542
 20
744.0080730239
 30
0
 11
228.6215550993
 21
753.5080730239
 31
0
  0
LINE
  8
1
 62
7
 10
228.6215550993
 20
753.5080730239
 30
0
 11
223.136727542
 21
763.0080730239
 31
0
  0
LINE
  8
1
 62
7
 10
223.136727542
 20
763.0080730239
 30
0
 11
212.1670724274
 21
763.0080730239
 31
0
  0
LINE
  8
1
 62
7
 10
212.1670724274
 20
763.0080730239
 30
0
 11
206.6822448701
 21
753.5080730239
 31
0
  0
LINE
  8
1
 62
7
 10
206.6822448701
 20
915.5080730239
 30
0
 11
212.1670724274
 21
906.0080730239
 31
0
  0
LINE
  8
1
 62
7
 10
212.1670724274
 20
906.0080730239
 30
0
 11
223.136727542
 21
906.0080730239
 31
0
  0
LINE
  8
1
 62
7
 10
223.136727542
 20
906.0080730239
 30
0
 11
228.6215550993
 21
915.5080730239
 31
0
  0
LINE
  8
1
 62
7
 10
228.6215550993
 20
915.5080730239
 30
0
 11
223.136727542
 21
925.0080730239
 31
0
  0
LINE
  8
1
 62
7
 10
223.136727542
 20
925.0080730239
 30
0
 11
212.1670724274
 21
925.0080730239
 31
0
  0
LINE
  8
1
 62
7
 10
212.1670724274
 20
925.0080730239
 30
0
 11
206.6822448701
 21
915.5080730239
 31
0
  0
LINE
  8
1
 62
7
 10
276.8303025766
 20
875.0080730239
 30
0
 11
282.3151301339
 21
865.5080730239
 31
0
  0
LINE
  8
1
 62
7
 10
282.3151301339
 20
865.5080730239
 30
0
 11
293.2847852485
 21
865.5080730239
 31
0
  0
LINE
  8
1
 62
7
 10
293.2847852485
 20
865.5080730239
 30
0
 11
298.7696128058
 21
875.0080730239
 31
0
  0
LINE
  8
1
 62
7
 10
298.7696128058
 20
875.0080730239
 30
0
 11
293.2847852485
 21
884.5080730239
 31
0
  0
LINE
  8
1
 62
7
 10
293.2847852485
 20
884.5080730239
 30
0
 11
282.3151301339
 21
884.5080730239
 31
0
  0
LINE
  8
1
 62
7
 10
282.3151301339
 20
884.5080730239
 30
0
 11
276.8303025766
 21
875.0080730239
 31
0
  0
LINE
  8
1
 62
7
 10
276.8303025766
 20
794.0080730239
 30
0
 11
282.3151301339
 21
784.5080730239
 31
0
  0
LINE
  8
1
 62
7
 10
282.3151301339
 20
784.5080730239
 30
0
 11
293.2847852485
 21
784.5080730239
 31
0
  0
LINE
  8
1
 62
7
 10
293.2847852485
 20
784.5080730239
 30
0
 11
298.7696128058
 21
794.0080730239
 31
0
  0
LINE
  8
1
 62
7
 10
298.7696128058
 20
794.0080730239
 30
0
 11
293.2847852485
 21
803.5080730239
 31
0
  0
LINE
  8
1
 62
7
 10
293.2847852485
 20
803.5080730239
 30
0
 11
282.3151301339
 21
803.5080730239
 31
0
  0
LINE
  8
1
 62
7
 10
282.3151301339
 20
803.5080730239
 30
0
 11
276.8303025766
 21
794.0080730239
 31
0
  0
LINE
  8
0
 62
7
 10
192.6518999847
 20
920.9641310377907
 30
0
 11
192.6518999847
 21
919.3730402530721
 31
0
  0
LINE
  8
1
 62
7
 10
304.3916365967934
 20
831.5080730239164
 30
0
 11
323.6518999847
 21
831.5080730238985
 31
0
  0
LINE
  8
1
 62
7
 10
323.6518999847
 20
837.5080730239
 30
0
 11
304.3916365967937
 21
837.5080730238875
 31
0
  0
LINE
  8
0
 62
7
 10
545.735998139
 20
590.7184167381492
 30
0
 11
545.735998139
 21
589.0684111596
 31
0
  0
LINE
  8
0
 62
7
 10
547.0389836131525
 20
592.2184123278
 30
0
 11
571.1870198736
 21
592.2184123278
 31
0
  0
ARC
  8
0
 62
7
 10
171.6518999847
 20
614.7184149266
 30
0
 40
7
 50
90
 51
180
  0
ARC
  8
0
 62
7
 10
263.6518999847
 20
614.7184149266
 30
0
 40
7
 50
0
 51
90
  0
ARC
  8
0
 62
7
 10
159.6518999847
 20
613.2184149266
 30
0
 40
5
 50
270
 51
0
  0
ARC
  8
0
 62
7
 10
298.6518999847
 20
582.0684149266
 30
0
 40
2.000000000000341
 50
0
 51
54.9683494709989
  0
ARC
  8
0
 62
7
 10
136.6518999847
 20
582.0684149266
 30
0
 40
2.000000000000257
 50
125.0316505290003
 51
180
  0
ARC
  8
0
 62
7
 10
252.1019090723
 20
400.8184240142
 30
0
 40
36.5499909123951
 50
297.0212171653
 51
356.0577115703
  0
ARC
  8
0
 62
7
 10
151.4729911568
 20
538.0704229983001
 30
0
 40
5.957499412012028
 50
292.3494902942999
 51
298.7391000641995
  0
ARC
  8
0
 62
7
 10
217.6518999847
 20
483.3684149266
 30
0
 40
126.0000000000001
 50
271.1777465195
 51
285.8870382585
  0
ARC
  8
0
 62
7
 10
293.5534416335
 20
397.9597248923
 30
0
 40
5.000000000000109
 50
62.50256783489973
 51
176.0669727129008
  0
ARC
  8
0
 62
7
 10
142.1879060082
 20
560.8660490007
 30
0
 40
13.49816719658931
 50
270.5092314008999
 51
290.4299440167999
  0
ARC
  8
0
 62
7
 10
291.9666361859
 20
562.614575435
 30
0
 40
15.24665608625454
 50
270.4619632856
 51
289.2105899279001
  0
ARC
  8
0
 62
7
 10
221.8185784793
 20
562.614575435
 30
0
 40
15.24665608625397
 50
270.4619632856
 51
289.2105899278998
  0
ARC
  8
0
 62
7
 10
212.3359637148
 20
560.8660490007
 30
0
 40
13.4981671965892
 50
270.5092314009001
 51
290.4299440168002
  0
ARC
  8
0
 62
7
 10
147.6333259891
 20
580.0799248372
 30
0
 40
18.9889315630252
 50
90.3906974768998
 51
107.1972562971
  0
ARC
  8
0
 62
7
 10
139.3898991893
 20
593.8461660135
 30
0
 40
5.223477788150208
 50
91.24285404509955
 51
123.1413934229994
  0
ARC
  8
0
 62
7
 10
217.7813836957
 20
580.0799248372
 30
0
 40
18.98893156302554
 50
90.39069747690006
 51
107.1972562970999
  0
ARC
  8
0
 62
7
 10
225.9924395677
 20
593.8461660135
 30
0
 40
5.223477788150437
 50
91.24285404510043
 51
123.1413934230005
  0
ARC
  8
0
 62
7
 10
296.1404972743
 20
593.8461660135
 30
0
 40
5.223477788150663
 50
91.24285404509945
 51
123.1413934230005
  0
ARC
  8
0
 62
7
 10
279.6860146024
 20
593.8461660135
 30
0
 40
5.223477788150436
 50
91.24285404509951
 51
123.1413934229997
  0
ARC
  8
0
 62
7
 10
196.9018999847
 20
599.2184149266
 30
0
 40
3.100000000000131
 50
306.2493208828991
 51
355.4855981885999
  0
ARC
  8
0
 62
7
 10
196.9018999847
 20
599.2184149266
 30
0
 40
3.100000000000082
 50
184.5144018112991
 51
233.7506791171009
  0
ARC
  8
0
 62
7
 10
196.9018999847
 20
599.2184149266
 30
0
 40
3.099999999999934
 50
62.75189166499979
 51
117.2481083348987
  0
ARC
  8
0
 62
7
 10
196.9018999847
 20
599.2184149266
 30
0
 40
2.600000000000196
 50
159.8416808112006
 51
254.057631394399
  0
ARC
  8
0
 62
7
 10
196.9018999847
 20
599.2184149266
 30
0
 40
2.600000000000106
 50
285.9423686056003
 51
0
  0
ARC
  8
0
 62
7
 10
196.9018999847
 20
597.9684149266
 30
0
 40
4.25
 50
0
 51
180
  0
ARC
  8
0
 62
7
 10
196.9018999847
 20
597.9684149266
 30
0
 40
3.250000000000012
 50
133.6908952792004
 51
180
  0
ARC
  8
0
 62
7
 10
196.9018999847
 20
597.9684149266
 30
0
 40
3.25
 50
0
 51
46.30910472079994
  0
ARC
  8
0
 62
7
 10
195.6518999847
 20
610.7184149266
 30
0
 40
3.00000000000007
 50
14.1447407403005
 51
180
  0
ARC
  8
0
 62
7
 10
159.1518999847
 20
595.2184149266
 30
0
 40
3.999999999999961
 50
311.4096221092998
 51
0
  0
ARC
  8
0
 62
7
 10
159.1518999847
 20
595.2184149266
 30
0
 40
1.599999999999979
 50
244.9125144385018
 51
115.0874855614983
  0
ARC
  8
0
 62
7
 10
157.1518999847
 20
606.2184149266
 30
0
 40
2
 50
90
 51
180
  0
ARC
  8
0
 62
7
 10
203.6518999847
 20
586.0684149266
 30
0
 40
2
 50
270
 51
0
  0
ARC
  8
0
 62
7
 10
231.6518999847
 20
586.0684149266
 30
0
 40
2
 50
180
 51
270
  0
ARC
  8
0
 62
7
 10
165.405246691
 20
593.2064596255
 30
0
 40
2.012022090461874
 50
89.53315141810076
 51
179.6595502947004
  0
ARC
  8
0
 62
7
 10
158.8392228903
 20
584.114767101
 30
0
 40
5.086241280755877
 50
103.1113740355997
 51
126.9286622889004
  0
ARC
  8
0
 62
7
 10
276.4803278788
 20
584.1485140121
 30
0
 40
5.049806982206781
 50
52.98414395110033
 51
76.97581972450038
  0
ARC
  8
0
 62
7
 10
323.6903391991
 20
532.2229609112
 30
0
 40
30.03898839795847
 50
184.4311230311
 51
209.5685730625001
  0
ARC
  8
0
 62
7
 10
198.7571232978
 20
453.4818242871
 30
0
 40
95.87697726902729
 50
260.4655156342
 51
266.4697380888
  0
ARC
  8
0
 62
7
 10
209.4807437932986
 20
673.2383268790001
 30
0
 40
315.9180102585431
 50
267.4838153080002
 51
271.0127025897002
  0
ARC
  8
0
 62
7
 10
202.5600808231
 20
483.4619382134
 30
0
 40
126.0723502907559
 50
253.6725160986
 51
261.0177075547
  0
ARC
  8
0
 62
7
 10
202.6559703133
 20
483.3787057019
 30
0
 40
126.0109388225966
 50
231.5701786992
 51
253.6185176942
  0
ARC
  8
0
 62
7
 10
221.4842879602
 20
402.5219295311
 30
0
 40
3.481796654635208
 50
326.9940245658003
 51
6.624754009801078
  0
ARC
  8
0
 62
7
 10
221.7089093177
 20
403.3943404614
 30
0
 40
3.268007355261338
 50
351.7182179789001
 51
35.53577174090064
  0
ARC
  8
0
 62
7
 10
221.8691247964
 20
403.3369826309
 30
0
 40
3.992943689429806
 50
354.0577854445002
 51
38.02210116760023
  0
ARC
  8
0
 62
7
 10
321.6527053321
 20
506.6613771978
 30
0
 40
4.999195800736088
 50
253.8392708660998
 51
359.9611671288006
  0
ARC
  8
0
 62
7
 10
97.6467053385
 20
503.317020814
 30
0
 40
4.994806000075794
 50
180.0291449157001
 51
264.2770718258
  0
ARC
  8
0
 62
7
 10
97.6521045973
 20
402.3030682712
 30
0
 40
5.000205815706391
 50
53.84946332250043
 51
179.9602547287
  0
ARC
  8
0
 62
7
 10
217.6863064614
 20
482.9879657781
 30
0
 40
125.5886886034315
 50
285.9226125424
 51
292.6529246108
  0
ARC
  8
0
 62
7
 10
136.652119865
 20
559.3686348069
 30
0
 40
2.000219892378655
 50
269.9937033556177
 51
270.0062966443824
  0
ARC
  8
0
 62
7
 10
298.6516801044
 20
559.3686348069
 30
0
 40
2.000219892378738
 50
359.9937033487879
 51
0.006296651212079019
  0
ARC
  8
0
 62
7
 10
157.1036446844
 20
513.6152640364001
 30
0
 40
35.42223943460584
 50
113.626123229
 51
171.8673223845001
  0
ARC
  8
0
 62
7
 10
272.7976605251
 20
528.3671038667
 30
0
 40
21.00111873228218
 50
4.148241729200157
 51
57.80302395830007
  0
ARC
  8
0
 62
7
 10
293.6384461922
 20
397.671349207
 30
0
 40
5.351588085480449
 50
115.0616163822
 51
172.0173054834
  0
ARC
  8
0
 62
7
 10
121.1808476277
 20
380.6293453309
 30
0
 40
5.099651779609316
 50
52.11527441269971
 51
108.2337663835995
  0
ARC
  8
0
 62
7
 10
102.6518999847
 20
532.454490789
 30
0
 40
9.999999999989981
 50
180
 51
225.5729959992001
  0
ARC
  8
0
 62
7
 10
316.6518999847
 20
531.994424604
 30
0
 40
9.999999999990195
 50
314.4270040008001
 51
0
  0
ARC
  8
0
 62
7
 10
316.6518999847
 20
380.2999605261
 30
0
 40
9.999999999989939
 50
0
 51
45.57299599919989
  0
ARC
  8
0
 62
7
 10
302.9968315034
 20
518.1338321636
 30
0
 40
5.257841126419749
 50
217.4187054781998
 51
285.3836476057999
  0
ARC
  8
0
 62
7
 10
97.6518999847
 20
372.7806614046
 30
0
 40
4.999999999998248
 50
113.5781784781999
 51
180
  0
ARC
  8
0
 62
7
 10
117.038005942
 20
519.5325950449
 30
0
 40
5.205689796219779
 50
289.7831341796004
 51
349.3567778248998
  0
ARC
  8
0
 62
7
 10
117.1049394311
 20
519.3450701991
 30
0
 40
4.98479510712723
 50
255.2886958734001
 51
351.7094919812
  0
ARC
  8
0
 62
7
 10
117.1180778586
 20
519.3443829202
 30
0
 40
5.001498205138231
 50
242.6486991596999
 51
289.6497475808999
  0
ARC
  8
0
 62
7
 10
303.1016169618
 20
517.8854064187
 30
0
 40
4.950068601204285
 50
214.5279698343006
 51
289.1660002955996
  0
ARC
  8
0
 62
7
 10
293.4925520967
 20
397.9835931373
 30
0
 40
5.006941386413239
 50
62.49712748209982
 51
115.0628255730991
  0
ARC
  8
0
 62
7
 10
102.6518999847
 20
532.454490789
 30
0
 40
10.00000000000004
 50
225.5729959992
 51
242.6500220505999
  0
ARC
  8
0
 62
7
 10
316.6518999847
 20
531.994424604
 30
0
 40
10.00000000000007
 50
301.2757041748002
 51
314.4270040008
  0
ARC
  8
0
 62
7
 10
97.6518999847
 20
372.7806614046
 30
0
 40
4.999999999999986
 50
108.6772852315
 51
113.5781784782001
  0
ARC
  8
0
 62
7
 10
316.6518999847
 20
380.2999605261
 30
0
 40
10.00000000000008
 50
45.57299599920022
 51
62.50255806519998
  0
ARC
  8
0
 62
7
 10
323.8408367197
 20
533.3509159348999
 30
0
 40
31.06433778488704
 50
216.3490722028001
 51
246.7867401222998
  0
ARC
  8
0
 62
7
 10
92.52143702390001
 20
453.7975801486
 30
0
 40
44.78919039077033
 50
60.63760734010003
 51
84.07016029310002
  0
ARC
  8
0
 62
7
 10
251.9841797521
 20
400.817396666
 30
0
 40
36.43385654640863
 50
356.2185386191
 51
31.31785236659993
  0
ARC
  8
0
 62
7
 10
325.532672792
 20
490.212374877
 30
0
 40
76.6224055232172
 50
239.9278049406001
 51
267.1929365412
  0
ARC
  8
0
 62
7
 10
321.6627283211
 20
408.6941148396
 30
0
 40
4.989177512235075
 50
0.0877307126009407
 51
88.65024123459985
  0
ARC
  8
0
 62
7
 10
116.8666011427
 20
497.2720609773
 30
0
 40
5.038572639434972
 50
241.7732674368004
 51
2.913414450699282
  0
ARC
  8
0
 62
7
 10
280.4931240397
 20
542.4505971121
 30
0
 40
8.585810951061148
 50
210.1874252637996
 51
229.3120274065998
  0
ARC
  8
0
 62
7
 10
281.7955197274
 20
542.3348076533
 30
0
 40
9.682842555603447
 50
161.7419532899997
 51
205.7153887267996
  0
ARC
  8
0
 62
7
 10
285.8126010328
 20
421.1605236281
 30
0
 40
3.046585784324769
 50
64.21424438599902
 51
207.4700321767001
  0
ARC
  8
0
 62
7
 10
163.3115768902
 20
853.5372116514
 30
0
 40
4.575745133939919
 50
315.6359903192006
 51
340.7057148940008
  0
ARC
  8
0
 62
7
 10
177.5275743174
 20
828.3246307735
 30
0
 40
55.33021411927274
 50
193.9408492784
 51
196.4308162678
  0
ARC
  8
0
 62
7
 10
215.1233428869
 20
823.3178441128
 30
0
 40
79.63755219129348
 50
258.6143142334
 51
264.97877496
  0
ARC
  8
0
 62
7
 10
321.6518999972
 20
887.1925502868
 30
0
 40
4.99999998744928
 50
242.2967272043001
 51
359.9999408922001
  0
ARC
  8
0
 62
7
 10
321.6518999973
 20
781.8235957611
 30
0
 40
4.999999987402179
 50
5.910740001432782e-005
 51
117.6874604749999
  0
ARC
  8
0
 62
7
 10
97.65189963669999
 20
884.2152192125
 30
0
 40
4.999999652560317
 50
180.0089681992997
 51
294.8370168040001
  0
ARC
  8
0
 62
7
 10
97.6518996331
 20
784.8009268382
 30
0
 40
4.999999648971959
 50
65.23027830419991
 51
179.9910318329995
  0
ARC
  8
0
 62
7
 10
249.8534407204
 20
855.2730562709
 30
0
 40
1.385071424072778
 50
224.775453261998
 51
275.0880410406987
  0
ARC
  8
0
 62
7
 10
248.8114220783
 20
858.3029959577
 30
0
 40
1.194638044218783
 50
84.76162402269924
 51
135.0969408056976
  0
ARC
  8
0
 62
7
 10
249.8534407204
 20
858.0437953931
 30
0
 40
1.385071424073381
 50
224.7754532619998
 51
275.0880410407013
  0
ARC
  8
0
 62
7
 10
248.8428118867
 20
855.4702414801
 30
0
 40
1.181652949417388
 50
105.9402966458975
 51
183.686739072601
  0
ARC
  8
0
 62
7
 10
249.8534407204
 20
846.2730562709
 30
0
 40
1.385071424073823
 50
224.7754532620015
 51
275.0880410406996
  0
ARC
  8
0
 62
7
 10
248.8428118867
 20
846.4702414801
 30
0
 40
1.181652949417279
 50
105.940296645899
 51
183.686739072601
  0
ARC
  8
0
 62
7
 10
248.8114220783
 20
849.3029959577
 30
0
 40
1.194638044219349
 50
84.76162402270171
 51
135.0969408057005
  0
ARC
  8
0
 62
7
 10
249.8534407204
 20
849.0437953931
 30
0
 40
1.385071424073381
 50
224.7754532619998
 51
275.0880410407009
  0
ARC
  8
0
 62
7
 10
271.3268475859
 20
822.5080730239
 30
0
 40
2
 50
90
 51
167.3977351585
  0
ARC
  8
0
 62
7
 10
273.0775258269
 20
826.5080730239
 30
0
 40
2
 50
270
 51
351.7867892982999
  0
ARC
  8
0
 62
7
 10
217.6518999847
 20
834.5080730239
 30
0
 40
58.00000000000004
 50
351.7867892983
 51
8.213210701699991
  0
ARC
  8
0
 62
7
 10
273.0775258269
 20
842.5080730239
 30
0
 40
2.000000000000019
 50
8.213210701700037
 51
90
  0
ARC
  8
0
 62
7
 10
271.3268475859
 20
846.5080730239
 30
0
 40
2.000000000000023
 50
192.6022648415
 51
270
  0
ARC
  8
0
 62
7
 10
162.9220178361
 20
815.3080730239
 30
0
 40
5.000000000000043
 50
19.33157640590034
 51
90
  0
ARC
  8
0
 62
7
 10
162.9220178361
 20
853.7080730239001
 30
0
 40
5
 50
270
 51
317.3984052383999
  0
ARC
  8
0
 62
7
 10
157.1518999847
 20
846.7080730239001
 30
0
 40
2
 50
90
 51
180
  0
ARC
  8
0
 62
7
 10
157.1518999847
 20
822.3080730239
 30
0
 40
2
 50
180
 51
270
  0
ARC
  8
0
 62
7
 10
276.6518999847
 20
834.5080730239
 30
0
 40
5.00000000000001
 50
261.3730734413009
 51
98.62692655870013
  0
ARC
  8
0
 62
7
 10
217.6518999847
 20
834.5080730239
 30
0
 40
54.99999999999997
 50
10.93266114479997
 51
164.1733798681297
  0
ARC
  8
0
 62
7
 10
217.6518999847
 20
834.5080730239
 30
0
 40
55.00000000000004
 50
250.6208310665
 51
349.0673388552
  0
ARC
  8
0
 62
7
 10
217.6518999847
 20
834.5080730239
 30
0
 40
55.00000000000005
 50
195.8266201318702
 51
244.9931082523
  0
ARC
  8
0
 62
7
 10
276.6518999847
 20
834.5080730239
 30
0
 40
8
 50
270
 51
90
  0
ARC
  8
0
 62
7
 10
276.6518999847
 20
834.5080730239
 30
0
 40
5.249999999999944
 50
256.5054122687008
 51
103.4945877312992
  0
ARC
  8
0
 62
7
 10
217.6518999847
 20
834.5080730239
 30
0
 40
65.00000000000013
 50
253.693879841
 51
355.1027624414001
  0
ARC
  8
0
 62
7
 10
217.6518999847
 20
834.5080730239
 30
0
 40
65.00000000000007
 50
195.6184982756257
 51
249.0414597964
  0
ARC
  8
0
 62
7
 10
217.6518999847
 20
834.5080730239
 30
0
 40
65.00000000000003
 50
4.897237558599972
 51
164.3815017243742
  0
ARC
  8
0
 62
7
 10
234.6518999847
 20
912.6809583487
 30
0
 40
5
 50
180
 51
257.7311010040476
  0
ARC
  8
0
 62
7
 10
200.6518999846453
 20
912.6809583487166
 30
0
 40
5.000000000054631
 50
282.2688989958098
 51
359.9999999998098
  0
ARC
  8
0
 62
7
 10
158.4521954062517
 20
888.3169475506609
 30
0
 40
5.000000000009333
 50
240.0000000007011
 51
317.7311010047155
  0
ARC
  8
0
 62
7
 10
276.851604563
 20
888.3169475507
 30
0
 40
4.999999999991867
 50
222.2688989960375
 51
299.9999999993408
  0
ARC
  8
0
 62
7
 10
141.4521954063139
 20
858.8720838219888
 30
0
 40
4.999999999983411
 50
342.2688989960741
 51
60.00000000007485
  0
ARC
  8
0
 62
7
 10
293.851604563
 20
858.872083822
 30
0
 40
5.000000000000017
 50
119.9999999999999
 51
197.7311010040944
  0
ARC
  8
0
 62
7
 10
293.851604563
 20
810.1440622259
 30
0
 40
5.000000000000022
 50
162.2688989959996
 51
239.9999999989042
  0
ARC
  8
0
 62
7
 10
141.4521954063
 20
810.1440622259
 30
0
 40
5.000000000000017
 50
299.9999999999998
 51
17.73110100400487
  0
ARC
  8
0
 62
7
 10
158.4521954063
 20
780.6991984972
 30
0
 40
4.999999999999989
 50
42.2688989960005
 51
119.9999999999999
  0
ARC
  8
0
 62
7
 10
276.851604563
 20
780.6991984972
 30
0
 40
4.999999999980851
 50
60.0000000006593
 51
137.7311010040162
  0
ARC
  8
0
 62
7
 10
234.6518999847
 20
756.3351876992
 30
0
 40
5.000000000000064
 50
102.2688989959997
 51
180
  0
ARC
  8
0
 62
7
 10
200.6518999847
 20
756.3351876992
 30
0
 40
5
 50
0
 51
77.73110100400001
  0
ARC
  8
0
 62
7
 10
217.6518999846943
 20
834.5080730238967
 30
0
 40
75.00000000000223
 50
102.2688989959952
 51
137.7311010040065
  0
ARC
  8
0
 62
7
 10
217.6518999847
 20
834.5080730239
 30
0
 40
75.00000000000124
 50
42.26889899603684
 51
77.73110100404765
  0
ARC
  8
0
 62
7
 10
217.6518999846395
 20
834.5080730240513
 30
0
 40
75.00000000001154
 50
342.2688989958758
 51
17.7311010039705
  0
ARC
  8
0
 62
7
 10
217.651899984867
 20
834.5080730239547
 30
0
 40
75.00000000017587
 50
162.268898996001
 51
197.7311010040055
  0
ARC
  8
0
 62
7
 10
217.6518999847575
 20
834.5080730240193
 30
0
 40
75.00000000003362
 50
282.2688989959031
 51
317.7311010039191
  0
ARC
  8
0
 62
7
 10
217.6518999847952
 20
834.508073024047
 30
0
 40
75.00000000016922
 50
222.2688989959656
 51
251.9407695091657
  0
ARC
  8
0
 62
7
 10
138.4938665509
 20
840.4668014237
 30
0
 40
2.461034898792825
 50
260.4798030388002
 51
304.346600042
  0
ARC
  8
0
 62
7
 10
138.4365880355
 20
837.3283490849
 30
0
 40
2.710037276883399
 50
57.75815835069846
 51
97.41543856859914
  0
ARC
  8
0
 62
7
 10
137.6876545834
 20
837.6426006076
 30
0
 40
2.40645687203227
 50
80.45199364389994
 51
124.7228243054002
  0
ARC
  8
0
 62
7
 10
137.7453449892
 20
840.6711403339
 30
0
 40
2.653542586172705
 50
237.4314213711996
 51
277.3937606795013
  0
ARC
  8
0
 62
7
 10
137.7519743498
 20
837.9885531613001
 30
0
 40
2.746874272323074
 50
82.99813135629923
 51
131.4911441042988
  0
ARC
  8
0
 62
7
 10
138.4824548813
 20
838.1164168695
 30
0
 40
2.628470279554303
 50
47.23586920760008
 51
98.65694129520037
  0
ARC
  8
0
 62
7
 10
138.4301633213
 20
840.1094328699001
 30
0
 40
2.790197363323818
 50
262.9317057837007
 51
311.1754837133993
  0
ARC
  8
0
 62
7
 10
137.7010904263
 20
839.9029018782001
 30
0
 40
2.591331315028401
 50
226.9501469446994
 51
278.5605775947009
  0
ARC
  8
0
 62
7
 10
138.4567942296
 20
835.1763787397
 30
0
 40
2.454246029259793
 50
264.9492630948009
 51
316.6510053885004
  0
ARC
  8
0
 62
7
 10
137.8970604915
 20
835.8533531603
 30
0
 40
2.440048836379058
 50
228.0400926915999
 51
276.8816899614
  0
ARC
  8
0
 62
7
 10
138.4886186672
 20
835.4135057206
 30
0
 40
2.005070625322252
 50
261.4183908295004
 51
313.0255030443009
  0
ARC
  8
0
 62
7
 10
138.8359978747
 20
833.659036189
 30
0
 40
1.694599784798943
 50
52.96219979590095
 51
95.39087174770135
  0
ARC
  8
0
 62
7
 10
1109.7311004582
 20
834.5080730239
 30
0
 40
975.0792004735525
 50
177.5898518572
 51
182.4101481428
  0
ARC
  8
0
 62
7
 10
-674.4273004889
 20
834.5080730239
 30
0
 40
975.0792004735527
 50
357.5898518572
 51
2.410148142799997
  0
ARC
  8
0
 62
7
 10
189.336370599
 20
930.4154804313
 30
0
 40
20.00000000000521
 50
286.4486131295031
 51
332.2343338484001
  0
ARC
  8
0
 62
7
 10
286.5523865178
 20
906.9837444972
 30
0
 40
20.00000000000008
 50
226.4486131294999
 51
272.2343338483999
  0
ARC
  8
0
 62
7
 10
148.7514134516
 20
762.0324015506
 30
0
 40
20.00000000000006
 50
46.44861312949999
 51
92.23433384839996
  0
ARC
  8
0
 62
7
 10
245.9674293703
 20
738.6006656165
 30
0
 40
20.00000000000003
 50
106.4486131295
 51
152.2343338483999
  0
ARC
  8
0
 62
7
 10
245.9674293702966
 20
930.4154804313026
 30
0
 40
19.99999999999824
 50
207.7656661516112
 51
253.5513868705633
  0
ARC
  8
0
 62
7
 10
148.7514134516
 20
906.9837444972
 30
0
 40
20.00000000000006
 50
267.7656661516
 51
313.5513868705208
  0
ARC
  8
0
 62
7
 10
286.5523865177965
 20
762.0324015505987
 30
0
 40
20.00000000000145
 50
87.76566615159017
 51
133.5513868705108
  0
ARC
  8
0
 62
7
 10
189.336370599
 20
738.6006656165
 30
0
 40
20.00000000000004
 50
27.76566615159995
 51
59.72919368259986
  0
ARC
  8
0
 62
7
 10
217.6518999846943
 20
834.5080730238138
 30
0
 40
80.00000000008431
 50
46.44861312951358
 51
73.55138687056531
  0
ARC
  8
0
 62
7
 10
217.6518999846943
 20
834.5080730238967
 30
0
 40
80.00000000000358
 50
106.4486131294987
 51
133.5513868705162
  0
ARC
  8
0
 62
7
 10
217.6518999846426
 20
834.5080730240895
 30
0
 40
80.0000000001769
 50
286.4486131294363
 51
313.5513868704571
  0
ARC
  8
0
 62
7
 10
217.6518999847057
 20
834.5080730239876
 30
0
 40
80.00000000008537
 50
226.4486131295143
 51
253.1046224398144
  0
ARC
  8
0
 62
7
 10
187.8169179067
 20
837.5152673255
 30
0
 40
66.10232122347601
 50
162.9373137835
 51
177.5339782204
  0
ARC
  8
0
 62
7
 10
187.8169179087
 20
831.5008787203
 30
0
 40
66.10232122503629
 50
182.4660218245
 51
197.0626862142
  0
ARC
  8
0
 62
7
 10
95.6518999847
 20
828.5080730239
 30
0
 40
2.999999999998522
 50
90
 51
180
  0
ARC
  8
0
 62
7
 10
95.6518999847
 20
840.5080730239
 30
0
 40
2.999999999998408
 50
180
 51
270
  0
ARC
  8
0
 62
7
 10
209.883780855
 20
852.4876549612
 30
0
 40
69.0694757759924
 50
92.15886536939996
 51
104.4471100895133
  0
ARC
  8
0
 62
7
 10
246.6274234488
 20
925.3639758033
 30
0
 40
5.255191789773166
 50
228.2467363570997
 51
252.7957392877997
  0
ARC
  8
0
 62
7
 10
266.0599538679
 20
968.5972363509
 30
0
 40
52.61969913246335
 50
246.4942410043
 51
250.141748548
  0
ARC
  8
0
 62
7
 10
269.4693069983
 20
975.5230602851
 30
0
 40
60.29787032404393
 50
249.3302819522001
 51
253.2341440371999
  0
ARC
  8
0
 62
7
 10
270.4594912763
 20
887.8678284108
 30
0
 40
18.05672051194795
 50
43.25749514400013
 51
53.45136379090002
  0
ARC
  8
0
 62
7
 10
272.5254685405
 20
779.2700936773
 30
0
 40
15.28295282376343
 50
309.7389186487
 51
320.1417655292002
  0
ARC
  8
0
 62
7
 10
323.6518999847
 20
840.5080730239
 30
0
 40
3
 50
270
 51
0
  0
ARC
  8
0
 62
7
 10
323.6518999847
 20
828.5080730239
 30
0
 40
2.999999999998522
 50
0
 51
90
  0
ARC
  8
0
 62
7
 10
118.6664523578
 20
841.0633007884001
 30
0
 40
3.557732476059529
 50
272.1500835203997
 51
348.6117120366996
  0
ARC
  8
0
 62
7
 10
118.7795031757
 20
840.5080665819
 30
0
 40
2.999993557941878
 50
270.0001028371993
 51
357.1717233608993
  0
ARC
  8
0
 62
7
 10
118.6399936102
 20
827.9217353279
 30
0
 40
3.589902126621146
 50
11.79165439249914
 51
87.4465500503993
  0
ARC
  8
0
 62
7
 10
118.7795031757
 20
828.508079466
 30
0
 40
2.999993557942174
 50
2.828276639100459
 51
89.99989716280065
  0
ARC
  8
0
 62
7
 10
210.778243969
 20
853.2235114809
 30
0
 40
72.24277183417877
 50
63.81940083249998
 51
77.68226925669994
  0
ARC
  8
0
 62
7
 10
210.1317979113
 20
850.6852994999
 30
0
 40
72.4200317167534
 50
91.41223229839997
 51
103.9673109647023
  0
ARC
  8
0
 62
7
 10
211.4511952791
 20
846.1072626224
 30
0
 40
78.09228430873996
 50
91.54306526629574
 51
103.9297351436789
  0
ARC
  8
0
 62
7
 10
209.987357552
 20
806.3189511540001
 30
0
 40
61.47366710069296
 50
260.0845349262
 51
269.413325715
  0
ARC
  8
0
 62
7
 10
208.5424283423
 20
796.9972791831
 30
0
 40
51.07822111258344
 50
259.6913017482
 51
269.9875921382001
  0
ARC
  8
0
 62
7
 10
210.778243969
 20
815.7926345670001
 30
0
 40
72.24277183417911
 50
282.3177307433
 51
296.1805991675557
  0
ARC
  8
0
 62
7
 10
304.7566011004
 20
844.4659733978
 30
0
 40
6.967465586724056
 50
232.9611958822002
 51
266.9974017321006
  0
ARC
  8
0
 62
7
 10
304.7566011004
 20
824.55017265
 30
0
 40
6.967465586727936
 50
93.00259826790055
 51
127.0388041177996
  0
ARC
  8
0
 62
7
 10
278.8714028709969
 20
1004.095051250101
 30
0
 40
87.83631705025788
 50
250.0928527672021
 51
251.5259615840021
  0
ARC
  8
0
 62
7
 10
253.5062346302
 20
926.5101898995
 30
0
 40
6.234310371307097
 50
246.6799392874999
 51
261.5899254556004
  0
ARC
  8
0
 62
7
 10
248.9424793267
 20
913.8425207348
 30
0
 40
7.455996034118308
 50
60.67258876710004
 51
75.74110810319962
  0
ARC
  8
0
 62
7
 10
113.7175993402966
 20
533.6702533496011
 30
0
 40
410.9299854035446
 50
70.51625908469949
 51
70.78454874719951
  0
ARC
  8
0
 62
7
 10
243.6958949419
 20
914.2898933904
 30
0
 40
8.747027628035999
 50
67.67718327699987
 51
75.73569660529999
  0
ARC
  8
0
 62
7
 10
249.6774845624
 20
929.6313975985
 30
0
 40
7.86792569359233
 50
241.1968133382998
 51
251.2460558238005
  0
ARC
  8
0
 62
7
 10
276.201761962599
 20
997.6750553177003
 30
0
 40
80.89158883268659
 50
248.9507530816007
 51
250.3224356877007
  0
ARC
  8
0
 62
7
 10
247.3162444679
 20
922.9567554698
 30
0
 40
1.48599856418496
 50
215.7653108516998
 51
258.4310151150999
  0
ARC
  8
0
 62
7
 10
254.6536670997
 20
938.8568620344
 30
0
 40
18.9612153637677
 50
246.2537324128
 51
250.4703022423999
  0
ARC
  8
0
 62
7
 10
256.6904861437
 20
943.8157145957
 30
0
 40
24.31708675029672
 50
249.8531657338
 51
254.3495626407002
  0
ARC
  8
0
 62
7
 10
252.2696043935
 20
926.2017207336
 30
0
 40
6.183334437355017
 50
249.7606413831003
 51
275.4211606491002
  0
ARC
  8
0
 62
7
 10
292.8656633978018
 20
1045.409517111099
 30
0
 40
131.593887585074
 50
250.2716533451991
 51
252.2986335024991
  0
ARC
  8
0
 62
7
 10
347.2360214998051
 20
1200.209261178198
 30
0
 40
295.6627204857101
 50
249.7585217771989
 51
250.480041409299
  0
ARC
  8
0
 62
7
 10
249.6746003488
 20
937.5573152177
 30
0
 40
15.491628108301
 50
244.2794149904999
 51
252.2174261886001
  0
ARC
  8
0
 62
7
 10
270.4058881563
 20
980.9857007965001
 30
0
 40
64.22646823197556
 50
249.7588703342
 51
253.4172898826
  0
ARC
  8
0
 62
7
 10
264.9079272077
 20
968.2045429145001
 30
0
 40
50.33786084122371
 50
246.7941962004999
 51
250.5972179748
  0
ARC
  8
0
 62
7
 10
246.3863286585
 20
926.6041150264
 30
0
 40
4.84620665188588
 50
227.7494265978004
 51
254.2767217925999
  0
ARC
  8
0
 62
7
 10
182.4653021005063
 20
555.7207154696994
 30
0
 40
373.3847974363451
 50
82.91394686120098
 51
83.43502046650096
  0
ARC
  8
0
 62
7
 10
222.895082296
 20
912.8546974352
 30
0
 40
13.98615470562878
 50
80.70385342899982
 51
89.24445923699987
  0
ARC
  8
0
 62
7
 10
197.3197447685
 20
893.0093750265
 30
0
 40
30.73927812419642
 50
103.2855280876001
 51
109.1570853428
  0
ARC
  8
0
 62
7
 10
192.2830042262
 20
895.0465731281
 30
0
 40
27.07695199264469
 50
106.0642239480001
 51
112.8533090485999
  0
ARC
  8
0
 62
7
 10
191.0248236256
 20
909.0659147299
 30
0
 40
13.52314211044483
 50
106.2865829128999
 51
117.4528050418001
  0
ARC
  8
0
 62
7
 10
209.3918139123011
 20
877.1370201528002
 30
0
 40
49.15660869630732
 50
97.00629208350125
 51
100.5727130191012
  0
ARC
  8
0
 62
7
 10
214.1765654438987
 20
859.2142530452999
 30
0
 40
67.59513096066124
 50
94.51021699219893
 51
97.08631781649896
  0
ARC
  8
0
 62
7
 10
208.6144099288
 20
899.4729750893
 30
0
 40
26.96343052079745
 50
95.91077742110008
 51
101.1597400786999
  0
ARC
  8
0
 62
7
 10
208.2910497758011
 20
881.0701106429002
 30
0
 40
45.08975967401697
 50
100.1147203854014
 51
102.8289073380015
  0
ARC
  8
0
 62
7
 10
198.4885620702
 20
923.1929750722001
 30
0
 40
1.8531929371935
 50
96.48369064160009
 51
119.3015631791
  0
ARC
  8
0
 62
7
 10
192.7250182913
 20
892.6757139228
 30
0
 40
29.43784864595387
 50
111.8538934376999
 51
116.3174023725999
  0
ARC
  8
0
 62
7
 10
180.1163333997
 20
917.6782600889
 30
0
 40
1.453102746708305
 50
107.7248964557987
 51
141.683015878001
  0
ARC
  8
0
 62
7
 10
170.6070413955
 20
829.8601105543
 30
0
 40
12.2597311589395
 50
218.0248739723001
 51
231.1818317992
  0
ARC
  8
0
 62
7
 10
170.6065231564
 20
839.1565466065
 30
0
 40
12.25900807246628
 50
128.8177784608999
 51
141.9755157675997
  0
ARC
  8
0
 62
7
 10
217.6518999847
 20
834.5080730239
 30
0
 40
58.00000000000005
 50
167.8574392187001
 51
192.1425607813
  0
ARC
  8
0
 62
7
 10
1109.7311004582
 20
834.5080730239104
 30
0
 40
973.0792004735524
 50
179.6859527075006
 51
179.7816184650006
  0
ARC
  8
0
 62
7
 10
257.7500263525
 20
834.7342841766
 30
0
 40
135.7125729952305
 50
177.6238890147
 51
180.0955029445
  0
ARC
  8
0
 62
7
 10
196.6799516972
 20
835.6725162918
 30
0
 40
75.12062303242173
 50
152.0628039168
 51
163.5771939404
  0
ARC
  8
0
 62
7
 10
196.6799517382
 20
833.3436297743
 30
0
 40
75.12062307722854
 50
196.4228060641
 51
207.9371960809
  0
ARC
  8
0
 62
7
 10
208.4858993551
 20
899.0787152702
 30
0
 40
18.34302752823616
 50
104.0364927590999
 51
121.4255392076998
  0
ARC
  8
0
 62
7
 10
200.0158034153
 20
835.3385745617001
 30
0
 40
78.23444836127618
 50
128.8596492156
 51
152.9915127412
  0
ARC
  8
0
 62
7
 10
200.0158034153
 20
833.6775714862
 30
0
 40
78.23444836128101
 50
207.0084872588
 51
231.1403507844
  0
ARC
  8
0
 62
7
 10
261.2576855667
 20
878.5760977689
 30
0
 40
31.12906153579512
 50
14.67939468126946
 51
44.10639898180012
  0
ARC
  8
0
 62
7
 10
262.0735223955
 20
790.0193608192
 30
0
 40
30.2352142778711
 50
317.1976522590999
 51
345.7015515325102
  0
ARC
  8
0
 62
7
 10
494.1870203803
 20
614.7184149266
 30
0
 40
7.000000000000001
 50
179.975772623287
 51
180.024227376713
  0
ARC
  8
0
 62
7
 10
586.1870229403
 20
614.7184181125001
 30
0
 40
6.999996814100441
 50
2.095389355789884e-005
 51
90.00002095389448
  0
ARC
  8
0
 62
7
 10
476.6870203803
 20
590.7184149266
 30
0
 40
1.5
 50
90
 51
180
  0
ARC
  8
0
 62
7
 10
603.6870203803001
 20
590.7184149266
 30
0
 40
1.5
 50
0
 51
90
  0
ARC
  8
0
 62
7
 10
593.1870203803001
 20
593.2184149266
 30
0
 40
2
 50
0
 51
90
  0
ARC
  8
0
 62
7
 10
487.1870203803
 20
593.2184149266
 30
0
 40
2
 50
90
 51
180
  0
ARC
  8
0
 62
7
 10
590.6870203803001
 20
559.3684149266001
 30
0
 40
2
 50
270
 51
0
  0
ARC
  8
0
 62
7
 10
489.6870203803
 20
559.3684149266001
 30
0
 40
2
 50
180
 51
270
  0
ARC
  8
0
 62
7
 10
609.1870203803001
 20
552.3684149266001
 30
0
 40
5
 50
90
 51
180
  0
ARC
  8
0
 62
7
 10
471.1870203803
 20
552.3684149266001
 30
0
 40
5.000000000000114
 50
0
 51
90
  0
ARC
  8
0
 62
7
 10
565.4725264267
 20
493.5322401912
 30
0
 40
63.24672405277982
 50
38.65789583569998
 51
50.1507026335
  0
ARC
  8
0
 62
7
 10
516.2538583829
 20
492.2349672235
 30
0
 40
65.11293252865643
 50
130.0288244833999
 51
141.1856304503
  0
ARC
  8
0
 62
7
 10
561.9305769915198
 20
492.7924182133294
 30
0
 40
68.84401879130961
 50
26.03356951073004
 51
34.54278291913006
  0
ARC
  8
0
 62
7
 10
632.9915798982
 20
547.1797776895
 30
0
 40
22.99336692371786
 50
218.1194567110999
 51
225.7238214270999
  0
ARC
  8
0
 62
7
 10
447.7443518621
 20
546.8574492717
 30
0
 40
22.50946107739241
 50
314.1728262332999
 51
321.9618346981001
  0
ARC
  8
0
 62
7
 10
505.0799422089335
 20
500.597627933381
 30
0
 40
53.42304828361896
 50
144.2340346201137
 51
155.1978011701138
  0
ARC
  8
0
 62
7
 10
609.9618361888
 20
546.3202476021
 30
0
 40
5.715885800128023
 50
177.9417522974003
 51
228.7700818430006
  0
ARC
  8
0
 62
7
 10
470.31996949
 20
546.3565823869
 30
0
 40
5.805693636518283
 50
311.7593491211996
 51
1.552873719299823
  0
ARC
  8
0
 62
7
 10
631.1870203803001
 20
559.3684149266001
 30
0
 40
2
 50
270
 51
0
  0
ARC
  8
0
 62
7
 10
449.1870203803
 20
559.3684149266001
 30
0
 40
2
 50
180
 51
270
  0
ARC
  8
0
 62
7
 10
497.2317282668
 20
400.3197984987
 30
0
 40
28.20452767864148
 50
187.8957546747
 51
196.5981699205
  0
ARC
  8
0
 62
7
 10
587.298079814
 20
399.4587168295
 30
0
 40
23.97868100159466
 50
342.5369960020001
 51
352.7077365691001
  0
ARC
  8
0
 62
7
 10
583.7335170320906
 20
508.9585368839355
 30
0
 40
41.72922653823797
 50
33.23368954031736
 51
59.08505691631739
  0
ARC
  8
0
 62
7
 10
496.6239077200656
 20
508.9547523046047
 30
0
 40
41.71773134850611
 50
120.6035452107635
 51
146.7601747125635
  0
ARC
  8
0
 62
7
 10
629.0278538518001
 20
553.4926560486
 30
0
 40
6.125272029197718
 50
271.0502706961
 51
300.5364608591004
  0
ARC
  8
0
 62
7
 10
612.5951121342
 20
551.7441509869
 30
0
 40
4.377262435404163
 50
271.5122255079003
 51
306.3117400704996
  0
ARC
  8
0
 62
7
 10
580.0343934732
 20
566.3008394079
 30
0
 40
18.93286812237876
 50
270.391417149
 51
287.2229326721999
  0
ARC
  8
0
 62
7
 10
588.5278537326
 20
553.4926560486
 30
0
 40
6.125272029197718
 50
271.0502706961
 51
300.5364608591004
  0
ARC
  8
0
 62
7
 10
499.0343953635
 20
566.3008256688
 30
0
 40
18.93285436905822
 50
270.3914109912002
 51
287.2229388299002
  0
ARC
  8
0
 62
7
 10
491.0951075123
 20
551.7441639407
 30
0
 40
4.377275398900633
 50
271.5122280864997
 51
306.3116846406998
  0
ARC
  8
0
 62
7
 10
467.0278533749
 20
553.4926560486
 30
0
 40
6.12527202919772
 50
271.0502706961005
 51
300.5364608591004
  0
ARC
  8
0
 62
7
 10
450.5951116574
 20
551.7441509869
 30
0
 40
4.377262435404049
 50
271.5122255078996
 51
306.3117400704996
  0
ARC
  8
0
 62
7
 10
616.5584718008
 20
584.6687956615
 30
0
 40
14.40013302011938
 50
90.48323399839977
 51
109.7728403419001
  0
ARC
  8
0
 62
7
 10
454.558471324
 20
584.6687956615
 30
0
 40
14.40013302011939
 50
90.48323399840021
 51
109.7728403418998
  0
ARC
  8
0
 62
7
 10
504.5584751331
 20
584.6687576539
 30
0
 40
14.40017108365658
 50
90.4832597358002
 51
109.7728146044997
  0
ARC
  8
0
 62
7
 10
495.0584762643
 20
584.6687472847
 30
0
 40
14.40018143590919
 50
90.48325155669998
 51
109.7728072261998
  0
ARC
  8
0
 62
7
 10
585.5584707201
 20
584.6687836932
 30
0
 40
14.40014500604537
 50
90.48324210289997
 51
109.7728322372999
  0
ARC
  8
0
 62
7
 10
575.3769894815
 20
593.3120906236001
 30
0
 40
8.050646038262327
 50
219.5980227313998
 51
230.8548081157872
  0
ARC
  8
0
 62
7
 10
614.5983441271
 20
581.1603054942
 30
0
 40
7.96456497369276
 50
61.81714145100047
 51
83.17376455259961
  0
ARC
  8
0
 62
7
 10
465.7877182286
 20
581.1221884137
 30
0
 40
8.003844145891817
 50
96.87925034719979
 51
118.1298436491998
  0
ARC
  8
0
 62
7
 10
490.6895456972
 20
406.8709402435
 30
0
 40
9.499999999999972
 50
318.8909178152001
 51
131.1090821847999
  0
ARC
  8
0
 62
7
 10
487.1540117913
 20
403.3354063376
 30
0
 40
9.499999999999952
 50
131.3688370332996
 51
318.6311629666999
  0
ARC
  8
0
 62
7
 10
490.6895456972
 20
505.8658896097
 30
0
 40
9.499999999999972
 50
228.8909178152001
 51
41.10908218479987
  0
ARC
  8
0
 62
7
 10
487.1540117913
 20
509.4014235156
 30
0
 40
9.500000000000027
 50
41.36883703330015
 51
228.6311629666998
  0
ARC
  8
0
 62
7
 10
589.6844950633
 20
406.8709402435
 30
0
 40
9.500000000000092
 50
48.89091781520032
 51
221.1090821847994
  0
ARC
  8
0
 62
7
 10
593.2200289693
 20
403.3354063376
 30
0
 40
9.500000000000069
 50
221.3688370332999
 51
48.63116296670011
  0
ARC
  8
0
 62
7
 10
589.6844950633
 20
505.8658896097
 30
0
 40
9.500000000000132
 50
138.8909178152001
 51
311.1090821847997
  0
ARC
  8
0
 62
7
 10
593.2200289693
 20
509.4014235156
 30
0
 40
9.499999999999989
 50
311.3688370332999
 51
138.6311629667001
  0
ARC
  8
0
 62
7
 10
574.8877899982
 20
400.5726541189
 30
0
 40
36.21735086672454
 50
296.8162642182999
 51
352.9556722016999
  0
ARC
  8
0
 62
7
 10
505.5630893149
 20
400.6135672272
 30
0
 40
36.28856294309684
 50
187.0806544653999
 51
243.1046047707001
  0
ARC
  8
0
 62
7
 10
540.180877719
 20
483.0754849657
 30
0
 40
125.680338653532
 50
247.3505507948
 51
268.8209924841
  0
ARC
  8
0
 62
7
 10
540.1931630415
 20
483.0754849657
 30
0
 40
125.6803386535318
 50
271.1790075159
 51
292.6494492052
  0
ARC
  8
0
 62
7
 10
621.5725459352
 20
491.099931085
 30
0
 40
6.212769403896428
 50
4.378022956499918
 51
25.5043922093998
  0
ARC
  8
0
 62
7
 10
616.6042037407
 20
483.4124152124
 30
0
 40
12.72578700589035
 50
358.4624713912
 51
20.99949235050003
  0
ARC
  8
0
 62
7
 10
626.2780445009
 20
494.6372155473
 30
0
 40
1.444230974988601
 50
21.88552281109954
 51
84.97716774479785
  0
ARC
  8
0
 62
7
 10
618.62888946
 20
490.5237323789
 30
0
 40
10.12161095790429
 50
5.957106495300315
 51
27.36087014659987
  0
ARC
  8
0
 62
7
 10
655.2717544467
 20
481.4040178565
 30
0
 40
23.86567844754169
 50
178.3995348914001
 51
185.6137355267001
  0
ARC
  8
0
 62
7
 10
630.8386525921
 20
479.237070528
 30
0
 40
1.208404931623557
 50
320.5481116348004
 51
1.538653737699308
  0
ARC
  8
0
 62
7
 10
603.9620303522
 20
483.1916524741
 30
0
 40
28.35714051181
 50
352.04981555
 51
0.1603962075001284
  0
ARC
  8
0
 62
7
 10
608.414939776
 20
484.0618548334
 30
0
 40
23.91719768770971
 50
358.1051788955999
 51
6.748516554799932
  0
ARC
  8
0
 62
7
 10
631.3819744883
 20
486.9137548841
 30
0
 40
0.7855417197790248
 50
356.9826349444981
 51
45.35349162270384
  0
ARC
  8
0
 62
7
 10
635.1188275944001
 20
485.6435792868
 30
0
 40
3.672679156245097
 50
150.1311581211008
 51
184.243223370901
  0
ARC
  8
0
 62
7
 10
633.315151421
 20
487.8248113062
 30
0
 40
1.931312113837822
 50
135.7161180178003
 51
184.5171112428013
  0
ARC
  8
0
 62
7
 10
599.9068052886
 20
484.4361475907
 30
0
 40
32.63258715293732
 50
357.9538815953001
 51
6.398572659699905
  0
ARC
  8
0
 62
7
 10
589.3208978253
 20
483.7911220384
 30
0
 40
43.20081918445572
 50
352.2547801646
 51
359.3102115994
  0
ARC
  8
0
 62
7
 10
630.2633342024
 20
477.8553248425
 30
0
 40
1.867731857849056
 50
316.7632750497004
 51
3.490028858399797
  0
ARC
  8
0
 62
7
 10
662.9936263575
 20
481.6334523818
 30
0
 40
32.11608479434922
 50
179.220130282
 51
186.9111072513999
  0
ARC
  8
0
 62
7
 10
136.652119865
 20
559.3686348069
 30
0
 40
2.000219892378655
 50
180.0062966295659
 51
269.9937033556177
  0
ARC
  8
0
 62
7
 10
136.652119865
 20
559.3686348069
 30
0
 40
2.000219892378655
 50
179.9937033704341
 51
180.0062966295659
  0
ARC
  8
0
 62
7
 10
298.6516801044
 20
559.3686348069
 30
0
 40
2.000219892378738
 50
269.9937033339691
 51
270.0062966660325
  0
ARC
  8
0
 62
7
 10
298.6516801044
 20
559.3686348069
 30
0
 40
2.000219892378738
 50
270.0062966660325
 51
359.9937033487879
  0
ARC
  8
0
 62
7
 10
494.1870203803
 20
614.7184149266
 30
0
 40
7
 50
90
 51
179.975772623287
  0
ARC
  8
0
 62
7
 10
287.7999576912
 20
794.0080730239
 30
0
 40
12
 50
0
 51
287.3183377206618
  0
ARC
  8
0
 62
7
 10
287.7999576912
 20
794.0080730239
 30
0
 40
11.99999999999997
 50
287.3183377206618
 51
0
  0
ARC
  8
0
 62
7
 10
287.7999576912
 20
875.0080730239
 30
0
 40
12.00000000000011
 50
0
 51
72.68896947687841
  0
ARC
  8
0
 62
7
 10
287.7999576912
 20
875.0080730239
 30
0
 40
12.00000000000014
 50
72.68896947687841
 51
0
  0
ARC
  8
0
 62
7
 10
217.6518999847
 20
915.5080730239
 30
0
 40
12.00000000000009
 50
0
 51
133.7859783660491
  0
ARC
  8
0
 62
7
 10
217.6518999847
 20
915.5080730239
 30
0
 40
12.00000000000008
 50
133.7859783660491
 51
0
  0
ARC
  8
0
 62
7
 10
217.6518999847
 20
834.5080730239
 30
0
 40
64.99999999999993
 50
167.5
 51
192.4999999999332
  0
ARC
  8
0
 62
7
 10
547.2649359868
 20
590.7062134695
 30
0
 40
1.528986547423135
 50
98.49824847792033
 51
179.5427015270456
  0
ARC
  8
0
 62
7
 10
533.1018179321
 20
590.699883685
 30
0
 40
1.536336477018
 50
0.6911844256568117
 51
81.26786580135311
  0
CIRCLE
  8
0
 62
7
 10
196.9018999847
 20
599.2184149266
 30
0
 40
2.500000000000085
  0
CIRCLE
  8
0
 62
7
 10
147.5038422781
 20
875.0080730239
 30
0
 40
12.00000000000011
  0
CIRCLE
  8
0
 62
7
 10
147.5038422781
 20
794.0080730239
 30
0
 40
12.00000000000011
  0
CIRCLE
  8
0
 62
7
 10
217.6518999847
 20
753.5080730239
 30
0
 40
12.00000000000009
  0
CIRCLE
  8
0
 62
7
 10
217.6518999847
 20
834.5080730239
 30
0
 40
45.99999999999997
  0
CIRCLE
  8
0
 62
7
 10
540.1870203803001
 20
456.3684149266
 30
0
 40
36
  0
CIRCLE
  8
0
 62
7
 10
540.1870203803001
 20
456.3684149266
 30
0
 40
58
  0
CIRCLE
  8
0
 62
7
 10
540.1870203803001
 20
456.3684149266
 30
0
 40
56
  0
CIRCLE
  8
0
 62
7
 10
540.1870203803001
 20
456.3684149266
 30
0
 40
35.49999999999989
  0
CIRCLE
  8
0
 62
7
 10
540.1870203803001
 20
456.3684149266
 30
0
 40
93
  0
CIRCLE
  8
0
 62
2
  6
DASHDOT
 10
540.1870203803001
 20
456.3684149266
 30
0
 40
75
  0
CIRCLE
  8
0
 62
2
  6
DASHDOT
 10
540.1870203803001
 20
456.3684149266
 30
0
 40
70
  0
CIRCLE
  8
0
 62
7
 10
217.6518999847
 20
915.5080730239
 30
0
 40
9.499999999999943
  0
CIRCLE
  8
0
 62
7
 10
217.6518999847
 20
753.5080730239
 30
0
 40
9.500000000000041
  0
CIRCLE
  8
0
 62
7
 10
217.6518999847
 20
834.5080730239
 30
0
 40
53
  0
CIRCLE
  8
1
 62
7
 10
147.5038422781
 20
875.0080730239
 30
0
 40
9.500000000000114
  0
CIRCLE
  8
1
 62
7
 10
147.5038422781
 20
794.0080730239
 30
0
 40
9.500000000000114
  0
CIRCLE
  8
1
 62
7
 10
287.7999576912
 20
875.0080730239
 30
0
 40
9.5
  0
CIRCLE
  8
1
 62
7
 10
287.7999576912
 20
794.0080730239
 30
0
 40
9.5
  0
LINE
  8
1
 62
2
 10
287.1829327485
 20
346.5042084342
 30
0
 11
248.7932378422
 21
346.5042084342
 31
0
  0
LINE
  8
1
 62
2
 10
248.7932378422
 20
346.5042084342
 30
0
 11
220.5793461878
 21
396.8684149266
 31
0
  0
LINE
  8
1
 62
2
 10
222.89135261637
 20
394.4956896588478
 30
0
 11
220.5793461878
 21
396.8684149266
 31
0
  0
LINE
  8
1
 62
2
 10
221.3952398547785
 20
393.6575713542404
 30
0
 11
220.5793461878
 21
396.8684149266
 31
0
  0
LINE
  8
1
 62
2
 10
704.5567710267
 20
550.8392971461
 30
0
 11
682.5406007391
 21
550.8392971461
 31
0
  0
LINE
  8
1
 62
2
 10
682.5406007391
 20
550.8392971461
 30
0
 11
601.8378074591
 21
513.3994097462844
 31
0
  0
LINE
  8
1
 62
2
 10
604.3797935839205
 20
515.5239109732078
 30
0
 11
601.8378074591
 21
513.3994097462844
 31
0
  0
LINE
  8
1
 62
2
 10
605.1014826327238
 20
513.968288716761
 30
0
 11
601.8378074591
 21
513.3994097462844
 31
0
  0
DIMENSION
  8
1
  6
CONTINUOUS
 62
2
  2
*D0
  3
DMST_1
 10
374.0690045433
 20
741.5080730239
 30
0
 11
371.4690045433
 21
834.5080730239
 31
0
 12
0
 22
0
 32
0
 70
1
 13
342.6518999847
 23
927.5080730239
 33
0
 14
342.6518999847
 24
741.5080730239
 34
0
 53
0
  0
DIMENSION
  8
1
  6
CONTINUOUS
 62
2
  2
*D1
  3
DMST_1
 10
374.0690045433
 20
356.3684149266
 30
0
 11
371.4690045433
 21
489.5434149266
 31
0
 12
0
 22
0
 32
0
 70
0
  1
267
 13
254.6518999847
 23
622.7184149266
 33
0
 14
267.6518999847
 24
356.3684149266
 34
0
 50
90
 53
0
  0
DIMENSION
  8
1
  6
CONTINUOUS
 62
2
  2
*D2
  3
DMST_1
 10
364.985233318
 20
356.3684149266
 30
0
 11
362.385233318
 21
406.3684149266
 31
0
 12
0
 22
0
 32
0
 70
0
 13
354.5698325009
 23
456.3684149266
 33
0
 14
267.6518999847
 24
356.3684149266
 34
0
 50
90
 53
0
  0
DIMENSION
  8
1
  6
CONTINUOUS
 62
2
  2
*D3
  3
DMST_1
 10
74.65189998470002
 20
337.1998181609
 30
0
 11
146.1518999847
 21
339.7998181609
 31
0
 12
0
 22
0
 32
0
 70
0
 13
217.6518999847
 23
347.505006891
 33
0
 14
74.6518999847
 24
400.3684149266
 34
0
 53
0
  0
DIMENSION
  8
1
  6
CONTINUOUS
 62
2
  2
*D4
  3
DMST_1
 10
217.6518999847
 20
337.1998181609
 30
0
 11
281.1518999847
 21
339.7998181609
 31
0
 12
0
 22
0
 32
0
 70
0
 13
344.6518999847
 23
400.3684149266
 33
0
 14
217.6518999847
 24
347.505006891
 34
0
 53
0
  0
DIMENSION
  8
1
  6
CONTINUOUS
 62
2
  2
*D5
  3
DMST_1
 10
74.65189998470001
 20
331.2840969479001
 30
0
 11
209.6518999847
 21
333.8840969479001
 31
0
 12
0
 22
0
 32
0
 70
0
 13
344.6518999847
 23
400.3684149266
 33
0
 14
74.6518999847
 24
400.3684149266
 34
0
 53
0
  0
DIMENSION
  8
1
  6
CONTINUOUS
 62
2
  2
*D6
  3
DMST_2
 10
459.3001325634205
 20
410.4738468460576
 30
0
 11
659.8490335603653
 21
527.253036220569
 31
0
 12
0
 22
0
 32
0
 70
3
 15
621.0739081971797
 25
502.2629830071423
 35
0
 40
0
 53
0
  0
DIMENSION
  8
1
  6
CONTINUOUS
 62
2
  2
*D7
  3
DMST_2
 10
470.5328857879135
 20
428.5601151909868
 30
0
 11
667.2317272482328
 21
509.8885298518964
 31
0
 12
0
 22
0
 32
0
 70
3
 15
609.8411549726866
 25
484.1767146622132
 35
0
 40
0
 53
0
  0
DIMENSION
  8
1
  6
CONTINUOUS
 62
2
  2
*D8
  3
DMST_2
 10
472.4848492582737
 20
438.5803283132551
 30
0
 11
669.5128673695388
 21
493.0357673385987
 31
0
 12
0
 22
0
 32
0
 70
3
 15
607.8891915023264
 25
474.1565015399449
 35
0
 40
0
 53
0
  0
DIMENSION
  8
1
  6
CONTINUOUS
 62
2
  2
*D9
  3
DMST_2
 10
484.5885918431532
 20
449.6740333868478
 30
0
 11
670.9929396858186
 21
474.7370048015253
 31
0
 12
0
 22
0
 32
0
 70
3
 15
595.7854489174468
 25
463.0627964663524
 35
0
 40
0
 53
0
  0
ENDSEC
  0
EOF
