  0
SECTION
  2
HEADER
  9
$ACADVER
  1
AC1009
  9
$INSBASE
 10
0
 20
0
  9
$EXTMIN
 10
58.6825838923
 20
213.7726129624386
  9
$EXTMAX
 10
697.1527003652
 20
913.8494245012
  9
$LIMMIN
 10
58.6825838923
 20
213.7726129624386
  9
$LIMMAX
 10
697.1527003652
 20
913.8494245012
  9
$VIEWCTR
 10
10
 20
10
  9
$VIEWSIZE
 40
10
  9
$SNAPMODE
 70
0
  9
$SNAPUNIT
 10
1
 20
1
  9
$SNAPBASE
 10
0
 20
0
  9
$SNAPANG
 50
0
  9
$SNAPSTYLE
 70
0
  9
$SNAPISOPAIR
 70
0
  9
$GRIDMODE
 70
0
  9
$GRIDUNIT
 10
0
 20
0
  9
$ORTHOMODE
 70
0
  9
$REGENMODE
 70
1
  9
$FILLMODE
 70
1
  9
$QTEXTMODE
 70
0
  9
$DRAGMODE
 70
2
  9
$LTSCALE
 40
1
  9
$OSMODE
 70
0
  9
$ATTMODE
 70
1
  9
$TEXTSIZE
 40
3.5
  9
$TRACEWID
 40
0.5
  9
$TEXTSTYLE
  7
STANDARD
  9
$CLAYER
  8
0
  9
$CELTYPE
  6
BYLAYER
  9
$CECOLOR
 62
256
  9
$DIMSCALE
 40
1
  9
$DIMASZ
 40
0.18
  9
$DIMEXO
 40
0.0625
  9
$DIMDLI
 40
0.38
  9
$DIMRND
 40
0
  9
$DIMDLE
 40
0
  9
$DIMEXE
 40
0.18
  9
$DIMTP
 40
0
  9
$DIMTM
 40
0
  9
$DIMTXT
 40
0.18
  9
$DIMCEN
 40
0.09
  9
$DIMTSZ
 40
0
  9
$DIMTOL
 70
0
  9
$DIMLIM
 70
0
  9
$DIMTIH
 70
1
  9
$DIMTOH
 70
1
  9
$DIMSE1
 70
0
  9
$DIMSE2
 70
0
  9
$DIMTAD
 70
0
  9
$DIMZIN
 70
0
  9
$DIMBLK
  1

  9
$DIMASO
 70
1
  9
$DIMSHO
 70
1
  9
$DIMPOST
  1

  9
$DIMAPOST
  1

  9
$DIMALT
 70
0
  9
$DIMALTD
 70
2
  9
$DIMALTF
 40
25.4
  9
$DIMLFAC
 40
1
  9
$DIMTOFL
 70
0
  9
$DIMTVP
 40
0
  9
$DIMTIX
 70
0
  9
$DIMSOXD
 70
0
  9
$DIMSAH
 70
0
  9
$DIMBLK1
  1

  9
$DIMBLK2
  1

  9
$DIMSTYLE
  2
*UNNAMED
  9
$DIMCLRD
 70
0
  9
$DIMCLRE
 70
0
  9
$DIMCLRT
 70
0
  9
$DIMTFAC
 40
1
  9
$DIMGAP
 40
0.09
  9
$LUNITS
 70
2
  9
$LUPREC
 70
4
  9
$AXISMODE
 70
0
  9
$AXISUNIT
 10
0
 20
0
  9
$SKETCHINC
 40
0.1
  9
$FILLETRAD
 40
2
  9
$AUNITS
 70
0
  9
$AUPREC
 70
0
  9
$MENU
  1
ACAD
  9
$ELEVATION
 40
0
  9
$THICKNESS
 40
0
  9
$VIEWDIR
 10
0
 20
0
 30
1
  9
$LIMCHECK
 70
0
  9
$BLIPMODE
 70
1
  9
$CHAMFERA
 40
0
  9
$CHAMFERB
 40
0
  9
$FASTZOOM
 70
1
  9
$SKPOLY
 70
0
  9
$ANGBASE
 50
0
  9
$ANGDIR
 70
0
  9
$PDMODE
 70
0
  9
$PDSIZE
 40
0
  9
$PLINEWID
 40
0
  9
$COORDS
 70
2
  0
ENDSEC
  0
SECTION
  2
TABLES
  0
TABLE
  2
DIMSTYLE
 70
2
  0
DIMSTYLE
  2
DMST_1
 70
0
  3

  4

  5

  6

  7

 40
1
 41
3.2
 42
0.5
 43
7
 44
1.5
 45
0
 46
0
 47
0
 48
0
140
3.2
141
0
142
0
143
25.4
144
1
145
0
146
1
147
0.09
 71
0
 72
0
 73
0
 74
0
 75
0
 76
0
 77
1
 78
9
170
0
171
2
172
0
173
0
174
0
175
0
176
2
177
2
178
2
  0
DIMSTYLE
  2
DMST_2
 70
0
  3

  4

  5

  6

  7

 40
1
 41
3.2
 42
0.5
 43
7
 44
1.5
 45
0
 46
0
 47
0
 48
0
140
3.2
141
0
142
0
143
25.4
144
1
145
0
146
1
147
0.09
 71
0
 72
0
 73
0
 74
0
 75
0
 76
0
 77
1
 78
9
170
0
171
2
172
1
173
0
174
0
175
0
176
2
177
2
178
2
  0
ENDTAB
  0
TABLE
  2
LTYPE
 70
9
  0
LTYPE
  2
CONTINUOUS
 70
64
  3
Solid line
 72
65
 73
0
 40
0
  0
LTYPE
  2
BORDER
 70
64
  3
__ __ . __ __ .
 72
65
 73
6
 40
32.24037947875875
 49
9.211536993931071
 49
-4.605768496965536
 49
9.211536993931071
 49
-4.605768496965536
 49
0
 49
-4.605768496965536
  0
LTYPE
  2
CENTER
 70
64
  3
____ _ ____ _
 72
65
 73
4
 40
36.84614797572429
 49
23.02884248482768
 49
-4.605768496965536
 49
4.605768496965536
 49
-4.605768496965536
  0
LTYPE
  2
DASHDOT
 70
64
  3
__ . __ . __ .
 72
65
 73
4
 40
18.42307398786214
 49
9.211536993931071
 49
-4.605768496965536
 49
0
 49
-4.605768496965536
  0
LTYPE
  2
DASHED
 70
64
  3
__ __ __ __ __
 72
65
 73
2
 40
13.81730549089661
 49
9.211536993931071
 49
-4.605768496965536
  0
LTYPE
  2
DIVIDE
 70
64
  3
__ . . __ . . 
 72
65
 73
6
 40
23.02884248482768
 49
9.211536993931071
 49
-4.605768496965536
 49
0
 49
-4.605768496965536
 49
0
 49
-4.605768496965536
  0
LTYPE
  2
DOT
 70
64
  3
..............
 72
65
 73
4
 40
9.211536993931071
 49
0
 49
-4.605768496965536
 49
0
 49
-4.605768496965536
  0
LTYPE
  2
HIDDEN
 70
64
  3
_ _ _ _ _ _ _
 72
65
 73
2
 40
6.908652745448304
 49
4.605768496965536
 49
-2.302884248482768
  0
LTYPE
  2
PHANTOM
 70
64
  3
_____ _ _ _____ _ _ 
 72
65
 73
6
 40
46.05768496965536
 49
23.02884248482768
 49
-4.605768496965536
 49
4.605768496965536
 49
-4.605768496965536
 49
4.605768496965536
 49
-4.605768496965536
  0
ENDTAB
  0
TABLE
  2
LAYER
 70
3
  0
LAYER
  2
0
 70
0
 62
7
  6
CONTINUOUS
  0
LAYER
  2
1
 70
0
 62
7
  6
CONTINUOUS
  0
ENDTAB
  0
TABLE
  2
STYLE
 70
4
  0
STYLE
  2
STANDARD
 70
0
 40
0
 41
1
 50
0
 71
0
 42
3.5
  3
txt
  4

  0
STYLE
  2
SIMPLEX
 70
0
 40
0
 41
1
 50
0
 71
0
 42
3.5
  3
simplex
  4

  0
STYLE
  2
COMPLEX
 70
0
 40
0
 41
1
 50
0
 71
0
 42
3.5
  3
complex
  4

  0
STYLE
  2
ITALIC
 70
0
 40
0
 41
1
 50
0
 71
0
 42
3.5
  3
italic
  4

  0
ENDTAB
  0
TABLE
  2
VIEW
 70
0
  0
ENDTAB
  0
ENDSEC
  0
SECTION
  2
BLOCKS
  0
BLOCK
  8
1
  2
*D0
 70
1
 10
0
 20
0
 30
0
  0
LINE
  8
1
 62
2
 10
64.93720009949999
 20
327.2206141774001
 30
0
 11
364.9372000995
 21
327.2206141774001
 31
0
  0
LINE
  8
1
 62
2
 10
364.9372000995
 20
392.2351763973001
 30
0
 11
364.9372000995
 21
325.7206141774001
 31
0
  0
LINE
  8
1
 62
2
 10
64.93720009949999
 20
392.2351763973001
 30
0
 11
64.93720009949999
 21
325.7206141774001
 31
0
  0
LINE
  8
1
 62
2
 10
364.9372000995
 20
327.2206141774001
 30
0
 11
361.7372000995
 21
326.3566141774001
 31
0
  0
LINE
  8
1
 62
2
 10
364.9372000995
 20
327.2206141774001
 30
0
 11
361.7372000995
 21
328.0846141774001
 31
0
  0
LINE
  8
1
 62
2
 10
64.93720009949999
 20
327.2206141774001
 30
0
 11
68.13720009949999
 21
328.0846141774001
 31
0
  0
LINE
  8
1
 62
2
 10
64.93720009949999
 20
327.2206141774001
 30
0
 11
68.13720009949999
 21
326.3566141774001
 31
0
  0
TEXT
  8
1
 62
2
 10
210.6684813916102
 20
328.2206141774001
 30
0
 40
3.2
  1
300
 41
0.9
 51
15
  0
ENDBLK
  8
0
  0
BLOCK
  8
1
  2
*D1
 70
1
 10
0
 20
0
 30
0
  0
LINE
  8
1
 62
2
 10
224.9372000995
 20
335.8270114294
 30
0
 11
364.9372000995
 21
335.8270114294
 31
0
  0
LINE
  8
1
 62
2
 10
364.9372000995
 20
392.2351763973
 30
0
 11
364.9372000995
 21
334.3270114294
 31
0
  0
LINE
  8
1
 62
2
 10
224.9372000995
 20
345.7538486833
 30
0
 11
224.9372000995
 21
334.3270114294
 31
0
  0
LINE
  8
1
 62
2
 10
224.9372000995
 20
335.8270114294
 30
0
 11
228.1372000995
 21
336.6910114294
 31
0
  0
LINE
  8
1
 62
2
 10
224.9372000995
 20
335.8270114294
 30
0
 11
228.1372000995
 21
334.9630114294
 31
0
  0
LINE
  8
1
 62
2
 10
364.9372000995
 20
335.8270114294
 30
0
 11
361.7372000995
 21
334.9630114294
 31
0
  0
LINE
  8
1
 62
2
 10
364.9372000995
 20
335.8270114294
 30
0
 11
361.7372000995
 21
336.6910114294
 31
0
  0
TEXT
  8
1
 62
2
 10
291.1484813916102
 20
336.8270114294
 30
0
 40
3.2
  1
140
 41
0.9
 51
15
  0
ENDBLK
  8
0
  0
BLOCK
  8
1
  2
*D2
 70
1
 10
0
 20
0
 30
0
  0
LINE
  8
1
 62
2
 10
64.9372000995
 20
335.8270114294
 30
0
 11
224.9372000995
 21
335.8270114294
 31
0
  0
LINE
  8
1
 62
2
 10
224.9372000995
 20
345.7538486833
 30
0
 11
224.9372000995
 21
334.3270114294
 31
0
  0
LINE
  8
1
 62
2
 10
64.9372000995
 20
392.2351763973
 30
0
 11
64.9372000995
 21
334.3270114294
 31
0
  0
LINE
  8
1
 62
2
 10
64.9372000995
 20
335.8270114294
 30
0
 11
68.13720009950001
 21
336.6910114294
 31
0
  0
LINE
  8
1
 62
2
 10
64.9372000995
 20
335.8270114294
 30
0
 11
68.13720009950001
 21
334.9630114294
 31
0
  0
LINE
  8
1
 62
2
 10
224.9372000995
 20
335.8270114294
 30
0
 11
221.7372000995
 21
334.9630114294
 31
0
  0
LINE
  8
1
 62
2
 10
224.9372000995
 20
335.8270114294
 30
0
 11
221.7372000995
 21
336.6910114294
 31
0
  0
TEXT
  8
1
 62
2
 10
141.1484813916102
 20
336.8270114294
 30
0
 40
3.2
  1
160
 41
0.9
 51
15
  0
ENDBLK
  8
0
  0
BLOCK
  8
1
  2
*D3
 70
1
 10
0
 20
0
 30
0
  0
LINE
  8
1
 62
2
 10
380.9372000995001
 20
355.2351763973
 30
0
 11
380.9372000995001
 21
455.2351763973
 31
0
  0
LINE
  8
1
 62
2
 10
371.7938984373001
 20
455.2351763973
 30
0
 11
382.4372000995001
 21
455.2351763973
 31
0
  0
LINE
  8
1
 62
2
 10
275.4372000995001
 20
355.2351763973
 30
0
 11
382.4372000995001
 21
355.2351763973
 31
0
  0
LINE
  8
1
 62
2
 10
380.9372000995001
 20
455.2351763973
 30
0
 11
381.8012000995
 21
452.0351763973
 31
0
  0
LINE
  8
1
 62
2
 10
380.9372000995001
 20
455.2351763973
 30
0
 11
380.0732000995001
 21
452.0351763973
 31
0
  0
LINE
  8
1
 62
2
 10
380.9372000995001
 20
355.2351763973
 30
0
 11
380.0732000995001
 21
358.4351763973
 31
0
  0
LINE
  8
1
 62
2
 10
380.9372000995001
 20
355.2351763973
 30
0
 11
381.8012000995
 21
358.4351763973
 31
0
  0
TEXT
  8
1
 62
2
 10
379.9372000995001
 20
401.4464576894102
 30
0
 40
3.2
  1
100
 50
90
 41
0.9
 51
15
  0
ENDBLK
  8
0
  0
BLOCK
  8
1
  2
*D4
 70
1
 10
0
 20
0
 30
0
  0
LINE
  8
1
 62
2
 10
389.3701018918
 20
355.2351763973
 30
0
 11
389.3701018918
 21
621.8851763973
 31
0
  0
LINE
  8
1
 62
2
 10
262.4372000995
 20
621.8851763973
 30
0
 11
390.8701018918
 21
621.8851763973
 31
0
  0
LINE
  8
1
 62
2
 10
275.4372000995
 20
355.2351763973
 30
0
 11
390.8701018918
 21
355.2351763973
 31
0
  0
LINE
  8
1
 62
2
 10
389.3701018918
 20
621.8851763973
 30
0
 11
390.2341018918
 21
618.6851763973
 31
0
  0
LINE
  8
1
 62
2
 10
389.3701018918
 20
621.8851763973
 30
0
 11
388.5061018918
 21
618.6851763973
 31
0
  0
LINE
  8
1
 62
2
 10
389.3701018918
 20
355.2351763973
 30
0
 11
388.5061018918
 21
358.4351763973
 31
0
  0
LINE
  8
1
 62
2
 10
389.3701018918
 20
355.2351763973
 30
0
 11
390.2341018918
 21
358.4351763973
 31
0
  0
TEXT
  8
1
 62
2
 10
388.3701018918
 20
484.2914576894102
 30
0
 40
3.2
  1
267
 50
90
 41
0.9
 51
15
  0
ENDBLK
  8
0
  0
BLOCK
  8
1
  2
*D5
 70
1
 10
0
 20
0
 30
0
  0
LINE
  8
1
 62
2
 10
380.9372000995001
 20
696.0547661802
 30
0
 11
380.9372000995001
 21
907.0547661802
 31
0
  0
LINE
  8
1
 62
2
 10
363.4372000995001
 20
907.0547661802
 30
0
 11
382.4372000995001
 21
907.0547661802
 31
0
  0
LINE
  8
1
 62
2
 10
363.4372000995001
 20
696.0547661802
 30
0
 11
382.4372000995001
 21
696.0547661802
 31
0
  0
LINE
  8
1
 62
2
 10
380.9372000995001
 20
907.0547661802
 30
0
 11
381.8012000995
 21
903.8547661801999
 31
0
  0
LINE
  8
1
 62
2
 10
380.9372000995001
 20
907.0547661802
 30
0
 11
380.0732000995001
 21
903.8547661801999
 31
0
  0
LINE
  8
1
 62
2
 10
380.9372000995001
 20
696.0547661802
 30
0
 11
380.0732000995001
 21
699.2547661802
 31
0
  0
LINE
  8
1
 62
2
 10
380.9372000995001
 20
696.0547661802
 30
0
 11
381.8012000995
 21
699.2547661802
 31
0
  0
TEXT
  8
1
 62
2
 10
379.9372000995001
 20
798.2460474723101
 30
0
 40
3.2
  1
211
 50
90
 41
0.9
 51
15
  0
ENDBLK
  8
0
  0
BLOCK
  8
1
  2
*D6
 70
1
 10
0
 20
0
 30
0
  0
LINE
  8
1
 62
2
 10
492.7976456578855
 20
444.4752994290391
 30
0
 11
690.0217248783557
 21
478.9436436663651
 31
0
  0
LINE
  8
1
 62
2
 10
615.9313136391146
 20
465.995053365561
 30
0
 11
612.9278362780044
 21
464.5930477516998
 31
0
  0
LINE
  8
1
 62
2
 10
615.9313136391146
 20
465.995053365561
 30
0
 11
612.6303471995859
 21
466.2952475778723
 31
0
  0
LINE
  8
1
 62
2
 10
492.7976456578855
 20
444.4752994290391
 30
0
 11
495.8011230189957
 21
445.8773050429003
 31
0
  0
LINE
  8
1
 62
2
 10
492.7976456578855
 20
444.4752994290391
 30
0
 11
496.0986120974142
 21
444.1751052167278
 31
0
  0
TEXT
  8
1
 62
2
 10
683.9613764937981
 20
478.8996491513468
 30
0
 40
3.2
  1
D3
 50
9.913315332696399
 41
0.9
 51
15
  0
ENDBLK
  8
0
  0
BLOCK
  8
1
  2
*D7
 70
1
 10
0
 20
0
 30
0
  0
LINE
  8
1
 62
2
 10
475.6942186554783
 20
425.7904818787649
 30
0
 11
686.87768498374
 21
504.8322007558964
 31
0
  0
LINE
  8
1
 62
2
 10
633.0347406415217
 20
484.679870915835
 30
0
 11
630.3406380330258
 21
482.748988440153
 31
0
  0
LINE
  8
1
 62
2
 10
633.0347406415217
 20
484.679870915835
 30
0
 11
629.7349186029302
 21
484.3673480948666
 31
0
  0
LINE
  8
1
 62
2
 10
475.6942186554783
 20
425.7904818787649
 30
0
 11
478.3883212639742
 21
427.7213643544469
 31
0
  0
LINE
  8
1
 62
2
 10
475.6942186554783
 20
425.7904818787649
 30
0
 11
478.9940406940697
 21
426.1030046997333
 31
0
  0
TEXT
  8
1
 62
2
 10
680.9289795541284
 20
503.673467925917
 30
0
 40
3.2
  1
D2
 50
20.51986280403589
 41
0.9
 51
15
  0
ENDBLK
  8
0
  0
BLOCK
  8
1
  2
*D8
 70
1
 10
0
 20
0
 30
0
  0
LINE
  8
1
 62
2
 10
462.57144789167
 20
403.23239454008
 30
0
 11
680.2633117851741
 21
526.5596481831997
 31
0
  0
LINE
  8
1
 62
2
 10
646.1575114053301
 20
507.23795825452
 30
0
 11
643.7991483901906
 21
504.9088769144157
 31
0
  0
LINE
  8
1
 62
2
 10
646.1575114053301
 20
507.23795825452
 30
0
 11
642.947387185932
 21
506.4123684677408
 31
0
  0
LINE
  8
1
 62
2
 10
462.57144789167
 20
403.23239454008
 30
0
 11
464.9298109068095
 21
405.5614758801843
 31
0
  0
LINE
  8
1
 62
2
 10
462.57144789167
 20
403.23239454008
 30
0
 11
465.781572111068
 21
404.0579843268592
 31
0
  0
TEXT
  8
1
 62
2
 10
675.4048418903705
 20
524.9565422907049
 30
0
 40
3.2
  1
D1
 50
29.53251245314136
 41
0.9
 51
15
  0
ENDBLK
  8
0
  0
ENDSEC
  0
SECTION
  2
ENTITIES
  0
POLYLINE
  8
0
 62
7
 66
1
  0
VERTEX
  8
0
 10
488.8476054543
 20
545.0575804838001
 30
0
  0
VERTEX
  8
0
 10
489.7780786627
 20
545.8747527131
 30
0
  0
VERTEX
  8
0
 10
490.4694552892
 20
546.4257380494
 30
0
  0
SEQEND
  8
0
  0
POLYLINE
  8
0
 62
7
 66
1
  0
VERTEX
  8
0
 10
619.8813538426
 20
545.0575804838001
 30
0
  0
VERTEX
  8
0
 10
618.9508806342
 20
545.8747527131
 30
0
  0
VERTEX
  8
0
 10
618.2595040077
 20
546.4257380494
 30
0
  0
SEQEND
  8
0
  0
POLYLINE
  8
0
 62
7
 66
1
  0
VERTEX
  8
0
 10
489.4968639487
 20
545.1113960275
 30
0
  0
VERTEX
  8
0
 10
489.2815645212
 20
544.9810779223
 30
0
  0
VERTEX
  8
0
 10
489.2052556747
 20
544.8823428282
 30
0
  0
SEQEND
  8
0
  0
POLYLINE
  8
0
 62
7
 66
1
  0
VERTEX
  8
0
 10
619.2320953482
 20
545.1113960275
 30
0
  0
VERTEX
  8
0
 10
619.4473947757
 20
544.9810779223
 30
0
  0
VERTEX
  8
0
 10
619.5237036222
 20
544.8823428282
 30
0
  0
SEQEND
  8
0
  0
POLYLINE
  8
0
 62
7
 66
1
  0
VERTEX
  8
0
 10
476.191594767
 20
587.347396327
 30
0
  0
VERTEX
  8
0
 10
473.3847598904
 20
586.2434587011001
 30
0
  0
VERTEX
  8
0
 10
473.36447941
 20
586.2351736554
 30
0
  0
SEQEND
  8
0
  0
POLYLINE
  8
0
 62
7
 66
1
  0
VERTEX
  8
0
 10
635.3644798869
 20
586.2351736554
 30
0
  0
VERTEX
  8
0
 10
635.3441994065
 20
586.2434587011001
 30
0
  0
VERTEX
  8
0
 10
634.8538468951
 20
586.443402482
 30
0
  0
VERTEX
  8
0
 10
632.53736453
 20
587.347396327
 30
0
  0
SEQEND
  8
0
  0
POLYLINE
  8
0
 62
7
 66
1
  0
VERTEX
  8
0
 10
525.3778170222
 20
587.347396327
 30
0
  0
VERTEX
  8
0
 10
524.2669112408
 20
586.2434587011001
 30
0
  0
VERTEX
  8
0
 10
524.2567840391
 20
586.2351736554
 30
0
  0
SEQEND
  8
0
  0
POLYLINE
  8
0
 62
7
 66
1
  0
VERTEX
  8
0
 10
525.8574965769
 20
588.2351777086
 30
0
  0
VERTEX
  8
0
 10
525.8049271428
 20
588.1488254794
 30
0
  0
VERTEX
  8
0
 10
525.6385500902001
 20
587.7899161109
 30
0
  0
VERTEX
  8
0
 10
525.3778170222
 20
587.347396327
 30
0
  0
SEQEND
  8
0
  0
POLYLINE
  8
0
 62
7
 66
1
  0
VERTEX
  8
0
 10
583.3511422747
 20
587.347396327
 30
0
  0
VERTEX
  8
0
 10
583.0876189643
 20
587.7956679591
 30
0
  0
VERTEX
  8
0
 10
582.9240321541
 20
588.1488254794
 30
0
  0
VERTEX
  8
0
 10
582.87146272
 20
588.2351777086
 30
0
  0
SEQEND
  8
0
  0
POLYLINE
  8
0
 62
7
 66
1
  0
VERTEX
  8
0
 10
640.1144783372
 20
598.235183073
 30
0
  0
VERTEX
  8
0
 10
641.4071466201
 20
598.167889429
 30
0
  0
VERTEX
  8
0
 10
644.8644767874
 20
597.3866662511
 30
0
  0
SEQEND
  8
0
  0
POLYLINE
  8
0
 62
7
 66
1
  0
VERTEX
  8
0
 10
635.3644798869
 20
597.3866662511
 30
0
  0
VERTEX
  8
0
 10
636.5647907728001
 20
597.746439887
 30
0
  0
VERTEX
  8
0
 10
640.1144783372
 20
598.235183073
 30
0
  0
SEQEND
  8
0
  0
POLYLINE
  8
0
 62
7
 66
1
  0
VERTEX
  8
0
 10
630.6144814366
 20
598.235183073
 30
0
  0
VERTEX
  8
0
 10
633.0373208397
 20
598.0022928247
 30
0
  0
VERTEX
  8
0
 10
635.3644798869
 20
597.3866662511
 30
0
  0
SEQEND
  8
0
  0
POLYLINE
  8
0
 62
7
 66
1
  0
VERTEX
  8
0
 10
509.114481079
 20
598.235183073
 30
0
  0
VERTEX
  8
0
 10
511.5373204821
 20
598.0022928247
 30
0
  0
VERTEX
  8
0
 10
513.8644795292
 20
597.3866662511
 30
0
  0
SEQEND
  8
0
  0
POLYLINE
  8
0
 62
7
 66
1
  0
VERTEX
  8
0
 10
518.6144779795
 20
598.235183073
 30
0
  0
VERTEX
  8
0
 10
521.037321108
 20
598.0022928247
 30
0
  0
VERTEX
  8
0
 10
523.3644801551
 20
597.3866662511
 30
0
  0
SEQEND
  8
0
  0
POLYLINE
  8
0
 62
7
 66
1
  0
VERTEX
  8
0
 10
478.1144778603
 20
598.235183073
 30
0
  0
VERTEX
  8
0
 10
481.6641654247
 20
597.746439887
 30
0
  0
VERTEX
  8
0
 10
482.8644763106
 20
597.3866662511
 30
0
  0
SEQEND
  8
0
  0
POLYLINE
  8
0
 62
7
 66
1
  0
VERTEX
  8
0
 10
473.36447941
 20
597.3866662511
 30
0
  0
VERTEX
  8
0
 10
476.8218170279
 20
598.167889429
 30
0
  0
VERTEX
  8
0
 10
478.1144778603
 20
598.235183073
 30
0
  0
SEQEND
  8
0
  0
POLYLINE
  8
0
 62
7
 66
1
  0
VERTEX
  8
0
 10
468.6144809598
 20
598.235183073
 30
0
  0
VERTEX
  8
0
 10
471.0373203629
 20
598.0022928247
 30
0
  0
VERTEX
  8
0
 10
473.36447941
 20
597.3866662511
 30
0
  0
SEQEND
  8
0
  0
POLYLINE
  8
0
 62
7
 66
1
  0
VERTEX
  8
0
 10
585.3644791418
 20
597.3866662511
 30
0
  0
VERTEX
  8
0
 10
586.5647900277
 20
597.746439887
 30
0
  0
VERTEX
  8
0
 10
590.1144813174
 20
598.235183073
 30
0
  0
SEQEND
  8
0
  0
POLYLINE
  8
0
 62
7
 66
1
  0
VERTEX
  8
0
 10
590.1144813174
 20
598.235183073
 30
0
  0
VERTEX
  8
0
 10
591.4071458751
 20
598.167889429
 30
0
  0
VERTEX
  8
0
 10
594.8644797677
 20
597.3866662511
 30
0
  0
SEQEND
  8
0
  0
POLYLINE
  8
0
 62
7
 66
1
  0
VERTEX
  8
0
 10
599.6144782179
 20
598.235183073
 30
0
  0
VERTEX
  8
0
 10
602.0373213464
 20
598.0022928247
 30
0
  0
VERTEX
  8
0
 10
604.3644803935
 20
597.3866662511
 30
0
  0
SEQEND
  8
0
  0
POLYLINE
  8
0
 62
7
 66
1
  0
VERTEX
  8
0
 10
464.8880879754
 20
546.2351745495
 30
0
  0
VERTEX
  8
0
 10
463.6248345846
 20
546.4680647978
 30
0
  0
VERTEX
  8
0
 10
462.411477732
 20
547.0836839208
 30
0
  0
SEQEND
  8
0
  0
POLYLINE
  8
0
 62
7
 66
1
  0
VERTEX
  8
0
 10
472.8411878818
 20
546.2351745495
 30
0
  0
VERTEX
  8
0
 10
468.7485839599
 20
546.7239102848999
 30
0
  0
VERTEX
  8
0
 10
467.3646907681
 20
547.0836839208
 30
0
  0
SEQEND
  8
0
  0
POLYLINE
  8
0
 62
7
 66
1
  0
VERTEX
  8
0
 10
478.3176924461
 20
547.0836839208
 30
0
  0
VERTEX
  8
0
 10
474.3315647715
 20
546.3024681935
 30
0
  0
VERTEX
  8
0
 10
472.8411878818
 20
546.2351745495
 30
0
  0
SEQEND
  8
0
  0
POLYLINE
  8
0
 62
7
 66
1
  0
VERTEX
  8
0
 10
481.3175867671
 20
546.2351745495
 30
0
  0
VERTEX
  8
0
 10
479.787423777
 20
546.4680647978
 30
0
  0
VERTEX
  8
0
 10
478.3176924461
 20
547.0836839208
 30
0
  0
SEQEND
  8
0
  0
POLYLINE
  8
0
 62
7
 66
1
  0
VERTEX
  8
0
 10
626.8880884522
 20
546.2351745495
 30
0
  0
VERTEX
  8
0
 10
625.6248350614
 20
546.4680647978
 30
0
  0
VERTEX
  8
0
 10
624.4114782089
 20
547.0836839208
 30
0
  0
SEQEND
  8
0
  0
POLYLINE
  8
0
 62
7
 66
1
  0
VERTEX
  8
0
 10
634.8411883586
 20
546.2351745495
 30
0
  0
VERTEX
  8
0
 10
633.3508189195001
 20
546.3024681935
 30
0
  0
VERTEX
  8
0
 10
629.3646912449
 20
547.0836839208
 30
0
  0
SEQEND
  8
0
  0
POLYLINE
  8
0
 62
7
 66
1
  0
VERTEX
  8
0
 10
640.3176929229001
 20
547.0836839208
 30
0
  0
VERTEX
  8
0
 10
638.9337922805
 20
546.7239102848999
 30
0
  0
VERTEX
  8
0
 10
634.8411883586
 20
546.2351745495
 30
0
  0
SEQEND
  8
0
  0
POLYLINE
  8
0
 62
7
 66
1
  0
VERTEX
  8
0
 10
643.3175872439
 20
546.2351745495
 30
0
  0
VERTEX
  8
0
 10
641.7874242538001
 20
546.4680647978
 30
0
  0
VERTEX
  8
0
 10
640.3176929229001
 20
547.0836839208
 30
0
  0
SEQEND
  8
0
  0
POLYLINE
  8
0
 62
7
 66
1
  0
VERTEX
  8
0
 10
484.3124221438
 20
538.2826632389
 30
0
  0
VERTEX
  8
0
 10
484.6785958284
 20
538.8392216095
 30
0
  0
VERTEX
  8
0
 10
485.2121915096
 20
539.6622201928
 30
0
  0
VERTEX
  8
0
 10
485.661826598
 20
540.3652197251
 30
0
  0
VERTEX
  8
0
 10
486.0379170054
 20
540.9606552252
 30
0
  0
VERTEX
  8
0
 10
486.5581686967
 20
541.7899569997001
 30
0
  0
VERTEX
  8
0
 10
487.1797855371
 20
542.7990561852
 30
0
  0
VERTEX
  8
0
 10
487.8042783016
 20
543.8289797434001
 30
0
  0
VERTEX
  8
0
 10
488.6290501231
 20
544.8612502345
 30
0
  0
SEQEND
  8
0
  0
POLYLINE
  8
0
 62
7
 66
1
  0
VERTEX
  8
0
 10
620.0999091738
 20
544.8612502345
 30
0
  0
VERTEX
  8
0
 10
620.9246809953
 20
543.8289797434001
 30
0
  0
VERTEX
  8
0
 10
621.5491737598001
 20
542.7990561852
 30
0
  0
VERTEX
  8
0
 10
622.1707906002
 20
541.7899569997001
 30
0
  0
VERTEX
  8
0
 10
622.6910422915
 20
540.9606552252
 30
0
  0
VERTEX
  8
0
 10
623.172387051
 20
540.1998615393
 30
0
  0
VERTEX
  8
0
 10
623.7721960419
 20
539.2667880782
 30
0
  0
VERTEX
  8
0
 10
624.4128714675001
 20
538.2874316105
 30
0
  0
SEQEND
  8
0
  0
POLYLINE
  8
0
 62
7
 66
1
  0
VERTEX
  8
0
 10
478.2619919056
 20
530.6448495516
 30
0
  0
VERTEX
  8
0
 10
478.1943778866
 20
530.6282645592
 30
0
  0
VERTEX
  8
0
 10
478.3036033982
 20
530.7793325314
 30
0
  0
VERTEX
  8
0
 10
478.5084049576
 20
531.0234135517
 30
0
  0
VERTEX
  8
0
 10
479.0676529878
 20
531.6829985508
 30
0
  0
VERTEX
  8
0
 10
479.7226633304
 20
532.463648034
 30
0
  0
VERTEX
  8
0
 10
481.2428648943
 20
534.2932051548
 30
0
  0
VERTEX
  8
0
 10
481.8995367163
 20
535.0985533127
 30
0
  0
VERTEX
  8
0
 10
482.5666542524
 20
535.9468987712
 30
0
  0
VERTEX
  8
0
 10
483.2362006777
 20
536.829561604
 30
0
  0
VERTEX
  8
0
 10
483.7782751196
 20
537.5868237147
 30
0
  0
VERTEX
  8
0
 10
484.7379695052
 20
538.8370236883
 30
0
  0
VERTEX
  8
0
 10
486.2377713793
 20
540.6224286684
 30
0
  0
VERTEX
  8
0
 10
487.3749609464
 20
542.0839643606
 30
0
  0
VERTEX
  8
0
 10
487.9349018806
 20
542.9893589148001
 30
0
  0
VERTEX
  8
0
 10
488.4547512406
 20
543.9308515319
 30
0
  0
VERTEX
  8
0
 10
489.1958455914
 20
544.8904043564
 30
0
  0
SEQEND
  8
0
  0
POLYLINE
  8
0
 62
7
 66
1
  0
VERTEX
  8
0
 10
619.5331137055
 20
544.8904043564
 30
0
  0
VERTEX
  8
0
 10
620.2742080563
 20
543.9308515319
 30
0
  0
VERTEX
  8
0
 10
620.7940574163
 20
542.9893589148001
 30
0
  0
VERTEX
  8
0
 10
621.3539983505
 20
542.0839643606
 30
0
  0
VERTEX
  8
0
 10
622.4911879176
 20
540.6224286684
 30
0
  0
VERTEX
  8
0
 10
623.9909897917
 20
538.8370236883
 30
0
  0
VERTEX
  8
0
 10
624.9506841773
 20
537.5868237147
 30
0
  0
VERTEX
  8
0
 10
625.4927586192
 20
536.829561604
 30
0
  0
VERTEX
  8
0
 10
626.1623050445
 20
535.9468987712
 30
0
  0
VERTEX
  8
0
 10
626.8294225806
 20
535.0985533127
 30
0
  0
VERTEX
  8
0
 10
627.4860944027
 20
534.2932051548
 30
0
  0
VERTEX
  8
0
 10
629.0062959665
 20
532.463648034
 30
0
  0
VERTEX
  8
0
 10
629.6613063091
 20
531.6829985508
 30
0
  0
VERTEX
  8
0
 10
630.2205543393
 20
531.0234135517
 30
0
  0
VERTEX
  8
0
 10
630.4253558987
 20
530.7793325314
 30
0
  0
VERTEX
  8
0
 10
630.5345814103
 20
530.6282645592
 30
0
  0
VERTEX
  8
0
 10
630.4669673914
 20
530.6448495516
 30
0
  0
SEQEND
  8
0
  0
POLYLINE
  8
0
 62
7
 66
1
  0
VERTEX
  8
0
 10
288.3359245128
 20
748.3312989841
 30
0
  0
VERTEX
  8
0
 10
285.6125162837
 20
747.2486278481
 30
0
  0
VERTEX
  8
0
 10
283.449086731
 20
747.2501937925
 30
0
  0
SEQEND
  8
0
  0
POLYLINE
  8
0
 62
7
 66
1
  0
VERTEX
  8
0
 10
288.3359245128
 20
854.7782333762
 30
0
  0
VERTEX
  8
0
 10
285.6125162837
 20
855.8609045122
 30
0
  0
VERTEX
  8
0
 10
283.449086731
 20
855.8593385678
 30
0
  0
SEQEND
  8
0
  0
POLYLINE
  8
0
 62
7
 66
1
  0
VERTEX
  8
0
 10
208.5879696226
 20
892.5995511693
 30
0
  0
VERTEX
  8
0
 10
208.2866288493
 20
892.5450191545
 30
0
  0
VERTEX
  8
0
 10
208.1377637907
 20
892.5174578699
 30
0
  0
SEQEND
  8
0
  0
POLYLINE
  8
0
 62
7
 66
1
  0
VERTEX
  8
0
 10
250.5428432688
 20
889.7997423227
 30
0
  0
VERTEX
  8
0
 10
256.7955205608
 20
887.7442599676
 30
0
  0
VERTEX
  8
0
 10
262.8623378536
 20
885.2737945053
 30
0
  0
SEQEND
  8
0
  0
POLYLINE
  8
0
 62
7
 66
1
  0
VERTEX
  8
0
 10
253.2660999665
 20
889.1879595944
 30
0
  0
VERTEX
  8
0
 10
256.500871109
 20
888.4878006983
 30
0
  0
VERTEX
  8
0
 10
258.8568110123
 20
887.0382895609
 30
0
  0
SEQEND
  8
0
  0
POLYLINE
  8
0
 62
7
 66
1
  0
VERTEX
  8
0
 10
242.2026380626
 20
891.8186080992
 30
0
  0
VERTEX
  8
0
 10
242.5920465435
 20
892.2280558621
 30
0
  0
VERTEX
  8
0
 10
242.9807114048
 20
892.2682489014001
 30
0
  0
SEQEND
  8
0
  0
POLYLINE
  8
0
 62
7
 66
1
  0
VERTEX
  8
0
 10
234.6442113098
 20
893.5408894612
 30
0
  0
VERTEX
  8
0
 10
234.129908447
 20
893.5953541546001
 30
0
  0
VERTEX
  8
0
 10
234.1033725975
 20
893.5975435945001
 30
0
  0
SEQEND
  8
0
  0
POLYLINE
  8
0
 62
7
 66
1
  0
VERTEX
  8
0
 10
214.8969127103
 20
889.0795522581
 30
0
  0
VERTEX
  8
0
 10
211.0459275653
 20
888.482012933
 30
0
  0
VERTEX
  8
0
 10
199.9372000995
 20
885.7121280467
 30
0
  0
SEQEND
  8
0
  0
POLYLINE
  8
0
 62
7
 66
1
  0
VERTEX
  8
0
 10
206.6872000995
 20
715.7030523153001
 30
0
  0
VERTEX
  8
0
 10
213.8528739107
 20
714.1469423833
 30
0
  0
VERTEX
  8
0
 10
214.8804001501
 20
714.0482735965001
 30
0
  0
SEQEND
  8
0
  0
POLYLINE
  8
0
 62
7
 66
1
  0
VERTEX
  8
0
 10
206.6872000995
 20
714.3913192163
 30
0
  0
VERTEX
  8
0
 10
213.8512111991
 20
712.9121033702
 30
0
  0
VERTEX
  8
0
 10
216.0787276964
 20
712.7207024759
 30
0
  0
SEQEND
  8
0
  0
POLYLINE
  8
0
 62
7
 66
1
  0
VERTEX
  8
0
 10
233.1586669461
 20
711.954826141
 30
0
  0
VERTEX
  8
0
 10
241.1007674104
 20
713.7189314131
 30
0
  0
VERTEX
  8
0
 10
249.9372000995
 20
716.6639469998
 30
0
  0
SEQEND
  8
0
  0
POLYLINE
  8
0
 62
7
 66
1
  0
VERTEX
  8
0
 10
235.4584879373
 20
714.9186624723
 30
0
  0
VERTEX
  8
0
 10
241.0112809351
 20
715.2819646587
 30
0
  0
VERTEX
  8
0
 10
249.9372000995
 20
716.6639469998
 30
0
  0
SEQEND
  8
0
  0
POLYLINE
  8
0
 62
7
 66
1
  0
VERTEX
  8
0
 10
249.9372000995
 20
886.4455853605
 30
0
  0
VERTEX
  8
0
 10
240.9458459553
 20
887.8346766662
 30
0
  0
VERTEX
  8
0
 10
235.458067493
 20
888.1920025736
 30
0
  0
SEQEND
  8
0
  0
POLYLINE
  8
0
 62
7
 66
1
  0
VERTEX
  8
0
 10
233.1586669461
 20
891.1547062193
 30
0
  0
VERTEX
  8
0
 10
241.1007674104
 20
889.3906009472
 30
0
  0
VERTEX
  8
0
 10
249.9372000995
 20
886.4455853605
 30
0
  0
SEQEND
  8
0
  0
POLYLINE
  8
0
 62
7
 66
1
  0
VERTEX
  8
0
 10
213.7184573314
 20
715.8109010802
 30
0
  0
VERTEX
  8
0
 10
212.1713725971
 20
716.0324859844
 30
0
  0
VERTEX
  8
0
 10
206.6872000995
 20
717.2023338993
 30
0
  0
SEQEND
  8
0
  0
POLYLINE
  8
0
 62
7
 66
1
  0
VERTEX
  8
0
 10
249.9372000995
 20
718.3081173396
 30
0
  0
VERTEX
  8
0
 10
240.9463667086
 20
716.8981993043
 30
0
  0
VERTEX
  8
0
 10
236.7238562785
 20
716.6170043697
 30
0
  0
SEQEND
  8
0
  0
POLYLINE
  8
0
 62
7
 66
1
  0
VERTEX
  8
0
 10
262.8623378536
 20
883.6157494557
 30
0
  0
VERTEX
  8
0
 10
256.7683150684
 20
886.1421601656
 30
0
  0
VERTEX
  8
0
 10
250.5428432688
 20
888.2242064881
 30
0
  0
SEQEND
  8
0
  0
POLYLINE
  8
0
 62
7
 66
1
  0
VERTEX
  8
0
 10
242.9007924128
 20
890.7294651437001
 30
0
  0
VERTEX
  8
0
 10
242.5901466963
 20
890.6956453413
 30
0
  0
VERTEX
  8
0
 10
242.2026380626
 20
890.2784177943
 30
0
  0
SEQEND
  8
0
  0
POLYLINE
  8
0
 62
7
 66
1
  0
VERTEX
  8
0
 10
242.2026380626
 20
890.2784177943
 30
0
  0
VERTEX
  8
0
 10
236.5557603277
 20
891.2154587983
 30
0
  0
VERTEX
  8
0
 10
232.7818550051
 20
891.604432118
 30
0
  0
SEQEND
  8
0
  0
POLYLINE
  8
0
 62
7
 66
1
  0
VERTEX
  8
0
 10
236.7291116733
 20
886.4906336268
 30
0
  0
VERTEX
  8
0
 10
241.0130010576
 20
886.2039705521
 30
0
  0
VERTEX
  8
0
 10
249.9372000995
 20
884.8014150207
 30
0
  0
SEQEND
  8
0
  0
POLYLINE
  8
0
 62
7
 66
1
  0
VERTEX
  8
0
 10
147.1420262443
 20
802.0584237899
 30
0
  0
VERTEX
  8
0
 10
147.2778125248
 20
801.8495707476
 30
0
  0
VERTEX
  8
0
 10
147.3472324004
 20
801.5416082854
 30
0
  0
SEQEND
  8
0
  0
POLYLINE
  8
0
 62
7
 66
1
  0
VERTEX
  8
0
 10
147.3472324004
 20
801.5416082854
 30
0
  0
VERTEX
  8
0
 10
147.3066301564
 20
801.2831577204
 30
0
  0
VERTEX
  8
0
 10
147.1420262443
 20
800.9943918689
 30
0
  0
SEQEND
  8
0
  0
POLYLINE
  8
0
 62
7
 66
1
  0
VERTEX
  8
0
 10
143.550918511
 20
801.085594605
 30
0
  0
VERTEX
  8
0
 10
143.4281336295
 20
801.2826634696
 30
0
  0
VERTEX
  8
0
 10
143.3713631244
 20
801.5720091975001
 30
0
  0
SEQEND
  8
0
  0
POLYLINE
  8
0
 62
7
 66
1
  0
VERTEX
  8
0
 10
143.3713631244
 20
801.5720091975001
 30
0
  0
VERTEX
  8
0
 10
143.3964006651
 20
801.7992832516
 30
0
  0
VERTEX
  8
0
 10
143.5252677415
 20
802.0584237899
 30
0
  0
SEQEND
  8
0
  0
POLYLINE
  8
0
 62
7
 66
1
  0
VERTEX
  8
0
 10
143.5252677415
 20
802.0584237899
 30
0
  0
VERTEX
  8
0
 10
143.9692846957
 20
802.3254226382001
 30
0
  0
VERTEX
  8
0
 10
144.628250831
 20
802.4232347342
 30
0
  0
SEQEND
  8
0
  0
POLYLINE
  8
0
 62
7
 66
1
  0
VERTEX
  8
0
 10
144.628250831
 20
803.0920547988
 30
0
  0
VERTEX
  8
0
 10
143.9152523003
 20
802.9979182429
 30
0
  0
VERTEX
  8
0
 10
143.1661569682
 20
802.4840365583
 30
0
  0
SEQEND
  8
0
  0
POLYLINE
  8
0
 62
7
 66
1
  0
VERTEX
  8
0
 10
143.1661569682
 20
802.4840365583
 30
0
  0
VERTEX
  8
0
 10
142.9611216825
 20
802.1102390404
 30
0
  0
VERTEX
  8
0
 10
142.8839985034
 20
801.5720091975001
 30
0
  0
SEQEND
  8
0
  0
POLYLINE
  8
0
 62
7
 66
1
  0
VERTEX
  8
0
 10
142.8839985034
 20
801.5720091975001
 30
0
  0
VERTEX
  8
0
 10
142.9534547632
 20
801.1127903651
 30
0
  0
VERTEX
  8
0
 10
143.2431092767
 20
800.5991800126
 30
0
  0
SEQEND
  8
0
  0
POLYLINE
  8
0
 62
7
 66
1
  0
VERTEX
  8
0
 10
143.2431092767
 20
800.5991800126
 30
0
  0
VERTEX
  8
0
 10
144.1459771755
 20
799.9885995880001
 30
0
  0
VERTEX
  8
0
 10
145.5260277643
 20
799.7783553878001
 30
0
  0
SEQEND
  8
0
  0
POLYLINE
  8
0
 62
7
 66
1
  0
VERTEX
  8
0
 10
147.5267877871
 20
800.5383781885
 30
0
  0
VERTEX
  8
0
 10
147.7734690657
 20
800.946315118
 30
0
  0
VERTEX
  8
0
 10
147.8839985034
 20
801.5416082854
 30
0
  0
SEQEND
  8
0
  0
POLYLINE
  8
0
 62
7
 66
1
  0
VERTEX
  8
0
 10
147.8839985034
 20
801.5416082854
 30
0
  0
VERTEX
  8
0
 10
147.8169058785
 20
802.0138533384001
 30
0
  0
VERTEX
  8
0
 10
147.5267877871
 20
802.5448383823
 30
0
  0
SEQEND
  8
0
  0
POLYLINE
  8
0
 62
7
 66
1
  0
VERTEX
  8
0
 10
147.5267877871
 20
802.5448383823
 30
0
  0
VERTEX
  8
0
 10
146.8994152519
 20
802.9435496314
 30
0
  0
VERTEX
  8
0
 10
145.9620908462
 20
803.1224557108
 30
0
  0
SEQEND
  8
0
  0
POLYLINE
  8
0
 62
7
 66
1
  0
VERTEX
  8
0
 10
143.2174585072
 20
807.0928148216
 30
0
  0
VERTEX
  8
0
 10
142.9811270622
 20
806.6833992501
 30
0
  0
VERTEX
  8
0
 10
142.8839985034
 20
806.0895847247
 30
0
  0
SEQEND
  8
0
  0
POLYLINE
  8
0
 62
7
 66
1
  0
VERTEX
  8
0
 10
142.8839985034
 20
806.0895847247
 30
0
  0
VERTEX
  8
0
 10
142.9400642523
 20
805.6059873258
 30
0
  0
VERTEX
  8
0
 10
143.2174585072
 20
805.0559537158
 30
0
  0
SEQEND
  8
0
  0
POLYLINE
  8
0
 62
7
 66
1
  0
VERTEX
  8
0
 10
147.5524385566
 20
805.0559537158
 30
0
  0
VERTEX
  8
0
 10
147.7902900691
 20
805.4787571293
 30
0
  0
VERTEX
  8
0
 10
147.8839985034
 20
806.0895847247
 30
0
  0
SEQEND
  8
0
  0
POLYLINE
  8
0
 62
7
 66
1
  0
VERTEX
  8
0
 10
147.8839985034
 20
806.0895847247
 30
0
  0
VERTEX
  8
0
 10
147.8265862061
 20
806.5596483196
 30
0
  0
VERTEX
  8
0
 10
147.5524385566
 20
807.0928148216
 30
0
  0
SEQEND
  8
0
  0
POLYLINE
  8
0
 62
7
 66
1
  0
VERTEX
  8
0
 10
143.6022200501
 20
805.4815664842
 30
0
  0
VERTEX
  8
0
 10
143.4466090712
 20
805.7279015399
 30
0
  0
VERTEX
  8
0
 10
143.3713631244
 20
806.0895847247
 30
0
  0
SEQEND
  8
0
  0
POLYLINE
  8
0
 62
7
 66
1
  0
VERTEX
  8
0
 10
143.3713631244
 20
806.0895847247
 30
0
  0
VERTEX
  8
0
 10
143.420521304
 20
806.3633376059
 30
0
  0
VERTEX
  8
0
 10
143.6022200501
 20
806.6672020532
 30
0
  0
SEQEND
  8
0
  0
POLYLINE
  8
0
 62
7
 66
1
  0
VERTEX
  8
0
 10
147.1676770138
 20
806.6672020532
 30
0
  0
VERTEX
  8
0
 10
147.3201034724
 20
806.4337684375
 30
0
  0
VERTEX
  8
0
 10
147.3985339395
 20
806.0895847247
 30
0
  0
SEQEND
  8
0
  0
POLYLINE
  8
0
 62
7
 66
1
  0
VERTEX
  8
0
 10
147.3985339395
 20
806.0895847247
 30
0
  0
VERTEX
  8
0
 10
147.352123549
 20
805.8022429710001
 30
0
  0
VERTEX
  8
0
 10
147.1676770138
 20
805.4815664842
 30
0
  0
SEQEND
  8
0
  0
POLYLINE
  8
0
 62
7
 66
1
  0
VERTEX
  8
0
 10
255.2505575002
 20
817.192995327
 30
0
  0
VERTEX
  8
0
 10
255.0270971719
 20
816.7656051268
 30
0
  0
VERTEX
  8
0
 10
254.9489044506
 20
816.1539681562
 30
0
  0
SEQEND
  8
0
  0
POLYLINE
  8
0
 62
7
 66
1
  0
VERTEX
  8
0
 10
254.9489044506
 20
816.1539681562
 30
0
  0
VERTEX
  8
0
 10
255.1251041796
 20
815.3870847321
 30
0
  0
VERTEX
  8
0
 10
255.8035880911
 20
814.6531511317
 30
0
  0
SEQEND
  8
0
  0
POLYLINE
  8
0
 62
7
 66
1
  0
VERTEX
  8
0
 10
254.9489044506
 20
813.4409527658
 30
0
  0
VERTEX
  8
0
 10
255.1251041796
 20
812.6740693416
 30
0
  0
VERTEX
  8
0
 10
255.8035880911
 20
811.9401357412
 30
0
  0
SEQEND
  8
0
  0
POLYLINE
  8
0
 62
7
 66
1
  0
VERTEX
  8
0
 10
256.155516649
 20
812.3442018632001
 30
0
  0
VERTEX
  8
0
 10
255.9876588118
 20
812.6001176041
 30
0
  0
VERTEX
  8
0
 10
255.9041391076
 20
812.9791629121
 30
0
  0
SEQEND
  8
0
  0
POLYLINE
  8
0
 62
7
 66
1
  0
VERTEX
  8
0
 10
255.9041391076
 20
812.9791629121
 30
0
  0
VERTEX
  8
0
 10
255.9327127329
 20
813.1703535926
 30
0
  0
VERTEX
  8
0
 10
256.0549656324
 20
813.383229034
 30
0
  0
SEQEND
  8
0
  0
POLYLINE
  8
0
 62
7
 66
1
  0
VERTEX
  8
0
 10
256.0549656324
 20
813.383229034
 30
0
  0
VERTEX
  8
0
 10
256.2909936715
 20
813.4613955353
 30
0
  0
VERTEX
  8
0
 10
256.6079962234
 20
813.4819179947
 30
0
  0
SEQEND
  8
0
  0
POLYLINE
  8
0
 62
7
 66
1
  0
VERTEX
  8
0
 10
256.155516649
 20
815.1149409854
 30
0
  0
VERTEX
  8
0
 10
255.9944635033
 20
815.3467319964
 30
0
  0
VERTEX
  8
0
 10
255.9041391076
 20
815.6921783025
 30
0
  0
SEQEND
  8
0
  0
POLYLINE
  8
0
 62
7
 66
1
  0
VERTEX
  8
0
 10
255.9041391076
 20
815.6921783025
 30
0
  0
VERTEX
  8
0
 10
255.9289705951
 20
815.9085931929
 30
0
  0
VERTEX
  8
0
 10
256.0549656324
 20
816.1539681562
 30
0
  0
SEQEND
  8
0
  0
POLYLINE
  8
0
 62
7
 66
1
  0
VERTEX
  8
0
 10
256.0549656324
 20
816.1539681562
 30
0
  0
VERTEX
  8
0
 10
256.3062942964
 20
816.2712651883001
 30
0
  0
VERTEX
  8
0
 10
256.6582717316
 20
816.3103808486
 30
0
  0
SEQEND
  8
0
  0
POLYLINE
  8
0
 62
7
 66
1
  0
VERTEX
  8
0
 10
256.155516649
 20
824.1149409854
 30
0
  0
VERTEX
  8
0
 10
255.9944635033
 20
824.3467319964
 30
0
  0
VERTEX
  8
0
 10
255.9041391076
 20
824.6921783025
 30
0
  0
SEQEND
  8
0
  0
POLYLINE
  8
0
 62
7
 66
1
  0
VERTEX
  8
0
 10
255.2505575002
 20
826.192995327
 30
0
  0
VERTEX
  8
0
 10
255.0270971719
 20
825.7656051268
 30
0
  0
VERTEX
  8
0
 10
254.9489044506
 20
825.1539681562
 30
0
  0
SEQEND
  8
0
  0
POLYLINE
  8
0
 62
7
 66
1
  0
VERTEX
  8
0
 10
254.9489044506
 20
825.1539681562
 30
0
  0
VERTEX
  8
0
 10
255.1251041796
 20
824.3870847321
 30
0
  0
VERTEX
  8
0
 10
255.8035880911
 20
823.6531511317
 30
0
  0
SEQEND
  8
0
  0
POLYLINE
  8
0
 62
7
 66
1
  0
VERTEX
  8
0
 10
254.9489044506
 20
822.4409527658
 30
0
  0
VERTEX
  8
0
 10
255.1251041796
 20
821.6740693416
 30
0
  0
VERTEX
  8
0
 10
255.8035880911
 20
820.9401357412
 30
0
  0
SEQEND
  8
0
  0
POLYLINE
  8
0
 62
7
 66
1
  0
VERTEX
  8
0
 10
256.155516649
 20
821.3442018632001
 30
0
  0
VERTEX
  8
0
 10
255.9876588118
 20
821.6001176041
 30
0
  0
VERTEX
  8
0
 10
255.9041391076
 20
821.9791629121
 30
0
  0
SEQEND
  8
0
  0
POLYLINE
  8
0
 62
7
 66
1
  0
VERTEX
  8
0
 10
255.9041391076
 20
821.9791629121
 30
0
  0
VERTEX
  8
0
 10
255.9327127329
 20
822.1703535926
 30
0
  0
VERTEX
  8
0
 10
256.0549656324
 20
822.383229034
 30
0
  0
SEQEND
  8
0
  0
POLYLINE
  8
0
 62
7
 66
1
  0
VERTEX
  8
0
 10
256.0549656324
 20
822.383229034
 30
0
  0
VERTEX
  8
0
 10
256.2909936715
 20
822.4613955353
 30
0
  0
VERTEX
  8
0
 10
256.6079962234
 20
822.4819179947
 30
0
  0
SEQEND
  8
0
  0
POLYLINE
  8
0
 62
7
 66
1
  0
VERTEX
  8
0
 10
255.9041391076
 20
824.6921783025
 30
0
  0
VERTEX
  8
0
 10
255.9289705951
 20
824.9085931929
 30
0
  0
VERTEX
  8
0
 10
256.0549656324
 20
825.1539681562
 30
0
  0
SEQEND
  8
0
  0
POLYLINE
  8
0
 62
7
 66
1
  0
VERTEX
  8
0
 10
256.0549656324
 20
825.1539681562
 30
0
  0
VERTEX
  8
0
 10
256.3062942964
 20
825.2712651883001
 30
0
  0
VERTEX
  8
0
 10
256.6582717316
 20
825.3103808486
 30
0
  0
SEQEND
  8
0
  0
POLYLINE
  8
0
 62
7
 66
1
  0
VERTEX
  8
0
 10
192.4721843361
 20
888.1818340597
 30
0
  0
VERTEX
  8
0
 10
192.4983150941
 20
888.1928815198
 30
0
  0
VERTEX
  8
0
 10
197.2158083336
 20
889.723844573
 30
0
  0
SEQEND
  8
0
  0
POLYLINE
  8
0
 62
7
 66
1
  0
VERTEX
  8
0
 10
164.9578148102
 20
732.9346021721
 30
0
  0
VERTEX
  8
0
 10
159.3548553182
 20
734.2348603622
 30
0
  0
VERTEX
  8
0
 10
153.2655984613
 20
736.1515310082
 30
0
  0
VERTEX
  8
0
 10
147.9207523277
 20
738.3539714134
 30
0
  0
VERTEX
  8
0
 10
142.9853686501
 20
740.6160222873
 30
0
  0
VERTEX
  8
0
 10
134.9887360918
 20
744.2811456008
 30
0
  0
VERTEX
  8
0
 10
127.4684986618
 20
747.727921151
 30
0
  0
VERTEX
  8
0
 10
120.4246563634
 20
750.9563489209
 30
0
  0
VERTEX
  8
0
 10
115.9741179003
 20
752.9961790711
 30
0
  0
VERTEX
  8
0
 10
111.4791512329
 20
754.7924975557
 30
0
  0
VERTEX
  8
0
 10
106.6894850286
 20
756.1565106644
 30
0
  0
VERTEX
  8
0
 10
101.7753236599
 20
757.1225174335
 30
0
  0
VERTEX
  8
0
 10
96.8764677906
 20
757.7291885237
 30
0
  0
VERTEX
  8
0
 10
92.1030620759
 20
758.0171213456
 30
0
  0
VERTEX
  8
0
 10
87.5449373708
 20
758.0547664386
 30
0
  0
VERTEX
  8
0
 10
84.9372000859
 20
758.0547664327
 30
0
  0
SEQEND
  8
0
  0
POLYLINE
  8
0
 62
7
 66
1
  0
VERTEX
  8
0
 10
84.9372000985
 20
845.054765933
 30
0
  0
VERTEX
  8
0
 10
89.08488094409999
 20
845.0547659371
 30
0
  0
VERTEX
  8
0
 10
94.932751371
 20
845.228318993
 30
0
  0
VERTEX
  8
0
 10
100.6792762769
 20
845.8222969334
 30
0
  0
VERTEX
  8
0
 10
106.1997734434
 20
846.8388235063
 30
0
  0
VERTEX
  8
0
 10
111.3581287254
 20
848.2764129835
 30
0
  0
VERTEX
  8
0
 10
116.0097222102
 20
850.1296719579
 30
0
  0
VERTEX
  8
0
 10
120.4602606725
 20
852.1695021035
 30
0
  0
VERTEX
  8
0
 10
124.9820077477
 20
854.2419695381
 30
0
  0
VERTEX
  8
0
 10
141.4650362294
 20
861.7966910388
 30
0
  0
VERTEX
  8
0
 10
146.8946646645
 20
864.2852707646
 30
0
  0
VERTEX
  8
0
 10
152.5984964764
 20
866.7129476381
 30
0
  0
VERTEX
  8
0
 10
159.0348118477
 20
868.7868938116
 30
0
  0
VERTEX
  8
0
 10
164.9545577485
 20
870.1719058639
 30
0
  0
SEQEND
  8
0
  0
POLYLINE
  8
0
 62
7
 66
1
  0
VERTEX
  8
0
 10
333.9496683888
 20
756.2921418995001
 30
0
  0
VERTEX
  8
0
 10
331.8365781881
 20
755.698318795
 30
0
  0
VERTEX
  8
0
 10
327.2215960677
 20
753.7978663566
 30
0
  0
VERTEX
  8
0
 10
322.6308494262
 20
751.3329616991
 30
0
  0
VERTEX
  8
0
 10
317.8060453723
 20
748.6893177749
 30
0
  0
VERTEX
  8
0
 10
312.7204484834
 20
745.9028130417
 30
0
  0
VERTEX
  8
0
 10
303.6649994145
 20
740.9412045451001
 30
0
  0
VERTEX
  8
0
 10
293.8854922056
 20
735.5828677477
 30
0
  0
VERTEX
  8
0
 10
283.3816454396
 20
729.8278961323
 30
0
  0
SEQEND
  8
0
  0
POLYLINE
  8
0
 62
7
 66
1
  0
VERTEX
  8
0
 10
283.3816454401
 20
873.2816362266
 30
0
  0
VERTEX
  8
0
 10
293.8854922057
 20
867.5266646118
 30
0
  0
VERTEX
  8
0
 10
303.6649994145
 20
862.1683278147
 30
0
  0
VERTEX
  8
0
 10
312.7204484834
 20
857.2067193184
 30
0
  0
VERTEX
  8
0
 10
319.036696374
 20
853.7459099697001
 30
0
  0
VERTEX
  8
0
 10
324.9454500831
 20
850.5083247779
 30
0
  0
VERTEX
  8
0
 10
330.6795124756
 20
847.8262742057
 30
0
  0
VERTEX
  8
0
 10
333.9630047672
 20
846.8522552394001
 30
0
  0
SEQEND
  8
0
  0
POLYLINE
  8
0
 62
7
 66
1
  0
VERTEX
  8
0
 10
283.3810524244
 20
729.8262482244001
 30
0
  0
VERTEX
  8
0
 10
275.645176858
 20
725.5870489258
 30
0
  0
VERTEX
  8
0
 10
267.9093354
 20
721.3479094896001
 30
0
  0
SEQEND
  8
0
  0
POLYLINE
  8
0
 62
7
 66
1
  0
VERTEX
  8
0
 10
267.9093354
 20
881.7616228707
 30
0
  0
VERTEX
  8
0
 10
275.645176858
 20
877.5224834345
 30
0
  0
VERTEX
  8
0
 10
283.3810524244
 20
873.2832841359
 30
0
  0
SEQEND
  8
0
  0
POLYLINE
  8
0
 62
7
 66
1
  0
VERTEX
  8
0
 10
213.1006313636
 20
711.3949825993
 30
0
  0
VERTEX
  8
0
 10
210.3842141896
 20
711.7260651746
 30
0
  0
VERTEX
  8
0
 10
206.6872000995
 20
712.4693189049
 30
0
  0
SEQEND
  8
0
  0
POLYLINE
  8
0
 62
7
 66
1
  0
VERTEX
  8
0
 10
200.0465927294
 20
888.956961486
 30
0
  0
VERTEX
  8
0
 10
203.6285216759
 20
890.0252917665
 30
0
  0
VERTEX
  8
0
 10
205.1206512474
 20
890.3252719243
 30
0
  0
SEQEND
  8
0
  0
POLYLINE
  8
0
 62
7
 66
1
  0
VERTEX
  8
0
 10
242.876742223
 20
890.6005286558
 30
0
  0
VERTEX
  8
0
 10
247.0896507388
 20
889.8133079834
 30
0
  0
VERTEX
  8
0
 10
250.5428432688
 20
888.7167718566
 30
0
  0
SEQEND
  8
0
  0
POLYLINE
  8
0
 62
7
 66
1
  0
VERTEX
  8
0
 10
281.8845441991
 20
592.3851763973
 30
0
  0
VERTEX
  8
0
 10
281.6056094298
 20
594.0171960005
 30
0
  0
VERTEX
  8
0
 10
281.459346411
 20
594.3851763973
 30
0
  0
SEQEND
  8
0
  0
POLYLINE
  8
0
 62
7
 66
1
  0
VERTEX
  8
0
 10
174.9254112395
 20
605.3851763973
 30
0
  0
VERTEX
  8
0
 10
174.8869550637
 20
606.6778079856
 30
0
  0
VERTEX
  8
0
 10
174.6265091007
 20
608.9218573374
 30
0
  0
VERTEX
  8
0
 10
174.1715933981
 20
610.7777419190001
 30
0
  0
VERTEX
  8
0
 10
173.6378427502
 20
611.9700700124
 30
0
  0
VERTEX
  8
0
 10
173.1229554818
 20
612.3851763973
 30
0
  0
SEQEND
  8
0
  0
POLYLINE
  8
0
 62
7
 66
1
  0
VERTEX
  8
0
 10
279.3501569983
 20
544.2351763973001
 30
0
  0
VERTEX
  8
0
 10
279.5662808453
 20
544.3174515942
 30
0
  0
VERTEX
  8
0
 10
280.3628259417
 20
544.4993501033
 30
0
  0
SEQEND
  8
0
  0
POLYLINE
  8
0
 62
7
 66
1
  0
VERTEX
  8
0
 10
328.0346034943
 20
412.1093002251
 30
0
  0
VERTEX
  8
0
 10
328.8466440375
 20
411.8324199086
 30
0
  0
VERTEX
  8
0
 10
338.1575156156
 20
408.658268077
 30
0
  0
SEQEND
  8
0
  0
POLYLINE
  8
0
 62
7
 66
1
  0
VERTEX
  8
0
 10
285.1270788817
 20
424.9646803628
 30
0
  0
VERTEX
  8
0
 10
284.5185638148
 20
425.813040288
 30
0
  0
VERTEX
  8
0
 10
284.297282388
 20
426.5777092156
 30
0
  0
SEQEND
  8
0
  0
POLYLINE
  8
0
 62
7
 66
1
  0
VERTEX
  8
0
 10
129.7166384164
 20
515.5487529492
 30
0
  0
VERTEX
  8
0
 10
129.6664552227
 20
515.4156126312
 30
0
  0
VERTEX
  8
0
 10
129.5425345181
 20
515.2039759592
 30
0
  0
VERTEX
  8
0
 10
129.2549004117
 20
515.0440595482
 30
0
  0
VERTEX
  8
0
 10
129.134646108
 20
515.156784821
 30
0
  0
VERTEX
  8
0
 10
129.0958374036
 20
515.2806092226
 30
0
  0
VERTEX
  8
0
 10
129.0839691049
 20
515.3812511292
 30
0
  0
VERTEX
  8
0
 10
129.0828980906
 20
515.4732352955
 30
0
  0
SEQEND
  8
0
  0
POLYLINE
  8
0
 62
7
 66
1
  0
VERTEX
  8
0
 10
129.455133053
 20
492.8234231752
 30
0
  0
VERTEX
  8
0
 10
129.3579658761
 20
493.8437620707
 30
0
  0
VERTEX
  8
0
 10
129.1809858084
 20
496.9641669217
 30
0
  0
VERTEX
  8
0
 10
129.1794063856
 20
500.0736096894
 30
0
  0
VERTEX
  8
0
 10
129.2630861632
 20
503.1803649895
 30
0
  0
VERTEX
  8
0
 10
129.4753976572
 20
509.3658901436
 30
0
  0
VERTEX
  8
0
 10
129.7166384164
 20
515.5487529492
 30
0
  0
SEQEND
  8
0
  0
POLYLINE
  8
0
 62
7
 66
1
  0
VERTEX
  8
0
 10
84.9372000995
 20
498.7351763973
 30
0
  0
VERTEX
  8
0
 10
91.2058536696
 20
498.7351763973
 30
0
  0
VERTEX
  8
0
 10
97.4654915428
 20
498.6782780355
 30
0
  0
VERTEX
  8
0
 10
105.4281533334
 20
497.731344584
 30
0
  0
SEQEND
  8
0
  0
POLYLINE
  8
0
 62
7
 66
1
  0
VERTEX
  8
0
 10
84.9372000995
 20
411.0706297411
 30
0
  0
VERTEX
  8
0
 10
89.66085618459999
 20
410.2022759903
 30
0
  0
VERTEX
  8
0
 10
94.2917489116
 20
408.9863881729
 30
0
  0
VERTEX
  8
0
 10
101.1600670417
 20
406.4688108723
 30
0
  0
VERTEX
  8
0
 10
107.6991669506
 20
403.1825678718
 30
0
  0
VERTEX
  8
0
 10
113.8414680296
 20
399.1556078475
 30
0
  0
VERTEX
  8
0
 10
119.5193896701
 20
394.4158794754
 30
0
  0
VERTEX
  8
0
 10
126.731998388
 20
387.6151024631
 30
0
  0
VERTEX
  8
0
 10
134.3739958643
 20
381.4068863412
 30
0
  0
VERTEX
  8
0
 10
142.4328015761
 20
375.843197943
 30
0
  0
VERTEX
  8
0
 10
150.8668261745
 20
370.9398038741
 30
0
  0
VERTEX
  8
0
 10
159.6344803108
 20
366.7124707404
 30
0
  0
VERTEX
  8
0
 10
168.694174636
 20
363.1769651475
 30
0
  0
SEQEND
  8
0
  0
POLYLINE
  8
0
 62
7
 66
1
  0
VERTEX
  8
0
 10
217.4372000995
 20
356.4585887507
 30
0
  0
VERTEX
  8
0
 10
221.1855318627
 20
356.2908795111
 30
0
  0
VERTEX
  8
0
 10
222.3473942508
 20
356.2616619443
 30
0
  0
SEQEND
  8
0
  0
POLYLINE
  8
0
 62
7
 66
1
  0
VERTEX
  8
0
 10
221.388155267
 20
367.2258137008
 30
0
  0
VERTEX
  8
0
 10
222.8861893799
 20
367.1634271586
 30
0
  0
VERTEX
  8
0
 10
224.9372000995
 20
367.0893125032
 30
0
  0
SEQEND
  8
0
  0
POLYLINE
  8
0
 62
7
 66
1
  0
VERTEX
  8
0
 10
174.3989099753
 20
361.3878606708
 30
0
  0
VERTEX
  8
0
 10
182.3861919992
 20
359.3165857236
 30
0
  0
VERTEX
  8
0
 10
190.1639664248
 20
357.8271273563
 30
0
  0
SEQEND
  8
0
  0
POLYLINE
  8
0
 62
7
 66
1
  0
VERTEX
  8
0
 10
294.0425813069
 20
542.7883037236001
 30
0
  0
VERTEX
  8
0
 10
297.1451529993
 20
539.2702119703
 30
0
  0
VERTEX
  8
0
 10
299.4058956651
 20
535.11813432
 30
0
  0
VERTEX
  8
0
 10
300.3789660152
 20
532.0636160013
 30
0
  0
VERTEX
  8
0
 10
300.8782771796
 20
528.8259479262
 30
0
  0
VERTEX
  8
0
 10
301.0221619996
 20
525.4818152022
 30
0
  0
VERTEX
  8
0
 10
301.9022263714
 20
520.289122724
 30
0
  0
SEQEND
  8
0
  0
POLYLINE
  8
0
 62
7
 66
1
  0
VERTEX
  8
0
 10
230.540316193
 20
398.3096586317
 30
0
  0
VERTEX
  8
0
 10
231.4160044358
 20
398.4396662672
 30
0
  0
VERTEX
  8
0
 10
232.3717811369
 20
399.0252200986
 30
0
  0
SEQEND
  8
0
  0
POLYLINE
  8
0
 62
7
 66
1
  0
VERTEX
  8
0
 10
232.3717811369
 20
399.0252200986
 30
0
  0
VERTEX
  8
0
 10
232.9544702953
 20
400.1602582463
 30
0
  0
VERTEX
  8
0
 10
233.1259137609
 20
401.7903730532
 30
0
  0
SEQEND
  8
0
  0
POLYLINE
  8
0
 62
7
 66
1
  0
VERTEX
  8
0
 10
232.2999589822
 20
404.6632592397
 30
0
  0
VERTEX
  8
0
 10
231.5964747774
 20
405.1255360087
 30
0
  0
VERTEX
  8
0
 10
230.540316193
 20
405.3096586317
 30
0
  0
SEQEND
  8
0
  0
POLYLINE
  8
0
 62
7
 66
1
  0
VERTEX
  8
0
 10
231.6894706676
 20
399.4920641039
 30
0
  0
VERTEX
  8
0
 10
231.2356125342
 20
399.155962517
 30
0
  0
VERTEX
  8
0
 10
230.540316193
 20
398.9893090212
 30
0
  0
SEQEND
  8
0
  0
POLYLINE
  8
0
 62
7
 66
1
  0
VERTEX
  8
0
 10
230.540316193
 20
404.6300082422
 30
0
  0
VERTEX
  8
0
 10
231.0762804044
 20
404.5383218144
 30
0
  0
VERTEX
  8
0
 10
231.6535595903
 20
404.1605041571
 30
0
  0
SEQEND
  8
0
  0
POLYLINE
  8
0
 62
7
 66
1
  0
VERTEX
  8
0
 10
142.7944425542
 20
581.5724539528
 30
0
  0
VERTEX
  8
0
 10
142.7987957873
 20
581.2413190597
 30
0
  0
VERTEX
  8
0
 10
142.7997576232
 20
581.2351763973001
 30
0
  0
SEQEND
  8
0
  0
POLYLINE
  8
0
 62
7
 66
1
  0
VERTEX
  8
0
 10
307.0746425757
 20
581.2351763973001
 30
0
  0
VERTEX
  8
0
 10
307.0756044116
 20
581.2413190597
 30
0
  0
VERTEX
  8
0
 10
307.0791582729
 20
581.5302789706
 30
0
  0
SEQEND
  8
0
  0
POLYLINE
  8
0
 62
7
 66
1
  0
VERTEX
  8
0
 10
289.085257806
 20
586.2351763973001
 30
0
  0
VERTEX
  8
0
 10
289.0677001717
 20
586.2434571713
 30
0
  0
VERTEX
  8
0
 10
288.6484732276
 20
586.4434042613
 30
0
  0
VERTEX
  8
0
 10
286.8057936642
 20
587.3473894758
 30
0
  0
SEQEND
  8
0
  0
POLYLINE
  8
0
 62
7
 66
1
  0
VERTEX
  8
0
 10
307.02259266
 20
581.5331963382
 30
0
  0
VERTEX
  8
0
 10
307.0754183107
 20
581.2468138035
 30
0
  0
VERTEX
  8
0
 10
307.0746425757
 20
581.2351763973001
 30
0
  0
SEQEND
  8
0
  0
POLYLINE
  8
0
 62
7
 66
1
  0
VERTEX
  8
0
 10
142.7997576232
 20
581.2351763973001
 30
0
  0
VERTEX
  8
0
 10
142.7989818883
 20
581.2468138035
 30
0
  0
VERTEX
  8
0
 10
142.8518075389
 20
581.5331963382
 30
0
  0
SEQEND
  8
0
  0
POLYLINE
  8
0
 62
7
 66
1
  0
VERTEX
  8
0
 10
163.0686065347
 20
587.3473894758
 30
0
  0
VERTEX
  8
0
 10
160.8067000273
 20
586.2434571713
 30
0
  0
VERTEX
  8
0
 10
160.7891423929
 20
586.2351763973001
 30
0
  0
SEQEND
  8
0
  0
POLYLINE
  8
0
 62
7
 66
1
  0
VERTEX
  8
0
 10
171.431899272
 20
592.3851763973
 30
0
  0
VERTEX
  8
0
 10
171.4429831119
 20
592.6063289348
 30
0
  0
VERTEX
  8
0
 10
171.5712838473
 20
593.1592771244
 30
0
  0
VERTEX
  8
0
 10
171.7912283164
 20
593.5986892186
 30
0
  0
VERTEX
  8
0
 10
172.0618547281
 20
593.9407845794
 30
0
  0
VERTEX
  8
0
 10
172.3191761507
 20
594.1721860183
 30
0
  0
VERTEX
  8
0
 10
172.4362949086
 20
594.275480941
 30
0
  0
VERTEX
  8
0
 10
172.3577972448
 20
594.2910779941
 30
0
  0
VERTEX
  8
0
 10
172.1229597356
 20
594.2438390566
 30
0
  0
VERTEX
  8
0
 10
171.7982059246
 20
594.1243346937
 30
0
  0
VERTEX
  8
0
 10
171.4107176701
 20
593.8873955272001
 30
0
  0
VERTEX
  8
0
 10
171.0141948646
 20
593.4657200857
 30
0
  0
VERTEX
  8
0
 10
170.7498435923
 20
592.8958184762
 30
0
  0
VERTEX
  8
0
 10
170.6810371178
 20
592.3851763973
 30
0
  0
SEQEND
  8
0
  0
POLYLINE
  8
0
 62
7
 66
1
  0
VERTEX
  8
0
 10
286.8580164701
 20
598.2351763973001
 30
0
  0
VERTEX
  8
0
 10
288.2568442371
 20
598.0022865636
 30
0
  0
VERTEX
  8
0
 10
289.6004302487
 20
597.3866706212
 30
0
  0
SEQEND
  8
0
  0
POLYLINE
  8
0
 62
7
 66
1
  0
VERTEX
  8
0
 10
289.6004302487
 20
597.3866706212
 30
0
  0
VERTEX
  8
0
 10
290.9864305829
 20
597.7464404005
 30
0
  0
VERTEX
  8
0
 10
295.085257806
 20
598.2351763973001
 30
0
  0
SEQEND
  8
0
  0
POLYLINE
  8
0
 62
7
 66
1
  0
VERTEX
  8
0
 10
295.085257806
 20
598.2351763973001
 30
0
  0
VERTEX
  8
0
 10
296.577898729
 20
598.1678879338
 30
0
  0
VERTEX
  8
0
 10
300.5700853633
 20
597.3866706212
 30
0
  0
SEQEND
  8
0
  0
POLYLINE
  8
0
 62
7
 66
1
  0
VERTEX
  8
0
 10
303.312499142
 20
598.2351763973001
 30
0
  0
VERTEX
  8
0
 10
304.711326909
 20
598.0022865636
 30
0
  0
VERTEX
  8
0
 10
306.0549129206
 20
597.3866706212
 30
0
  0
SEQEND
  8
0
  0
POLYLINE
  8
0
 62
7
 66
1
  0
VERTEX
  8
0
 10
163.0163837289
 20
598.2351763973001
 30
0
  0
VERTEX
  8
0
 10
165.0657973404
 20
597.7464404005
 30
0
  0
VERTEX
  8
0
 10
165.7587975075
 20
597.3866706212
 30
0
  0
SEQEND
  8
0
  0
POLYLINE
  8
0
 62
7
 66
1
  0
VERTEX
  8
0
 10
146.561901057
 20
598.2351763973001
 30
0
  0
VERTEX
  8
0
 10
147.960728824
 20
598.0022865636
 30
0
  0
VERTEX
  8
0
 10
149.3043148356
 20
597.3866706212
 30
0
  0
SEQEND
  8
0
  0
POLYLINE
  8
0
 62
7
 66
1
  0
VERTEX
  8
0
 10
160.2739699502
 20
597.3866706212
 30
0
  0
VERTEX
  8
0
 10
162.2700632674
 20
598.1678879338
 30
0
  0
VERTEX
  8
0
 10
163.0163837289
 20
598.2351763973001
 30
0
  0
SEQEND
  8
0
  0
POLYLINE
  8
0
 62
7
 66
1
  0
VERTEX
  8
0
 10
154.7891423929
 20
598.2351763973001
 30
0
  0
VERTEX
  8
0
 10
157.5867979271
 20
598.0022865636
 30
0
  0
VERTEX
  8
0
 10
160.2739699502
 20
597.3866706212
 30
0
  0
SEQEND
  8
0
  0
POLYLINE
  8
0
 62
7
 66
1
  0
VERTEX
  8
0
 10
213.9675449849
 20
597.3866706212
 30
0
  0
VERTEX
  8
0
 10
214.660545152
 20
597.7464404005
 30
0
  0
VERTEX
  8
0
 10
216.7099587635
 20
598.2351763973001
 30
0
  0
SEQEND
  8
0
  0
POLYLINE
  8
0
 62
7
 66
1
  0
VERTEX
  8
0
 10
233.1644414354
 20
598.2351763973001
 30
0
  0
VERTEX
  8
0
 10
234.5632692025
 20
598.0022865636
 30
0
  0
VERTEX
  8
0
 10
235.9068552141
 20
597.3866706212
 30
0
  0
SEQEND
  8
0
  0
POLYLINE
  8
0
 62
7
 66
1
  0
VERTEX
  8
0
 10
216.7099587635
 20
598.2351763973001
 30
0
  0
VERTEX
  8
0
 10
217.456279225
 20
598.1678879338
 30
0
  0
VERTEX
  8
0
 10
219.4523725422
 20
597.3866706212
 30
0
  0
SEQEND
  8
0
  0
POLYLINE
  8
0
 62
7
 66
1
  0
VERTEX
  8
0
 10
224.9372000995
 20
598.2351763973001
 30
0
  0
VERTEX
  8
0
 10
227.7348556336
 20
598.0022865636
 30
0
  0
VERTEX
  8
0
 10
230.4220276568
 20
597.3866706212
 30
0
  0
SEQEND
  8
0
  0
POLYLINE
  8
0
 62
7
 66
1
  0
VERTEX
  8
0
 10
304.8729552963
 20
547.0836821733
 30
0
  0
VERTEX
  8
0
 10
304.732858848
 20
546.4920722618
 30
0
  0
VERTEX
  8
0
 10
304.5923196956
 20
546.2397974163
 30
0
  0
VERTEX
  8
0
 10
304.5708347247
 20
546.2351763973001
 30
0
  0
SEQEND
  8
0
  0
POLYLINE
  8
0
 62
7
 66
1
  0
VERTEX
  8
0
 10
285.2975603157
 20
547.0836821733
 30
0
  0
VERTEX
  8
0
 10
285.437656764
 20
546.4920722618
 30
0
  0
VERTEX
  8
0
 10
285.5781959165
 20
546.2397974163
 30
0
  0
VERTEX
  8
0
 10
285.5996808873
 20
546.2351763973001
 30
0
  0
SEQEND
  8
0
  0
POLYLINE
  8
0
 62
7
 66
1
  0
VERTEX
  8
0
 10
304.5708347247
 20
546.2351763973001
 30
0
  0
VERTEX
  8
0
 10
304.4167315592
 20
546.4680662309
 30
0
  0
VERTEX
  8
0
 10
304.2687141531
 20
547.0836821733
 30
0
  0
SEQEND
  8
0
  0
POLYLINE
  8
0
 62
7
 66
1
  0
VERTEX
  8
0
 10
289.8892884893
 20
546.2351763973001
 30
0
  0
VERTEX
  8
0
 10
288.6396956247
 20
546.3024648607
 30
0
  0
VERTEX
  8
0
 10
285.2975603157
 20
547.0836821733
 30
0
  0
SEQEND
  8
0
  0
POLYLINE
  8
0
 62
7
 66
1
  0
VERTEX
  8
0
 10
294.4810166628
 20
547.0836821733
 30
0
  0
VERTEX
  8
0
 10
293.3207000044
 20
546.7239123941
 30
0
  0
VERTEX
  8
0
 10
289.8892884893
 20
546.2351763973001
 30
0
  0
SEQEND
  8
0
  0
POLYLINE
  8
0
 62
7
 66
1
  0
VERTEX
  8
0
 10
299.374865408
 20
546.2351763973001
 30
0
  0
VERTEX
  8
0
 10
296.8786514647
 20
546.4680662309
 30
0
  0
VERTEX
  8
0
 10
294.4810166628
 20
547.0836821733
 30
0
  0
SEQEND
  8
0
  0
POLYLINE
  8
0
 62
7
 66
1
  0
VERTEX
  8
0
 10
234.7248975898
 20
547.0836821733
 30
0
  0
VERTEX
  8
0
 10
234.5049961079
 20
546.3024648607
 30
0
  0
VERTEX
  8
0
 10
234.4227770182
 20
546.2351763973001
 30
0
  0
SEQEND
  8
0
  0
POLYLINE
  8
0
 62
7
 66
1
  0
VERTEX
  8
0
 10
215.1495026092
 20
547.0836821733
 30
0
  0
VERTEX
  8
0
 10
215.2258476189
 20
546.7239123941
 30
0
  0
VERTEX
  8
0
 10
215.4516231808
 20
546.2351763973001
 30
0
  0
SEQEND
  8
0
  0
POLYLINE
  8
0
 62
7
 66
1
  0
VERTEX
  8
0
 10
234.4227770182
 20
546.2351763973001
 30
0
  0
VERTEX
  8
0
 10
234.1970014563
 20
546.7239123941
 30
0
  0
VERTEX
  8
0
 10
234.1206564466
 20
547.0836821733
 30
0
  0
SEQEND
  8
0
  0
POLYLINE
  8
0
 62
7
 66
1
  0
VERTEX
  8
0
 10
219.7412307827
 20
546.2351763973001
 30
0
  0
VERTEX
  8
0
 10
217.399120005
 20
546.4680662309
 30
0
  0
VERTEX
  8
0
 10
215.1495026092
 20
547.0836821733
 30
0
  0
SEQEND
  8
0
  0
POLYLINE
  8
0
 62
7
 66
1
  0
VERTEX
  8
0
 10
229.2268077014
 20
546.2351763973001
 30
0
  0
VERTEX
  8
0
 10
226.7305937581
 20
546.4680662309
 30
0
  0
VERTEX
  8
0
 10
224.3329589563
 20
547.0836821733
 30
0
  0
SEQEND
  8
0
  0
POLYLINE
  8
0
 62
7
 66
1
  0
VERTEX
  8
0
 10
164.5768398832
 20
547.0836821733
 30
0
  0
VERTEX
  8
0
 10
164.4367434349
 20
546.4920722618
 30
0
  0
VERTEX
  8
0
 10
164.2962042825
 20
546.2397974163
 30
0
  0
VERTEX
  8
0
 10
164.2747193116
 20
546.2351763973001
 30
0
  0
SEQEND
  8
0
  0
POLYLINE
  8
0
 62
7
 66
1
  0
VERTEX
  8
0
 10
164.2747193116
 20
546.2351763973001
 30
0
  0
VERTEX
  8
0
 10
164.1206161461
 20
546.4680662309
 30
0
  0
VERTEX
  8
0
 10
163.97259874
 20
547.0836821733
 30
0
  0
SEQEND
  8
0
  0
POLYLINE
  8
0
 62
7
 66
1
  0
VERTEX
  8
0
 10
145.0014449026
 20
547.0836821733
 30
0
  0
VERTEX
  8
0
 10
145.141541351
 20
546.4920722618
 30
0
  0
VERTEX
  8
0
 10
145.2820805034
 20
546.2397974163
 30
0
  0
VERTEX
  8
0
 10
145.3035654742
 20
546.2351763973001
 30
0
  0
SEQEND
  8
0
  0
POLYLINE
  8
0
 62
7
 66
1
  0
VERTEX
  8
0
 10
163.97259874
 20
547.0836821733
 30
0
  0
VERTEX
  8
0
 10
160.4105619492
 20
546.3024648607
 30
0
  0
VERTEX
  8
0
 10
159.0787499949
 20
546.2351763973001
 30
0
  0
SEQEND
  8
0
  0
POLYLINE
  8
0
 62
7
 66
1
  0
VERTEX
  8
0
 10
159.0787499949
 20
546.2351763973001
 30
0
  0
VERTEX
  8
0
 10
155.4215629179
 20
546.7239123941
 30
0
  0
VERTEX
  8
0
 10
154.1849012497
 20
547.0836821733
 30
0
  0
SEQEND
  8
0
  0
POLYLINE
  8
0
 62
7
 66
1
  0
VERTEX
  8
0
 10
149.5931730762
 20
546.2351763973001
 30
0
  0
VERTEX
  8
0
 10
147.2510622985
 20
546.4680662309
 30
0
  0
VERTEX
  8
0
 10
145.0014449026
 20
547.0836821733
 30
0
  0
SEQEND
  8
0
  0
POLYLINE
  8
0
 62
7
 66
1
  0
VERTEX
  8
0
 10
169.2774110157
 20
540.522085164
 30
0
  0
VERTEX
  8
0
 10
170.3178654592
 20
542.8613053707001
 30
0
  0
VERTEX
  8
0
 10
171.0412226419
 20
544.6705248663
 30
0
  0
SEQEND
  8
0
  0
POLYLINE
  8
0
 62
7
 66
1
  0
VERTEX
  8
0
 10
163.1689126228
 20
532.2022669861
 30
0
  0
VERTEX
  8
0
 10
163.3598486624
 20
532.3149254435
 30
0
  0
VERTEX
  8
0
 10
163.9365668561
 20
532.778580297
 30
0
  0
SEQEND
  8
0
  0
POLYLINE
  8
0
 62
7
 66
1
  0
VERTEX
  8
0
 10
287.2970145422
 20
532.7750957509001
 30
0
  0
VERTEX
  8
0
 10
288.0959562708
 20
532.1817395695
 30
0
  0
VERTEX
  8
0
 10
288.4537245438
 20
531.8287451387
 30
0
  0
VERTEX
  8
0
 10
288.4451902524
 20
531.7343804334
 30
0
  0
SEQEND
  8
0
  0
POLYLINE
  8
0
 62
7
 66
1
  0
VERTEX
  8
0
 10
278.1818099681
 20
429.7927884379
 30
0
  0
VERTEX
  8
0
 10
270.3322277962
 20
432.8521530242
 30
0
  0
VERTEX
  8
0
 10
263.8517309579
 20
434.9847500175
 30
0
  0
VERTEX
  8
0
 10
258.5325601303
 20
436.3135224813
 30
0
  0
VERTEX
  8
0
 10
254.1669559905
 20
436.9614134791
 30
0
  0
VERTEX
  8
0
 10
250.5471592157
 20
437.0513660745
 30
0
  0
VERTEX
  8
0
 10
247.4654104831
 20
436.7063233311
 30
0
  0
VERTEX
  8
0
 10
244.7139504698
 20
436.0492283124
 30
0
  0
VERTEX
  8
0
 10
242.0850198531
 20
435.203024082
 30
0
  0
VERTEX
  8
0
 10
239.3708593099
 20
434.2906537033
 30
0
  0
VERTEX
  8
0
 10
236.3637095177
 20
433.4350602401
 30
0
  0
VERTEX
  8
0
 10
232.858322785
 20
432.7581012783
 30
0
  0
VERTEX
  8
0
 10
228.7719748381
 20
432.328682205
 30
0
  0
VERTEX
  8
0
 10
224.1972130782
 20
432.1399594543
 30
0
  0
VERTEX
  8
0
 10
219.2400719594
 20
432.1792606225
 30
0
  0
VERTEX
  8
0
 10
214.0065859361
 20
432.4339133061
 30
0
  0
VERTEX
  8
0
 10
208.6027894625
 20
432.8912451013
 30
0
  0
VERTEX
  8
0
 10
203.1347169929
 20
433.5385836045
 30
0
  0
VERTEX
  8
0
 10
197.7084029816
 20
434.3632564119
 30
0
  0
VERTEX
  8
0
 10
192.4298818829
 20
435.35259112
 30
0
  0
VERTEX
  8
0
 10
187.405188151
 20
436.4939153251
 30
0
  0
VERTEX
  8
0
 10
182.734770962
 20
437.7750235405
 30
0
  0
VERTEX
  8
0
 10
178.4437445943
 20
439.1900081111
 30
0
  0
VERTEX
  8
0
 10
174.5031742461
 20
440.737479766
 30
0
  0
VERTEX
  8
0
 10
170.8829446897
 20
442.4161479154
 30
0
  0
VERTEX
  8
0
 10
167.5529406973
 20
444.2247219693
 30
0
  0
VERTEX
  8
0
 10
164.483047041
 20
446.1619113379
 30
0
  0
VERTEX
  8
0
 10
161.6431484931
 20
448.2264254313
 30
0
  0
VERTEX
  8
0
 10
159.0031298258
 20
450.4169736596
 30
0
  0
VERTEX
  8
0
 10
156.5328758113
 20
452.7322654329
 30
0
  0
VERTEX
  8
0
 10
154.2022712219
 20
455.1710101613
 30
0
  0
VERTEX
  8
0
 10
151.9812008298
 20
457.7319172549
 30
0
  0
VERTEX
  8
0
 10
149.8395494072
 20
460.4136961239
 30
0
  0
VERTEX
  8
0
 10
147.7472017262
 20
463.2150561784
 30
0
  0
VERTEX
  8
0
 10
145.6740425592
 20
466.1347068284
 30
0
  0
VERTEX
  8
0
 10
143.5899566784
 20
469.1713574842
 30
0
  0
VERTEX
  8
0
 10
141.4648288559
 20
472.3237175557
 30
0
  0
VERTEX
  8
0
 10
139.2685438639
 20
475.5904964532
 30
0
  0
VERTEX
  8
0
 10
136.9709864748
 20
478.9704035867
 30
0
  0
VERTEX
  8
0
 10
134.5420414607
 20
482.4621483663
 30
0
  0
VERTEX
  8
0
 10
131.9515935939
 20
486.0644402022
 30
0
  0
SEQEND
  8
0
  0
LINE
  8
1
 62
2
 10
399.9191243702992
 20
220.8976129624386
 30
0
 11
400.2524577036326
 21
221.2726129624386
 31
0
  0
LINE
  8
1
 62
2
 10
399.9191243702992
 20
223.1476129624386
 30
0
 11
397.9191243702992
 21
223.1476129624386
 31
0
  0
LINE
  8
1
 62
2
 10
404.9191243702992
 20
214.5226129624386
 30
0
 11
407.9191243702992
 21
214.5226129624386
 31
0
  0
LINE
  8
1
 62
2
 10
401.5857910369659
 20
214.5226129624386
 30
0
 11
404.9191243702992
 21
214.5226129624386
 31
0
  0
LINE
  8
1
 62
2
 10
404.9191243702992
 20
225.3976129624386
 30
0
 11
404.9191243702992
 21
214.5226129624386
 31
0
  0
LINE
  8
1
 62
2
 10
402.5857910369659
 20
220.8976129624386
 30
0
 11
407.2524577036326
 21
220.8976129624386
 31
0
  0
LINE
  8
1
 62
2
 10
400.5857910369659
 20
220.5226129624386
 30
0
 11
402.2524577036326
 21
218.6476129624386
 31
0
  0
LINE
  8
1
 62
2
 10
399.9191243702992
 20
223.1476129624386
 30
0
 11
399.9191243702992
 21
225.3976129624386
 31
0
  0
LINE
  8
1
 62
2
 10
401.5857910369659
 20
223.1476129624386
 30
0
 11
399.9191243702992
 21
223.1476129624386
 31
0
  0
LINE
  8
1
 62
2
 10
400.2524577036326
 20
221.2726129624386
 30
0
 11
401.5857910369659
 21
223.1476129624386
 31
0
  0
LINE
  8
1
 62
2
 10
398.5857910369659
 20
219.3976129624386
 30
0
 11
399.9191243702992
 21
220.8976129624386
 31
0
  0
LINE
  8
1
 62
2
 10
397.2524577036326
 20
218.2726129624386
 30
0
 11
398.5857910369659
 21
219.3976129624386
 31
0
  0
LINE
  8
1
 62
2
 10
399.9191243702992
 20
214.1476129624386
 30
0
 11
399.9191243702992
 21
220.8976129624386
 31
0
  0
LINE
  8
1
 62
2
 10
390.5857910369659
 20
218.2726129624386
 30
0
 11
387.2524577036326
 21
214.1476129624386
 31
0
  0
LINE
  8
1
 62
2
 10
393.5857910369659
 20
214.8976129624386
 30
0
 11
392.2524577036326
 21
216.3976129624386
 31
0
  0
LINE
  8
1
 62
2
 10
394.5857910369659
 20
213.7726129624386
 30
0
 11
393.5857910369659
 21
214.8976129624386
 31
0
  0
LINE
  8
1
 62
2
 10
386.2524577036326
 20
214.1476129624386
 30
0
 11
393.5857910369659
 21
214.8976129624386
 31
0
  0
LINE
  8
1
 62
2
 10
386.9191243702992
 20
218.6476129624386
 30
0
 11
394.5857910369659
 21
218.6476129624386
 31
0
  0
LINE
  8
1
 62
2
 10
388.2524577036326
 20
220.5226129624386
 30
0
 11
392.9191243702992
 21
220.5226129624386
 31
0
  0
LINE
  8
1
 62
2
 10
390.5857910369659
 20
225.3976129624386
 30
0
 11
395.9191243702992
 21
219.7726129624386
 31
0
  0
LINE
  8
1
 62
2
 10
390.5857910369659
 20
225.3976129624386
 30
0
 11
385.2524577036326
 21
219.7726129624386
 31
0
  0
LINE
  8
1
 62
2
 10
376.2524577036326
 20
220.1476129624386
 30
0
 11
373.9191243702992
 21
220.1476129624386
 31
0
  0
LINE
  8
1
 62
2
 10
376.2524577036326
 20
216.0226129624386
 30
0
 11
378.5857910369659
 21
216.7726129624386
 31
0
  0
LINE
  8
1
 62
2
 10
382.9191243702992
 20
214.1476129624386
 30
0
 11
383.9191243702992
 21
215.2726129624386
 31
0
  0
LINE
  8
1
 62
2
 10
381.5857910369659
 20
215.6476129624386
 30
0
 11
382.9191243702992
 21
214.1476129624386
 31
0
  0
LINE
  8
1
 62
2
 10
380.2524577036326
 20
218.2726129624386
 30
0
 11
381.5857910369659
 21
215.6476129624386
 31
0
  0
LINE
  8
1
 62
2
 10
379.5857910369659
 20
221.2726129624386
 30
0
 11
380.2524577036326
 21
218.2726129624386
 31
0
  0
LINE
  8
1
 62
2
 10
379.2524577036326
 20
225.7726129624386
 30
0
 11
379.5857910369659
 21
221.2726129624386
 31
0
  0
LINE
  8
1
 62
2
 10
381.2524577036326
 20
224.2726129624386
 30
0
 11
380.2524577036326
 21
225.3976129624386
 31
0
  0
LINE
  8
1
 62
2
 10
373.2524577036326
 20
223.1476129624386
 30
0
 11
382.9191243702992
 21
223.1476129624386
 31
0
  0
LINE
  8
1
 62
2
 10
376.2524577036326
 20
220.1476129624386
 30
0
 11
376.2524577036326
 21
216.0226129624386
 31
0
  0
LINE
  8
1
 62
2
 10
378.5857910369659
 20
220.1476129624386
 30
0
 11
376.2524577036326
 21
220.1476129624386
 31
0
  0
LINE
  8
1
 62
2
 10
373.9191243702992
 20
215.2726129624386
 30
0
 11
376.2524577036326
 21
216.0226129624386
 31
0
  0
LINE
  8
1
 62
2
 10
363.5857910369659
 20
222.3976129624386
 30
0
 11
363.5857910369659
 21
225.7726129624386
 31
0
  0
LINE
  8
1
 62
2
 10
363.5857910369659
 20
222.3976129624386
 30
0
 11
361.9191243702992
 21
222.3976129624386
 31
0
  0
LINE
  8
1
 62
2
 10
370.2524577036326
 20
216.7726129624386
 30
0
 11
371.5857910369659
 21
214.1476129624386
 31
0
  0
LINE
  8
1
 62
2
 10
368.5857910369659
 20
220.1476129624386
 30
0
 11
370.2524577036326
 21
216.7726129624386
 31
0
  0
LINE
  8
1
 62
2
 10
367.5857910369659
 20
217.5226129624386
 30
0
 11
368.5857910369659
 21
220.1476129624386
 31
0
  0
LINE
  8
1
 62
2
 10
366.2524577036326
 20
215.6476129624386
 30
0
 11
367.5857910369659
 21
217.5226129624386
 31
0
  0
LINE
  8
1
 62
2
 10
365.2524577036326
 20
214.1476129624386
 30
0
 11
366.2524577036326
 21
215.6476129624386
 31
0
  0
LINE
  8
1
 62
2
 10
368.5857910369659
 20
225.7726129624386
 30
0
 11
368.5857910369659
 21
213.7726129624386
 31
0
  0
LINE
  8
1
 62
2
 10
371.5857910369659
 20
220.1476129624386
 30
0
 11
365.9191243702992
 21
220.1476129624386
 31
0
  0
LINE
  8
1
 62
2
 10
366.9191243702992
 20
222.7726129624386
 30
0
 11
371.2524577036326
 21
222.7726129624386
 31
0
  0
LINE
  8
1
 62
2
 10
366.9191243702992
 20
222.7726129624386
 30
0
 11
367.2524577036326
 21
224.6476129624386
 31
0
  0
LINE
  8
1
 62
2
 10
365.9191243702992
 20
220.8976129624386
 30
0
 11
366.9191243702992
 21
222.7726129624386
 31
0
  0
LINE
  8
1
 62
2
 10
363.5857910369659
 20
222.3976129624386
 30
0
 11
365.2524577036326
 21
219.3976129624386
 31
0
  0
LINE
  8
1
 62
2
 10
361.5857910369659
 20
217.1476129624386
 30
0
 11
363.5857910369659
 21
222.3976129624386
 31
0
  0
LINE
  8
1
 62
2
 10
365.2524577036326
 20
222.3976129624386
 30
0
 11
363.5857910369659
 21
222.3976129624386
 31
0
  0
LINE
  8
1
 62
2
 10
363.5857910369659
 20
214.1476129624386
 30
0
 11
363.5857910369659
 21
222.3976129624386
 31
0
  0
LINE
  8
1
 62
2
 10
350.2524577036326
 20
221.2726129624386
 30
0
 11
350.2524577036326
 21
223.1476129624386
 31
0
  0
LINE
  8
1
 62
2
 10
353.5857910369659
 20
223.1476129624386
 30
0
 11
353.5857910369659
 21
221.2726129624386
 31
0
  0
LINE
  8
1
 62
2
 10
350.2524577036326
 20
223.1476129624386
 30
0
 11
350.2524577036326
 21
225.0226129624386
 31
0
  0
LINE
  8
1
 62
2
 10
358.9191243702992
 20
221.2726129624386
 30
0
 11
358.9191243702992
 21
223.1476129624386
 31
0
  0
LINE
  8
1
 62
2
 10
355.5857910369659
 20
223.1476129624386
 30
0
 11
355.5857910369659
 21
221.2726129624386
 31
0
  0
LINE
  8
1
 62
2
 10
358.9191243702992
 20
223.1476129624386
 30
0
 11
358.9191243702992
 21
225.0226129624386
 31
0
  0
LINE
  8
1
 62
2
 10
350.2524577036326
 20
214.5226129624386
 30
0
 11
350.2524577036326
 21
214.1476129624386
 31
0
  0
LINE
  8
1
 62
2
 10
355.5857910369659
 20
223.1476129624386
 30
0
 11
358.9191243702992
 21
223.1476129624386
 31
0
  0
LINE
  8
1
 62
2
 10
355.5857910369659
 20
221.2726129624386
 30
0
 11
358.9191243702992
 21
221.2726129624386
 31
0
  0
LINE
  8
1
 62
2
 10
355.5857910369659
 20
225.0226129624386
 30
0
 11
355.5857910369659
 21
223.1476129624386
 31
0
  0
LINE
  8
1
 62
2
 10
358.9191243702992
 20
225.0226129624386
 30
0
 11
355.5857910369659
 21
225.0226129624386
 31
0
  0
LINE
  8
1
 62
2
 10
358.9191243702992
 20
214.5226129624386
 30
0
 11
358.9191243702992
 21
221.2726129624386
 31
0
  0
LINE
  8
1
 62
2
 10
358.5857910369659
 20
214.1476129624386
 30
0
 11
358.9191243702992
 21
214.5226129624386
 31
0
  0
LINE
  8
1
 62
2
 10
357.5857910369659
 20
214.1476129624386
 30
0
 11
358.5857910369659
 21
214.1476129624386
 31
0
  0
LINE
  8
1
 62
2
 10
353.5857910369659
 20
223.1476129624386
 30
0
 11
350.2524577036326
 21
223.1476129624386
 31
0
  0
LINE
  8
1
 62
2
 10
353.5857910369659
 20
221.2726129624386
 30
0
 11
350.2524577036326
 21
221.2726129624386
 31
0
  0
LINE
  8
1
 62
2
 10
353.5857910369659
 20
225.0226129624386
 30
0
 11
353.5857910369659
 21
223.1476129624386
 31
0
  0
LINE
  8
1
 62
2
 10
350.2524577036326
 20
225.0226129624386
 30
0
 11
353.5857910369659
 21
225.0226129624386
 31
0
  0
LINE
  8
1
 62
2
 10
350.2524577036326
 20
214.5226129624386
 30
0
 11
350.2524577036326
 21
221.2726129624386
 31
0
  0
LINE
  8
1
 62
2
 10
342.5857910369659
 20
214.1476129624386
 30
0
 11
346.5857910369659
 21
214.1476129624386
 31
0
  0
LINE
  8
1
 62
2
 10
342.5857910369659
 20
221.2726129624386
 30
0
 11
344.9191243702992
 21
221.2726129624386
 31
0
  0
LINE
  8
1
 62
2
 10
346.5857910369659
 20
220.8976129624386
 30
0
 11
347.9191243702992
 21
219.7726129624386
 31
0
  0
LINE
  8
1
 62
2
 10
344.2524577036326
 20
223.5226129624386
 30
0
 11
346.5857910369659
 21
220.8976129624386
 31
0
  0
LINE
  8
1
 62
2
 10
342.5857910369659
 20
225.7726129624386
 30
0
 11
344.2524577036326
 21
223.5226129624386
 31
0
  0
LINE
  8
1
 62
2
 10
340.9191243702992
 20
223.5226129624386
 30
0
 11
342.5857910369659
 21
225.7726129624386
 31
0
  0
LINE
  8
1
 62
2
 10
338.5857910369659
 20
220.8976129624386
 30
0
 11
340.9191243702992
 21
223.5226129624386
 31
0
  0
LINE
  8
1
 62
2
 10
337.2524577036326
 20
219.7726129624386
 30
0
 11
338.5857910369659
 21
220.8976129624386
 31
0
  0
LINE
  8
1
 62
2
 10
344.2524577036326
 20
215.6476129624386
 30
0
 11
344.9191243702992
 21
217.5226129624386
 31
0
  0
LINE
  8
1
 62
2
 10
340.2524577036326
 20
217.5226129624386
 30
0
 11
340.9191243702992
 21
215.6476129624386
 31
0
  0
LINE
  8
1
 62
2
 10
345.9191243702992
 20
219.0226129624386
 30
0
 11
339.2524577036326
 21
219.0226129624386
 31
0
  0
LINE
  8
1
 62
2
 10
340.2524577036326
 20
221.2726129624386
 30
0
 11
342.5857910369659
 21
221.2726129624386
 31
0
  0
LINE
  8
1
 62
2
 10
342.5857910369659
 20
214.1476129624386
 30
0
 11
342.5857910369659
 21
221.2726129624386
 31
0
  0
LINE
  8
1
 62
2
 10
338.2524577036326
 20
214.1476129624386
 30
0
 11
342.5857910369659
 21
214.1476129624386
 31
0
  0
LINE
  8
1
 62
2
 10
333.5857910369659
 20
217.5226129624386
 30
0
 11
335.2524577036326
 21
219.7726129624386
 31
0
  0
LINE
  8
1
 62
2
 10
330.9191243702992
 20
216.0226129624386
 30
0
 11
333.5857910369659
 21
217.5226129624386
 31
0
  0
LINE
  8
1
 62
2
 10
330.9191243702992
 20
222.7726129624386
 30
0
 11
330.9191243702992
 21
216.0226129624386
 31
0
  0
LINE
  8
1
 62
2
 10
328.2524577036326
 20
219.7726129624386
 30
0
 11
328.5857910369659
 21
222.7726129624386
 31
0
  0
LINE
  8
1
 62
2
 10
327.5857910369659
 20
217.5226129624386
 30
0
 11
328.2524577036326
 21
219.7726129624386
 31
0
  0
LINE
  8
1
 62
2
 10
326.5857910369659
 20
215.6476129624386
 30
0
 11
327.5857910369659
 21
217.5226129624386
 31
0
  0
LINE
  8
1
 62
2
 10
315.2524577036326
 20
218.6476129624386
 30
0
 11
315.2524577036326
 21
216.3976129624386
 31
0
  0
LINE
  8
1
 62
2
 10
318.9191243702992
 20
214.8976129624386
 30
0
 11
320.9191243702992
 21
215.2726129624386
 31
0
  0
LINE
  8
1
 62
2
 10
315.5857910369659
 20
215.2726129624386
 30
0
 11
318.9191243702992
 21
214.8976129624386
 31
0
  0
LINE
  8
1
 62
2
 10
315.2524577036326
 20
216.3976129624386
 30
0
 11
315.5857910369659
 21
215.2726129624386
 31
0
  0
LINE
  8
1
 62
2
 10
315.2524577036326
 20
222.7726129624386
 30
0
 11
315.2524577036326
 21
218.6476129624386
 31
0
  0
LINE
  8
1
 62
2
 10
321.5857910369659
 20
223.5226129624386
 30
0
 11
322.5857910369659
 21
222.3976129624386
 31
0
  0
LINE
  8
1
 62
2
 10
321.9191243702992
 20
221.6476129624386
 30
0
 11
320.9191243702992
 21
222.7726129624386
 31
0
  0
LINE
  8
1
 62
2
 10
318.2524577036326
 20
219.7726129624386
 30
0
 11
320.2524577036326
 21
220.8976129624386
 31
0
  0
LINE
  8
1
 62
2
 10
315.2524577036326
 20
218.6476129624386
 30
0
 11
318.2524577036326
 21
219.7726129624386
 31
0
  0
LINE
  8
1
 62
2
 10
307.9191243702992
 20
217.5226129624386
 30
0
 11
309.9191243702992
 21
215.2726129624386
 31
0
  0
LINE
  8
1
 62
2
 10
306.2524577036326
 20
219.0226129624386
 30
0
 11
307.9191243702992
 21
217.5226129624386
 31
0
  0
LINE
  8
1
 62
2
 10
310.2524577036326
 20
224.2726129624386
 30
0
 11
311.2524577036326
 21
223.1476129624386
 31
0
  0
LINE
  8
1
 62
2
 10
309.5857910369659
 20
223.5226129624386
 30
0
 11
310.5857910369659
 21
222.3976129624386
 31
0
  0
LINE
  8
1
 62
2
 10
308.2524577036326
 20
222.7726129624386
 30
0
 11
303.9191243702992
 21
222.7726129624386
 31
0
  0
LINE
  8
1
 62
2
 10
307.2524577036326
 20
220.5226129624386
 30
0
 11
308.2524577036326
 21
222.7726129624386
 31
0
  0
LINE
  8
1
 62
2
 10
304.9191243702992
 20
217.1476129624386
 30
0
 11
307.2524577036326
 21
220.5226129624386
 31
0
  0
LINE
  8
1
 62
2
 10
302.5857910369659
 20
215.2726129624386
 30
0
 11
304.9191243702992
 21
217.1476129624386
 31
0
  0
LINE
  8
1
 62
2
 10
298.5857910369659
 20
222.3976129624386
 30
0
 11
295.5857910369659
 21
219.0226129624386
 31
0
  0
LINE
  8
1
 62
2
 10
290.9191243702992
 20
222.3976129624386
 30
0
 11
298.5857910369659
 21
222.3976129624386
 31
0
  0
LINE
  8
1
 62
2
 10
294.5857910369659
 20
219.0226129624386
 30
0
 11
294.9191243702992
 21
220.8976129624386
 31
0
  0
LINE
  8
1
 62
2
 10
293.9191243702992
 20
216.7726129624386
 30
0
 11
294.5857910369659
 21
219.0226129624386
 31
0
  0
LINE
  8
1
 62
2
 10
292.5857910369659
 20
214.5226129624386
 30
0
 11
293.9191243702992
 21
216.7726129624386
 31
0
  0
LINE
  8
1
 62
2
 10
435.2191243702992
 20
243.7726129624386
 30
0
 11
435.8857910369659
 21
243.3976129624386
 31
0
  0
LINE
  8
1
 62
2
 10
429.2191243702992
 20
243.7726129624386
 30
0
 11
435.2191243702992
 21
243.7726129624386
 31
0
  0
LINE
  8
1
 62
2
 10
428.5524577036326
 20
244.1476129624386
 30
0
 11
429.2191243702992
 21
243.7726129624386
 31
0
  0
LINE
  8
1
 62
2
 10
419.8857910369659
 20
244.8976129624386
 30
0
 11
422.5524577036326
 21
241.8976129624386
 31
0
  0
LINE
  8
1
 62
2
 10
418.8857910369659
 20
246.3976129624386
 30
0
 11
417.2191243702992
 21
244.5226129624386
 31
0
  0
LINE
  8
1
 62
2
 10
420.5524577036326
 20
248.6476129624386
 30
0
 11
418.8857910369659
 21
246.3976129624386
 31
0
  0
LINE
  8
1
 62
2
 10
423.8857910369659
 20
247.1476129624386
 30
0
 11
419.5524577036326
 21
247.1476129624386
 31
0
  0
LINE
  8
1
 62
2
 10
422.5524577036326
 20
244.5226129624386
 30
0
 11
423.8857910369659
 21
247.1476129624386
 31
0
  0
LINE
  8
1
 62
2
 10
419.8857910369659
 20
241.5226129624386
 30
0
 11
422.5524577036326
 21
244.5226129624386
 31
0
  0
LINE
  8
1
 62
2
 10
416.8857910369659
 20
239.2726129624386
 30
0
 11
419.8857910369659
 21
241.5226129624386
 31
0
  0
LINE
  8
1
 62
2
 10
411.2191243702992
 20
243.7726129624386
 30
0
 11
411.8857910369659
 21
243.3976129624386
 31
0
  0
LINE
  8
1
 62
2
 10
405.2191243702992
 20
243.7726129624386
 30
0
 11
411.2191243702992
 21
243.7726129624386
 31
0
  0
LINE
  8
1
 62
2
 10
404.5524577036326
 20
244.1476129624386
 30
0
 11
405.2191243702992
 21
243.7726129624386
 31
0
  0
LINE
  8
1
 62
2
 10
397.2191243702992
 20
243.7726129624386
 30
0
 11
398.8857910369659
 21
241.1476129624386
 31
0
  0
LINE
  8
1
 62
2
 10
395.5524577036326
 20
245.6476129624386
 30
0
 11
397.2191243702992
 21
243.7726129624386
 31
0
  0
LINE
  8
1
 62
2
 10
397.8857910369659
 20
244.5226129624386
 30
0
 11
399.5524577036326
 21
247.8976129624386
 31
0
  0
LINE
  8
1
 62
2
 10
395.2191243702992
 20
241.1476129624386
 30
0
 11
397.8857910369659
 21
244.5226129624386
 31
0
  0
LINE
  8
1
 62
2
 10
392.8857910369659
 20
239.2726129624386
 30
0
 11
395.2191243702992
 21
241.1476129624386
 31
0
  0
LINE
  8
1
 62
2
 10
385.2191243702992
 20
247.1476129624386
 30
0
 11
388.8857910369659
 21
247.1476129624386
 31
0
  0
LINE
  8
1
 62
2
 10
384.2191243702992
 20
245.2726129624386
 30
0
 11
383.5524577036326
 21
245.2726129624386
 31
0
  0
LINE
  8
1
 62
2
 10
383.5524577036326
 20
243.7726129624386
 30
0
 11
383.5524577036326
 21
241.8976129624386
 31
0
  0
LINE
  8
1
 62
2
 10
387.5524577036326
 20
241.8976129624386
 30
0
 11
387.5524577036326
 21
245.2726129624386
 31
0
  0
LINE
  8
1
 62
2
 10
383.5524577036326
 20
241.8976129624386
 30
0
 11
383.5524577036326
 21
240.3976129624386
 31
0
  0
LINE
  8
1
 62
2
 10
382.8857910369659
 20
238.8976129624386
 30
0
 11
389.2191243702992
 21
238.8976129624386
 31
0
  0
LINE
  8
1
 62
2
 10
381.5524577036326
 20
239.2726129624386
 30
0
 11
382.8857910369659
 21
238.8976129624386
 31
0
  0
LINE
  8
1
 62
2
 10
380.5524577036326
 20
240.0226129624386
 30
0
 11
381.5524577036326
 21
239.2726129624386
 31
0
  0
LINE
  8
1
 62
2
 10
387.5524577036326
 20
241.8976129624386
 30
0
 11
383.5524577036326
 21
241.8976129624386
 31
0
  0
LINE
  8
1
 62
2
 10
383.5524577036326
 20
243.7726129624386
 30
0
 11
387.5524577036326
 21
243.7726129624386
 31
0
  0
LINE
  8
1
 62
2
 10
387.5524577036326
 20
245.2726129624386
 30
0
 11
384.2191243702992
 21
245.2726129624386
 31
0
  0
LINE
  8
1
 62
2
 10
387.5524577036326
 20
240.3976129624386
 30
0
 11
387.5524577036326
 21
241.8976129624386
 31
0
  0
LINE
  8
1
 62
2
 10
383.5524577036326
 20
240.3976129624386
 30
0
 11
387.5524577036326
 21
240.3976129624386
 31
0
  0
LINE
  8
1
 62
2
 10
383.5524577036326
 20
245.2726129624386
 30
0
 11
383.5524577036326
 21
243.7726129624386
 31
0
  0
LINE
  8
1
 62
2
 10
385.2191243702992
 20
247.1476129624386
 30
0
 11
384.2191243702992
 21
245.2726129624386
 31
0
  0
LINE
  8
1
 62
2
 10
381.8857910369659
 20
247.1476129624386
 30
0
 11
385.2191243702992
 21
247.1476129624386
 31
0
  0
LINE
  8
1
 62
2
 10
387.2191243702992
 20
249.3976129624386
 30
0
 11
385.8857910369659
 21
247.1476129624386
 31
0
  0
LINE
  8
1
 62
2
 10
383.5524577036326
 20
249.3976129624386
 30
0
 11
384.5524577036326
 21
247.8976129624386
 31
0
  0
LINE
  8
1
 62
2
 10
379.8857910369659
 20
249.3976129624386
 30
0
 11
381.2191243702992
 21
247.8976129624386
 31
0
  0
LINE
  8
1
 62
2
 10
380.5524577036326
 20
244.5226129624386
 30
0
 11
379.2191243702992
 21
244.5226129624386
 31
0
  0
LINE
  8
1
 62
2
 10
380.5524577036326
 20
240.0226129624386
 30
0
 11
380.5524577036326
 21
244.5226129624386
 31
0
  0
LINE
  8
1
 62
2
 10
379.5524577036326
 20
238.8976129624386
 30
0
 11
380.5524577036326
 21
240.0226129624386
 31
0
  0
LINE
  8
1
 62
2
 10
375.8857910369659
 20
241.5226129624386
 30
0
 11
377.5524577036326
 21
239.6476129624386
 31
0
  0
LINE
  8
1
 62
2
 10
374.5524577036326
 20
243.7726129624386
 30
0
 11
375.8857910369659
 21
241.5226129624386
 31
0
  0
LINE
  8
1
 62
2
 10
373.5524577036326
 20
246.3976129624386
 30
0
 11
374.5524577036326
 21
243.7726129624386
 31
0
  0
LINE
  8
1
 62
2
 10
376.5524577036326
 20
246.7726129624386
 30
0
 11
374.2191243702992
 21
244.8976129624386
 31
0
  0
LINE
  8
1
 62
2
 10
372.5524577036326
 20
237.7726129624386
 30
0
 11
371.5524577036326
 21
238.1476129624386
 31
0
  0
LINE
  8
1
 62
2
 10
372.5524577036326
 20
249.3976129624386
 30
0
 11
372.5524577036326
 21
237.7726129624386
 31
0
  0
LINE
  8
1
 62
2
 10
370.8857910369659
 20
245.6476129624386
 30
0
 11
367.5524577036326
 21
245.6476129624386
 31
0
  0
LINE
  8
1
 62
2
 10
370.2191243702992
 20
243.3976129624386
 30
0
 11
370.8857910369659
 21
245.6476129624386
 31
0
  0
LINE
  8
1
 62
2
 10
368.8857910369659
 20
241.1476129624386
 30
0
 11
370.2191243702992
 21
243.3976129624386
 31
0
  0
LINE
  8
1
 62
2
 10
367.5524577036326
 20
239.6476129624386
 30
0
 11
368.8857910369659
 21
241.1476129624386
 31
0
  0
LINE
  8
1
 62
2
 10
359.0857910369659
 20
246.1726129624386
 30
0
 11
361.4857910369659
 21
246.1726129624386
 31
0
  0
LINE
  8
1
 62
2
 10
359.0857910369659
 20
246.1726129624386
 30
0
 11
359.0857910369659
 21
237.7726129624386
 31
0
  0
LINE
  8
1
 62
2
 10
363.2857910369659
 20
244.6726129624386
 30
0
 11
363.2857910369659
 21
237.7726129624386
 31
0
  0
LINE
  8
1
 62
2
 10
362.9857910369659
 20
245.2726129624386
 30
0
 11
363.2857910369659
 21
244.6726129624386
 31
0
  0
LINE
  8
1
 62
2
 10
362.3857910369659
 20
245.8726129624386
 30
0
 11
362.9857910369659
 21
245.2726129624386
 31
0
  0
LINE
  8
1
 62
2
 10
361.4857910369659
 20
246.1726129624386
 30
0
 11
362.3857910369659
 21
245.8726129624386
 31
0
  0
LINE
  8
1
 62
2
 10
354.8857910369659
 20
246.1726129624386
 30
0
 11
359.0857910369659
 21
246.1726129624386
 31
0
  0
LINE
  8
1
 62
2
 10
354.8857910369659
 20
237.7726129624386
 30
0
 11
354.8857910369659
 21
246.1726129624386
 31
0
  0
LINE
  8
1
 62
2
 10
347.0857910369659
 20
246.1726129624386
 30
0
 11
349.4857910369659
 21
246.1726129624386
 31
0
  0
LINE
  8
1
 62
2
 10
347.0857910369659
 20
246.1726129624386
 30
0
 11
347.0857910369659
 21
237.7726129624386
 31
0
  0
LINE
  8
1
 62
2
 10
351.2857910369659
 20
244.6726129624386
 30
0
 11
351.2857910369659
 21
237.7726129624386
 31
0
  0
LINE
  8
1
 62
2
 10
350.9857910369659
 20
245.2726129624386
 30
0
 11
351.2857910369659
 21
244.6726129624386
 31
0
  0
LINE
  8
1
 62
2
 10
350.3857910369659
 20
245.8726129624386
 30
0
 11
350.9857910369659
 21
245.2726129624386
 31
0
  0
LINE
  8
1
 62
2
 10
349.4857910369659
 20
246.1726129624386
 30
0
 11
350.3857910369659
 21
245.8726129624386
 31
0
  0
LINE
  8
1
 62
2
 10
342.8857910369659
 20
246.1726129624386
 30
0
 11
347.0857910369659
 21
246.1726129624386
 31
0
  0
LINE
  8
1
 62
2
 10
342.8857910369659
 20
237.7726129624386
 30
0
 11
342.8857910369659
 21
246.1726129624386
 31
0
  0
LINE
  8
1
 62
2
 10
336.5857910369659
 20
237.7726129624386
 30
0
 11
332.0857910369659
 21
237.7726129624386
 31
0
  0
LINE
  8
1
 62
2
 10
337.4857910369659
 20
238.0726129624386
 30
0
 11
336.5857910369659
 21
237.7726129624386
 31
0
  0
LINE
  8
1
 62
2
 10
338.3857910369659
 20
238.6726129624386
 30
0
 11
337.4857910369659
 21
238.0726129624386
 31
0
  0
LINE
  8
1
 62
2
 10
338.9857910369659
 20
239.5726129624386
 30
0
 11
338.3857910369659
 21
238.6726129624386
 31
0
  0
LINE
  8
1
 62
2
 10
339.2857910369659
 20
240.7726129624386
 30
0
 11
338.9857910369659
 21
239.5726129624386
 31
0
  0
LINE
  8
1
 62
2
 10
339.2857910369659
 20
242.5726129624386
 30
0
 11
339.2857910369659
 21
240.7726129624386
 31
0
  0
LINE
  8
1
 62
2
 10
338.9857910369659
 20
243.7726129624386
 30
0
 11
339.2857910369659
 21
242.5726129624386
 31
0
  0
LINE
  8
1
 62
2
 10
338.0857910369659
 20
244.6726129624386
 30
0
 11
338.9857910369659
 21
243.7726129624386
 31
0
  0
LINE
  8
1
 62
2
 10
336.5857910369659
 20
244.9726129624386
 30
0
 11
338.0857910369659
 21
244.6726129624386
 31
0
  0
LINE
  8
1
 62
2
 10
332.0857910369659
 20
244.9726129624386
 30
0
 11
336.5857910369659
 21
244.9726129624386
 31
0
  0
LINE
  8
1
 62
2
 10
332.0857910369659
 20
249.7726129624386
 30
0
 11
332.0857910369659
 21
244.9726129624386
 31
0
  0
LINE
  8
1
 62
2
 10
338.6857910369659
 20
249.7726129624386
 30
0
 11
332.0857910369659
 21
249.7726129624386
 31
0
  0
LINE
  8
1
 62
2
 10
328.4857910369659
 20
249.7726129624386
 30
0
 11
322.4857910369659
 21
237.7726129624386
 31
0
  0
LINE
  8
1
 62
2
 10
321.2857910369659
 20
249.7726129624386
 30
0
 11
328.4857910369659
 21
249.7726129624386
 31
0
  0
LINE
  8
1
 62
2
 10
321.2857910369659
 20
248.5726129624386
 30
0
 11
321.2857910369659
 21
249.7726129624386
 31
0
  0
LINE
  8
1
 62
2
 10
313.2857910369659
 20
249.0226129624386
 30
0
 11
309.9524577036326
 21
249.0226129624386
 31
0
  0
LINE
  8
1
 62
2
 10
314.9524577036326
 20
238.1476129624386
 30
0
 11
319.6191243702992
 21
238.1476129624386
 31
0
  0
LINE
  8
1
 62
2
 10
314.9524577036326
 20
242.6476129624386
 30
0
 11
314.9524577036326
 21
238.1476129624386
 31
0
  0
LINE
  8
1
 62
2
 10
318.9524577036326
 20
242.6476129624386
 30
0
 11
317.9524577036326
 21
242.6476129624386
 31
0
  0
LINE
  8
1
 62
2
 10
318.9524577036326
 20
249.3976129624386
 30
0
 11
318.9524577036326
 21
242.6476129624386
 31
0
  0
LINE
  8
1
 62
2
 10
316.6191243702992
 20
244.1476129624386
 30
0
 11
316.6191243702992
 21
249.0226129624386
 31
0
  0
LINE
  8
1
 62
2
 10
313.2857910369659
 20
249.0226129624386
 30
0
 11
313.2857910369659
 21
242.6476129624386
 31
0
  0
LINE
  8
1
 62
2
 10
309.6191243702992
 20
246.3976129624386
 30
0
 11
315.2857910369659
 21
246.3976129624386
 31
0
  0
LINE
  8
1
 62
2
 10
314.9524577036326
 20
249.0226129624386
 30
0
 11
313.2857910369659
 21
249.0226129624386
 31
0
  0
LINE
  8
1
 62
2
 10
311.6191243702992
 20
246.3976129624386
 30
0
 11
311.6191243702992
 21
249.0226129624386
 31
0
  0
LINE
  8
1
 62
2
 10
310.9524577036326
 20
243.7726129624386
 30
0
 11
311.6191243702992
 21
246.3976129624386
 31
0
  0
LINE
  8
1
 62
2
 10
309.9524577036326
 20
242.2726129624386
 30
0
 11
310.9524577036326
 21
243.7726129624386
 31
0
  0
LINE
  8
1
 62
2
 10
318.2857910369659
 20
240.7726129624386
 30
0
 11
310.9524577036326
 21
240.7726129624386
 31
0
  0
LINE
  8
1
 62
2
 10
309.9524577036326
 20
238.1476129624386
 30
0
 11
314.9524577036326
 21
238.1476129624386
 31
0
  0
LINE
  8
1
 62
2
 10
301.4857910369659
 20
249.7726129624386
 30
0
 11
301.4857910369659
 21
237.7726129624386
 31
0
  0
LINE
  8
1
 62
2
 10
297.2857910369659
 20
249.7726129624386
 30
0
 11
301.4857910369659
 21
249.7726129624386
 31
0
  0
LINE
  8
1
 62
2
 10
301.4857910369659
 20
249.7726129624386
 30
0
 11
305.6857910369658
 21
249.7726129624386
 31
0
  0
LINE
  8
1
 62
2
 10
293.3857910369659
 20
247.3726129624386
 30
0
 11
293.6857910369658
 21
246.1726129624386
 31
0
  0
LINE
  8
1
 62
2
 10
292.7857910369659
 20
248.2726129624386
 30
0
 11
293.3857910369659
 21
247.3726129624386
 31
0
  0
LINE
  8
1
 62
2
 10
292.1857910369658
 20
248.8726129624386
 30
0
 11
292.7857910369659
 21
248.2726129624386
 31
0
  0
LINE
  8
1
 62
2
 10
291.2857910369659
 20
249.4726129624386
 30
0
 11
292.1857910369658
 21
248.8726129624386
 31
0
  0
LINE
  8
1
 62
2
 10
290.0857910369659
 20
249.7726129624386
 30
0
 11
291.2857910369659
 21
249.4726129624386
 31
0
  0
LINE
  8
1
 62
2
 10
285.2857910369659
 20
249.7726129624386
 30
0
 11
290.0857910369659
 21
249.7726129624386
 31
0
  0
LINE
  8
1
 62
2
 10
285.2857910369659
 20
237.7726129624386
 30
0
 11
285.2857910369659
 21
249.7726129624386
 31
0
  0
LINE
  8
1
 62
2
 10
290.0857910369659
 20
237.7726129624386
 30
0
 11
285.2857910369659
 21
237.7726129624386
 31
0
  0
LINE
  8
1
 62
2
 10
291.2857910369659
 20
238.0726129624386
 30
0
 11
290.0857910369659
 21
237.7726129624386
 31
0
  0
LINE
  8
1
 62
2
 10
292.1857910369658
 20
238.6726129624386
 30
0
 11
291.2857910369659
 21
238.0726129624386
 31
0
  0
LINE
  8
1
 62
2
 10
292.7857910369659
 20
239.2726129624386
 30
0
 11
292.1857910369658
 21
238.6726129624386
 31
0
  0
LINE
  8
1
 62
2
 10
293.3857910369659
 20
240.1726129624386
 30
0
 11
292.7857910369659
 21
239.2726129624386
 31
0
  0
LINE
  8
1
 62
2
 10
293.6857910369658
 20
241.3726129624386
 30
0
 11
293.3857910369659
 21
240.1726129624386
 31
0
  0
LINE
  8
1
 62
2
 10
293.6857910369658
 20
246.1726129624386
 30
0
 11
293.6857910369658
 21
241.3726129624386
 31
0
  0
LINE
  8
1
 62
2
 10
273.2857910369659
 20
244.3726129624386
 30
0
 11
273.2857910369659
 21
237.7726129624386
 31
0
  0
LINE
  8
1
 62
2
 10
273.2857910369659
 20
249.7726129624386
 30
0
 11
273.2857910369659
 21
244.3726129624386
 31
0
  0
LINE
  8
1
 62
2
 10
281.6857910369658
 20
249.7726129624386
 30
0
 11
273.2857910369659
 21
249.7726129624386
 31
0
  0
LINE
  8
1
 62
2
 10
273.2857910369659
 20
244.3726129624386
 30
0
 11
281.6857910369658
 21
244.3726129624386
 31
0
  0
LINE
  8
1
 62
2
 10
269.6857910369658
 20
244.3726129624386
 30
0
 11
266.6857910369658
 21
244.3726129624386
 31
0
  0
LINE
  8
1
 62
2
 10
269.6857910369658
 20
237.7726129624386
 30
0
 11
269.6857910369658
 21
244.3726129624386
 31
0
  0
LINE
  8
1
 62
2
 10
264.5857910369659
 20
237.7726129624386
 30
0
 11
269.6857910369658
 21
237.7726129624386
 31
0
  0
LINE
  8
1
 62
2
 10
263.6857910369658
 20
238.0726129624386
 30
0
 11
264.5857910369659
 21
237.7726129624386
 31
0
  0
LINE
  8
1
 62
2
 10
262.4857910369659
 20
238.6726129624386
 30
0
 11
263.6857910369658
 21
238.0726129624386
 31
0
  0
LINE
  8
1
 62
2
 10
261.8857910369659
 20
239.2726129624386
 30
0
 11
262.4857910369659
 21
238.6726129624386
 31
0
  0
LINE
  8
1
 62
2
 10
261.5857910369659
 20
240.1726129624386
 30
0
 11
261.8857910369659
 21
239.2726129624386
 31
0
  0
LINE
  8
1
 62
2
 10
261.2857910369659
 20
241.3726129624386
 30
0
 11
261.5857910369659
 21
240.1726129624386
 31
0
  0
LINE
  8
1
 62
2
 10
261.2857910369659
 20
246.1726129624386
 30
0
 11
261.2857910369659
 21
241.3726129624386
 31
0
  0
LINE
  8
1
 62
2
 10
261.5857910369659
 20
247.3726129624386
 30
0
 11
261.2857910369659
 21
246.1726129624386
 31
0
  0
LINE
  8
1
 62
2
 10
261.8857910369659
 20
248.2726129624386
 30
0
 11
261.5857910369659
 21
247.3726129624386
 31
0
  0
LINE
  8
1
 62
2
 10
262.4857910369659
 20
248.8726129624386
 30
0
 11
261.8857910369659
 21
248.2726129624386
 31
0
  0
LINE
  8
1
 62
2
 10
263.3857910369659
 20
249.4726129624386
 30
0
 11
262.4857910369659
 21
248.8726129624386
 31
0
  0
LINE
  8
1
 62
2
 10
264.5857910369659
 20
249.7726129624386
 30
0
 11
263.3857910369659
 21
249.4726129624386
 31
0
  0
LINE
  8
1
 62
2
 10
269.6857910369658
 20
249.7726129624386
 30
0
 11
264.5857910369659
 21
249.7726129624386
 31
0
  0
LINE
  8
1
 62
2
 10
686.2411150376236
 20
548.0536882680999
 30
0
 11
687.3961150376235
 21
548.0536882680999
 31
0
  0
LINE
  8
1
 62
2
 10
684.1349385670353
 20
548.5036882681
 30
0
 11
684.1349385670353
 21
546.9036882680999
 31
0
  0
LINE
  8
1
 62
2
 10
685.0861150376236
 20
548.7036882681
 30
0
 11
685.0861150376236
 21
546.9036882680999
 31
0
  0
LINE
  8
1
 62
2
 10
685.018173861153
 20
548.9036882680999
 30
0
 11
685.0861150376236
 21
548.7036882681
 31
0
  0
LINE
  8
1
 62
2
 10
684.8143503317411
 20
549.1036882681
 30
0
 11
685.018173861153
 21
548.9036882680999
 31
0
  0
LINE
  8
1
 62
2
 10
684.6784679788
 20
549.1036882681
 30
0
 11
684.8143503317411
 21
549.1036882681
 31
0
  0
LINE
  8
1
 62
2
 10
684.3387620964471
 20
548.9036882680999
 30
0
 11
684.6784679788
 21
549.1036882681
 31
0
  0
LINE
  8
1
 62
2
 10
684.1349385670353
 20
548.5036882681
 30
0
 11
684.3387620964471
 21
548.9036882680999
 31
0
  0
LINE
  8
1
 62
2
 10
684.1349385670353
 20
549.1036882681
 30
0
 11
684.1349385670353
 21
548.5036882681
 31
0
  0
LINE
  8
1
 62
2
 10
690.031468162
 20
550.0036882681
 30
0
 11
689.107468162
 21
547.0036882681
 31
0
  0
LINE
  8
1
 62
2
 10
690.3202181620001
 20
548.9536882681
 30
0
 11
690.377968162
 21
548.6536882680999
 31
0
  0
LINE
  8
1
 62
2
 10
690.146968162
 20
549.2536882681
 30
0
 11
690.3202181620001
 21
548.9536882681
 31
0
  0
LINE
  8
1
 62
2
 10
689.915968162
 20
549.4786882681
 30
0
 11
690.146968162
 21
549.2536882681
 31
0
  0
LINE
  8
1
 62
2
 10
689.684968162
 20
549.5536882680999
 30
0
 11
689.915968162
 21
549.4786882681
 31
0
  0
LINE
  8
1
 62
2
 10
689.453968162
 20
549.5536882680999
 30
0
 11
689.684968162
 21
549.5536882680999
 31
0
  0
LINE
  8
1
 62
2
 10
689.222968162
 20
549.4786882681
 30
0
 11
689.453968162
 21
549.5536882680999
 31
0
  0
LINE
  8
1
 62
2
 10
688.991968162
 20
549.2536882681
 30
0
 11
689.222968162
 21
549.4786882681
 31
0
  0
LINE
  8
1
 62
2
 10
688.8187181620001
 20
548.9536882681
 30
0
 11
688.991968162
 21
549.2536882681
 31
0
  0
LINE
  8
1
 62
2
 10
688.760968162
 20
548.6536882680999
 30
0
 11
688.8187181620001
 21
548.9536882681
 31
0
  0
LINE
  8
1
 62
2
 10
688.760968162
 20
548.3536882681
 30
0
 11
688.760968162
 21
548.6536882680999
 31
0
  0
LINE
  8
1
 62
2
 10
688.8187181620001
 20
548.0536882680999
 30
0
 11
688.760968162
 21
548.3536882681
 31
0
  0
LINE
  8
1
 62
2
 10
688.991968162
 20
547.7536882681
 30
0
 11
688.8187181620001
 21
548.0536882680999
 31
0
  0
LINE
  8
1
 62
2
 10
689.222968162
 20
547.5286882680999
 30
0
 11
688.991968162
 21
547.7536882681
 31
0
  0
LINE
  8
1
 62
2
 10
689.453968162
 20
547.4536882681
 30
0
 11
689.222968162
 21
547.5286882680999
 31
0
  0
LINE
  8
1
 62
2
 10
689.684968162
 20
547.4536882681
 30
0
 11
689.453968162
 21
547.4536882681
 31
0
  0
LINE
  8
1
 62
2
 10
689.915968162
 20
547.5286882680999
 30
0
 11
689.684968162
 21
547.4536882681
 31
0
  0
LINE
  8
1
 62
2
 10
690.146968162
 20
547.7536882681
 30
0
 11
689.915968162
 21
547.5286882680999
 31
0
  0
LINE
  8
1
 62
2
 10
690.3202181620001
 20
548.0536882680999
 30
0
 11
690.146968162
 21
547.7536882681
 31
0
  0
LINE
  8
1
 62
2
 10
690.377968162
 20
548.3536882681
 30
0
 11
690.3202181620001
 21
548.0536882680999
 31
0
  0
LINE
  8
1
 62
2
 10
690.377968162
 20
548.6536882680999
 30
0
 11
690.377968162
 21
548.3536882681
 31
0
  0
LINE
  8
1
 62
2
 10
693.6370260673236
 20
548.7036880353001
 30
0
 11
693.6370260673236
 21
547.5036880353
 31
0
  0
LINE
  8
1
 62
2
 10
693.6370260673236
 20
547.5036880353
 30
0
 11
693.6370260673236
 21
547.0036880353
 31
0
  0
LINE
  8
1
 62
2
 10
693.4332025379118
 20
547.1036880353
 30
0
 11
693.6370260673236
 21
547.5036880353
 31
0
  0
LINE
  8
1
 62
2
 10
693.1614378320295
 20
547.0036880353
 30
0
 11
693.4332025379118
 21
547.1036880353
 31
0
  0
LINE
  8
1
 62
2
 10
692.8896731261472
 20
547.1036880353
 30
0
 11
693.1614378320295
 21
547.0036880353
 31
0
  0
LINE
  8
1
 62
2
 10
692.6858495967354
 20
547.6036880353
 30
0
 11
692.8896731261472
 21
547.1036880353
 31
0
  0
LINE
  8
1
 62
2
 10
692.6179084202647
 20
548.0036880353
 30
0
 11
692.6858495967354
 21
547.6036880353
 31
0
  0
LINE
  8
1
 62
2
 10
692.6858495967354
 20
548.6036880353
 30
0
 11
692.6179084202647
 21
548.0036880353
 31
0
  0
LINE
  8
1
 62
2
 10
692.8896731261472
 20
549.0036880353
 30
0
 11
692.6858495967354
 21
548.6036880353
 31
0
  0
LINE
  8
1
 62
2
 10
693.1614378320295
 20
549.2036880353001
 30
0
 11
692.8896731261472
 21
549.0036880353
 31
0
  0
LINE
  8
1
 62
2
 10
693.4332025379118
 20
549.0036880353
 30
0
 11
693.1614378320295
 21
549.2036880353001
 31
0
  0
LINE
  8
1
 62
2
 10
693.6370260673236
 20
548.7036880353001
 30
0
 11
693.4332025379118
 21
549.0036880353
 31
0
  0
LINE
  8
1
 62
2
 10
693.6370260673236
 20
550.0036880353
 30
0
 11
693.6370260673236
 21
548.7036880353001
 31
0
  0
LINE
  8
1
 62
2
 10
285.7217943558588
 20
347.6750303323
 30
0
 11
285.4907943558588
 21
347.0750303323
 31
0
  0
LINE
  8
1
 62
2
 10
285.8372943558588
 20
348.2750303323
 30
0
 11
285.7217943558588
 21
347.6750303323
 31
0
  0
LINE
  8
1
 62
2
 10
285.8372943558588
 20
348.8750303323
 30
0
 11
285.8372943558588
 21
348.2750303323
 31
0
  0
LINE
  8
1
 62
2
 10
285.7217943558588
 20
349.4750303323
 30
0
 11
285.8372943558588
 21
348.8750303323
 31
0
  0
LINE
  8
1
 62
2
 10
285.4907943558588
 20
350.0750303323
 30
0
 11
285.7217943558588
 21
349.4750303323
 31
0
  0
LINE
  8
1
 62
2
 10
284.7400443558589
 20
349.4750303323
 30
0
 11
284.7977943558589
 21
349.1750303323
 31
0
  0
LINE
  8
1
 62
2
 10
284.6245443558589
 20
349.7000303323
 30
0
 11
284.7400443558589
 21
349.4750303323
 31
0
  0
LINE
  8
1
 62
2
 10
284.5090443558589
 20
349.8500303323
 30
0
 11
284.6245443558589
 21
349.7000303323
 31
0
  0
LINE
  8
1
 62
2
 10
284.3357943558588
 20
350.0000303323
 30
0
 11
284.5090443558589
 21
349.8500303323
 31
0
  0
LINE
  8
1
 62
2
 10
284.1047943558588
 20
350.0750303323
 30
0
 11
284.3357943558588
 21
350.0000303323
 31
0
  0
LINE
  8
1
 62
2
 10
283.1807943558588
 20
350.0750303323
 30
0
 11
284.1047943558588
 21
350.0750303323
 31
0
  0
LINE
  8
1
 62
2
 10
283.1807943558588
 20
347.0750303323
 30
0
 11
283.1807943558588
 21
350.0750303323
 31
0
  0
LINE
  8
1
 62
2
 10
284.1047943558588
 20
347.0750303323
 30
0
 11
283.1807943558588
 21
347.0750303323
 31
0
  0
LINE
  8
1
 62
2
 10
284.3357943558588
 20
347.1500303323
 30
0
 11
284.1047943558588
 21
347.0750303323
 31
0
  0
LINE
  8
1
 62
2
 10
284.5090443558589
 20
347.3000303323
 30
0
 11
284.3357943558588
 21
347.1500303323
 31
0
  0
LINE
  8
1
 62
2
 10
284.6245443558589
 20
347.4500303323
 30
0
 11
284.5090443558589
 21
347.3000303323
 31
0
  0
LINE
  8
1
 62
2
 10
284.7400443558589
 20
347.6750303323
 30
0
 11
284.6245443558589
 21
347.4500303323
 31
0
  0
LINE
  8
1
 62
2
 10
284.7977943558589
 20
347.9750303323
 30
0
 11
284.7400443558589
 21
347.6750303323
 31
0
  0
LINE
  8
1
 62
2
 10
284.7977943558589
 20
349.1750303323
 30
0
 11
284.7977943558589
 21
347.9750303323
 31
0
  0
LINE
  8
1
 62
2
 10
281.4822649440941
 20
347.9750303323
 30
0
 11
281.6860884735059
 21
347.4750303323
 31
0
  0
LINE
  8
1
 62
2
 10
281.4143237676235
 20
348.5750303323
 30
0
 11
281.4822649440941
 21
347.9750303323
 31
0
  0
LINE
  8
1
 62
2
 10
281.4822649440941
 20
349.1750303323
 30
0
 11
281.4143237676235
 21
348.5750303323
 31
0
  0
LINE
  8
1
 62
2
 10
281.6860884735059
 20
349.6750303323
 30
0
 11
281.4822649440941
 21
349.1750303323
 31
0
  0
LINE
  8
1
 62
2
 10
278.4928531793883
 20
348.7750303323
 30
0
 11
279.8516767088
 21
348.7750303323
 31
0
  0
LINE
  8
1
 62
2
 10
279.1043237676236
 20
346.9750303323
 30
0
 11
278.0852061205647
 21
347.2750303323
 31
0
  0
LINE
  8
1
 62
2
 10
279.5799120029176
 20
347.3750303323
 30
0
 11
279.1043237676236
 21
346.9750303323
 31
0
  0
LINE
  8
1
 62
2
 10
279.6478531793882
 20
348.0750303323
 30
0
 11
279.5799120029176
 21
347.3750303323
 31
0
  0
LINE
  8
1
 62
2
 10
278.3569708264471
 20
348.0750303323
 30
0
 11
279.6478531793882
 21
348.0750303323
 31
0
  0
LINE
  8
1
 62
2
 10
278.4928531793883
 20
348.7750303323
 30
0
 11
278.3569708264471
 21
348.0750303323
 31
0
  0
LINE
  8
1
 62
2
 10
277.8134414146824
 20
348.7750303323
 30
0
 11
278.4928531793883
 21
348.7750303323
 31
0
  0
LINE
  8
1
 62
2
 10
278.0852061205647
 20
349.0750303323
 30
0
 11
278.0852061205647
 21
349.9750303323
 31
0
  0
LINE
  8
1
 62
2
 10
279.6478531793882
 20
349.0750303323
 30
0
 11
278.0852061205647
 21
349.0750303323
 31
0
  0
LINE
  8
1
 62
2
 10
279.6478531793882
 20
349.9750303323
 30
0
 11
279.6478531793882
 21
349.0750303323
 31
0
  0
LINE
  8
1
 62
2
 10
278.0852061205647
 20
349.9750303323
 30
0
 11
279.6478531793882
 21
349.9750303323
 31
0
  0
LINE
  8
1
 62
2
 10
277.1340296499765
 20
347.0750303323
 30
0
 11
277.1340296499765
 21
347.7750303323
 31
0
  0
LINE
  8
1
 62
2
 10
276.1149120029176
 20
347.0750303323
 30
0
 11
277.1340296499765
 21
347.0750303323
 31
0
  0
LINE
  8
1
 62
2
 10
276.1149120029176
 20
348.7750303323
 30
0
 11
276.1149120029176
 21
347.0750303323
 31
0
  0
LINE
  8
1
 62
2
 10
276.9981472970353
 20
348.7750303323
 30
0
 11
276.1149120029176
 21
348.7750303323
 31
0
  0
LINE
  8
1
 62
2
 10
276.9981472970353
 20
349.9750303323
 30
0
 11
276.9981472970353
 21
348.7750303323
 31
0
  0
LINE
  8
1
 62
2
 10
276.046970826447
 20
349.9750303323
 30
0
 11
276.9981472970353
 21
349.9750303323
 31
0
  0
LINE
  8
1
 62
2
 10
275.1637355323294
 20
347.0750303323
 30
0
 11
275.1637355323294
 21
348.0750303323
 31
0
  0
LINE
  8
1
 62
2
 10
275.9110884735059
 20
347.0750303323
 30
0
 11
275.1637355323294
 21
347.0750303323
 31
0
  0
LINE
  8
1
 62
2
 10
275.9110884735059
 20
348.0750303323
 30
0
 11
275.9110884735059
 21
347.0750303323
 31
0
  0
LINE
  8
1
 62
2
 10
275.1637355323294
 20
348.0750303323
 30
0
 11
275.9110884735059
 21
348.0750303323
 31
0
  0
LINE
  8
1
 62
2
 10
275.2316767088
 20
348.4750303323
 30
0
 11
275.8431472970353
 21
348.4750303323
 31
0
  0
LINE
  8
1
 62
2
 10
275.2316767088
 20
348.9750303323
 30
0
 11
275.8431472970353
 21
348.9750303323
 31
0
  0
LINE
  8
1
 62
2
 10
275.0957943558588
 20
349.4750303323
 30
0
 11
275.9790296499764
 21
349.4750303323
 31
0
  0
LINE
  8
1
 62
2
 10
275.2316767088
 20
349.9750303323
 30
0
 11
275.8431472970353
 21
349.9750303323
 31
0
  0
LINE
  8
1
 62
2
 10
272.7857943558589
 20
348.7750303323
 30
0
 11
273.2613825911529
 21
348.7750303323
 31
0
  0
LINE
  8
1
 62
2
 10
272.7857943558589
 20
348.7750303323
 30
0
 11
272.7857943558589
 21
347.0750303323
 31
0
  0
LINE
  8
1
 62
2
 10
274.2125590617412
 20
349.9750303323
 30
0
 11
274.2125590617412
 21
347.0750303323
 31
0
  0
LINE
  8
1
 62
2
 10
273.3293237676235
 20
347.5750303323
 30
0
 11
274.416382591153
 21
347.8750303323
 31
0
  0
LINE
  8
1
 62
2
 10
273.3972649440941
 20
348.9750303323
 30
0
 11
274.0087355323294
 21
348.1750303323
 31
0
  0
LINE
  8
1
 62
2
 10
273.4652061205647
 20
349.8750303323
 30
0
 11
274.0087355323294
 21
349.1750303323
 31
0
  0
LINE
  8
1
 62
2
 10
272.7857943558589
 20
348.7750303323
 30
0
 11
273.2613825911529
 21
347.8750303323
 31
0
  0
LINE
  8
1
 62
2
 10
272.7857943558589
 20
348.7750303323
 30
0
 11
272.3781472970353
 21
347.5750303323
 31
0
  0
LINE
  8
1
 62
2
 10
272.7857943558589
 20
350.0750303323
 30
0
 11
272.7857943558589
 21
348.7750303323
 31
0
  0
LINE
  8
1
 62
2
 10
272.3781472970353
 20
348.7750303323
 30
0
 11
272.7857943558589
 21
348.7750303323
 31
0
  0
LINE
  8
1
 62
2
 10
273.2613825911529
 20
349.8750303323
 30
0
 11
272.9896178852706
 21
349.0750303323
 31
0
  0
LINE
  8
1
 62
2
 10
272.4460884735059
 20
349.8750303323
 30
0
 11
272.5819708264471
 21
348.9750303323
 31
0
  0
LINE
  8
1
 62
2
 10
270.0681472970353
 20
349.5750303323
 30
0
 11
270.4757943558588
 21
349.5750303323
 31
0
  0
LINE
  8
1
 62
2
 10
270.0681472970353
 20
349.5750303323
 30
0
 11
270.0681472970353
 21
347.0750303323
 31
0
  0
LINE
  8
1
 62
2
 10
271.426970826447
 20
349.5750303323
 30
0
 11
271.426970826447
 21
347.0750303323
 31
0
  0
LINE
  8
1
 62
2
 10
271.426970826447
 20
349.5750303323
 30
0
 11
270.4757943558588
 21
347.7750303323
 31
0
  0
LINE
  8
1
 62
2
 10
271.426970826447
 20
347.0750303323
 30
0
 11
270.8155002382118
 21
347.4750303323
 31
0
  0
LINE
  8
1
 62
2
 10
271.426970826447
 20
350.0750303323
 30
0
 11
271.426970826447
 21
349.5750303323
 31
0
  0
LINE
  8
1
 62
2
 10
270.6116767088
 20
349.5750303323
 30
0
 11
271.6987355323294
 21
349.5750303323
 31
0
  0
LINE
  8
1
 62
2
 10
270.0681472970353
 20
349.5750303323
 30
0
 11
270.4757943558588
 21
348.3750303323
 31
0
  0
LINE
  8
1
 62
2
 10
270.0681472970353
 20
349.5750303323
 30
0
 11
269.6605002382117
 21
348.0750303323
 31
0
  0
LINE
  8
1
 62
2
 10
270.0681472970353
 20
350.0750303323
 30
0
 11
270.0681472970353
 21
349.5750303323
 31
0
  0
LINE
  8
1
 62
2
 10
269.6605002382117
 20
349.5750303323
 30
0
 11
270.0681472970353
 21
349.5750303323
 31
0
  0
LINE
  8
1
 62
2
 10
268.9131472970353
 20
350.1750303323
 30
0
 11
269.0490296499765
 21
349.7750303323
 31
0
  0
LINE
  8
1
 62
2
 10
268.5734414146824
 20
350.1750303323
 30
0
 11
268.7093237676235
 21
349.7750303323
 31
0
  0
LINE
  8
1
 62
2
 10
268.4375590617412
 20
349.6750303323
 30
0
 11
268.8452061205647
 21
348.5750303323
 31
0
  0
LINE
  8
1
 62
2
 10
268.5055002382118
 20
349.1750303323
 30
0
 11
268.4375590617412
 21
349.6750303323
 31
0
  0
LINE
  8
1
 62
2
 10
268.5734414146824
 20
348.7750303323
 30
0
 11
268.5055002382118
 21
349.1750303323
 31
0
  0
LINE
  8
1
 62
2
 10
268.5055002382118
 20
348.2750303323
 30
0
 11
268.5734414146824
 21
348.7750303323
 31
0
  0
LINE
  8
1
 62
2
 10
268.3696178852706
 20
347.8750303323
 30
0
 11
268.5055002382118
 21
348.2750303323
 31
0
  0
LINE
  8
1
 62
2
 10
268.0978531793883
 20
347.5750303323
 30
0
 11
268.3696178852706
 21
347.8750303323
 31
0
  0
LINE
  8
1
 62
2
 10
267.6902061205647
 20
347.3750303323
 30
0
 11
268.0978531793883
 21
347.5750303323
 31
0
  0
LINE
  8
1
 62
2
 10
267.3505002382118
 20
347.5750303323
 30
0
 11
267.6902061205647
 21
347.3750303323
 31
0
  0
LINE
  8
1
 62
2
 10
267.2146178852706
 20
348.1750303323
 30
0
 11
267.3505002382118
 21
347.5750303323
 31
0
  0
LINE
  8
1
 62
2
 10
267.3505002382118
 20
348.7750303323
 30
0
 11
267.2146178852706
 21
348.1750303323
 31
0
  0
LINE
  8
1
 62
2
 10
267.5543237676235
 20
349.2750303323
 30
0
 11
267.3505002382118
 21
348.7750303323
 31
0
  0
LINE
  8
1
 62
2
 10
267.8260884735059
 20
349.6750303323
 30
0
 11
267.5543237676235
 21
349.2750303323
 31
0
  0
LINE
  8
1
 62
2
 10
267.2146178852706
 20
349.6750303323
 30
0
 11
267.8260884735059
 21
349.6750303323
 31
0
  0
LINE
  8
1
 62
2
 10
265.2443237676235
 20
349.2750303323
 30
0
 11
265.2443237676235
 21
347.7750303323
 31
0
  0
LINE
  8
1
 62
2
 10
265.7199120029176
 20
347.9750303323
 30
0
 11
266.1275590617412
 21
347.5750303323
 31
0
  0
LINE
  8
1
 62
2
 10
265.2443237676235
 20
348.1750303323
 30
0
 11
265.7199120029176
 21
347.9750303323
 31
0
  0
LINE
  8
1
 62
2
 10
264.8366767088
 20
348.2750303323
 30
0
 11
265.2443237676235
 21
348.1750303323
 31
0
  0
LINE
  8
1
 62
2
 10
264.5649120029177
 20
348.1750303323
 30
0
 11
264.8366767088
 21
348.2750303323
 31
0
  0
LINE
  8
1
 62
2
 10
264.4290296499764
 20
347.7750303323
 30
0
 11
264.5649120029177
 21
348.1750303323
 31
0
  0
LINE
  8
1
 62
2
 10
264.5649120029177
 20
347.3750303323
 30
0
 11
264.4290296499764
 21
347.7750303323
 31
0
  0
LINE
  8
1
 62
2
 10
264.8366767088
 20
347.2750303323
 30
0
 11
264.5649120029177
 21
347.3750303323
 31
0
  0
LINE
  8
1
 62
2
 10
265.1084414146823
 20
347.3750303323
 30
0
 11
264.8366767088
 21
347.2750303323
 31
0
  0
LINE
  8
1
 62
2
 10
265.2443237676235
 20
347.7750303323
 30
0
 11
265.1084414146823
 21
347.3750303323
 31
0
  0
LINE
  8
1
 62
2
 10
265.2443237676235
 20
349.9750303323
 30
0
 11
265.2443237676235
 21
349.2750303323
 31
0
  0
LINE
  8
1
 62
2
 10
265.2443237676235
 20
349.2750303323
 30
0
 11
266.0596178852705
 21
349.2750303323
 31
0
  0
LINE
  8
1
 62
2
 10
263.2060884735059
 20
349.6750303323
 30
0
 11
263.5457943558589
 21
349.0750303323
 31
0
  0
LINE
  8
1
 62
2
 10
263.0702061205647
 20
347.3750303323
 30
0
 11
262.7305002382118
 21
347.2750303323
 31
0
  0
LINE
  8
1
 62
2
 10
263.341970826447
 20
347.7750303323
 30
0
 11
263.0702061205647
 21
347.3750303323
 31
0
  0
LINE
  8
1
 62
2
 10
263.4099120029177
 20
348.3750303323
 30
0
 11
263.341970826447
 21
347.7750303323
 31
0
  0
LINE
  8
1
 62
2
 10
263.1381472970353
 20
348.7750303323
 30
0
 11
263.4099120029177
 21
348.3750303323
 31
0
  0
LINE
  8
1
 62
2
 10
262.7984414146824
 20
348.9750303323
 30
0
 11
263.1381472970353
 21
348.7750303323
 31
0
  0
LINE
  8
1
 62
2
 10
262.3907943558588
 20
348.8750303323
 30
0
 11
262.7984414146824
 21
348.9750303323
 31
0
  0
LINE
  8
1
 62
2
 10
262.1869708264471
 20
348.7750303323
 30
0
 11
262.3907943558588
 21
348.8750303323
 31
0
  0
LINE
  8
1
 62
2
 10
261.9831472970353
 20
348.5750303323
 30
0
 11
262.1869708264471
 21
348.7750303323
 31
0
  0
LINE
  8
1
 62
2
 10
261.8472649440942
 20
348.3750303323
 30
0
 11
261.9831472970353
 21
348.5750303323
 31
0
  0
LINE
  8
1
 62
2
 10
261.7113825911529
 20
347.9750303323
 30
0
 11
261.8472649440942
 21
348.3750303323
 31
0
  0
LINE
  8
1
 62
2
 10
261.7793237676235
 20
347.4750303323
 30
0
 11
261.7113825911529
 21
347.9750303323
 31
0
  0
LINE
  8
1
 62
2
 10
262.1190296499765
 20
347.2750303323
 30
0
 11
261.7793237676235
 21
347.4750303323
 31
0
  0
LINE
  8
1
 62
2
 10
262.3228531793882
 20
347.4750303323
 30
0
 11
262.1190296499765
 21
347.2750303323
 31
0
  0
LINE
  8
1
 62
2
 10
262.3228531793882
 20
349.9750303323
 30
0
 11
262.3228531793882
 21
347.4750303323
 31
0
  0
LINE
  8
1
 62
2
 10
261.8472649440942
 20
349.5750303323
 30
0
 11
262.7984414146824
 21
349.5750303323
 31
0
  0
LINE
  8
1
 62
2
 10
259.1296178852706
 20
347.7750303323
 30
0
 11
260.8960884735059
 21
347.7750303323
 31
0
  0
LINE
  8
1
 62
2
 10
260.0128531793882
 20
349.7750303323
 30
0
 11
260.8960884735059
 21
349.7750303323
 31
0
  0
LINE
  8
1
 62
2
 10
260.0128531793882
 20
349.7750303323
 30
0
 11
260.0128531793882
 21
346.9750303323
 31
0
  0
LINE
  8
1
 62
2
 10
258.721970826447
 20
347.7750303323
 30
0
 11
259.1296178852706
 21
347.7750303323
 31
0
  0
LINE
  8
1
 62
2
 10
259.1296178852706
 20
348.9750303323
 30
0
 11
259.1296178852706
 21
347.7750303323
 31
0
  0
LINE
  8
1
 62
2
 10
260.8281472970353
 20
348.9750303323
 30
0
 11
259.1296178852706
 21
348.9750303323
 31
0
  0
LINE
  8
1
 62
2
 10
259.1975590617412
 20
349.7750303323
 30
0
 11
260.0128531793882
 21
349.7750303323
 31
0
  0
LINE
  8
1
 62
2
 10
259.1975590617412
 20
349.7750303323
 30
0
 11
258.8578531793882
 21
349.1750303323
 31
0
  0
LINE
  8
1
 62
2
 10
259.3334414146823
 20
350.1750303323
 30
0
 11
259.1975590617412
 21
349.7750303323
 31
0
  0
LINE
  8
1
 62
2
 10
257.3631472970353
 20
348.8750303323
 30
0
 11
258.1105002382118
 21
348.8750303323
 31
0
  0
LINE
  8
1
 62
2
 10
256.8196178852706
 20
347.4750303323
 30
0
 11
256.8196178852706
 21
348.4750303323
 31
0
  0
LINE
  8
1
 62
2
 10
257.9066767088
 20
347.4750303323
 30
0
 11
256.8196178852706
 21
347.4750303323
 31
0
  0
LINE
  8
1
 62
2
 10
257.9066767088
 20
348.4750303323
 30
0
 11
257.9066767088
 21
347.4750303323
 31
0
  0
LINE
  8
1
 62
2
 10
256.8196178852706
 20
348.4750303323
 30
0
 11
257.9066767088
 21
348.4750303323
 31
0
  0
LINE
  8
1
 62
2
 10
257.3631472970353
 20
350.0750303323
 30
0
 11
257.3631472970353
 21
348.8750303323
 31
0
  0
LINE
  8
1
 62
2
 10
256.5478531793883
 20
348.8750303323
 30
0
 11
257.3631472970353
 21
348.8750303323
 31
0
  0
LINE
  8
1
 62
2
 10
256.7516767088
 20
349.5750303323
 30
0
 11
258.0425590617412
 21
349.5750303323
 31
0
  0
LINE
  8
1
 62
2
 10
256.7516767088
 20
349.5750303323
 30
0
 11
256.5478531793883
 21
349.1750303323
 31
0
  0
LINE
  8
1
 62
2
 10
256.8196178852706
 20
349.9750303323
 30
0
 11
256.7516767088
 21
349.5750303323
 31
0
  0
LINE
  8
1
 62
2
 10
257.0234414146823
 20
347.0750303323
 30
0
 11
258.1784414146824
 21
347.0750303323
 31
0
  0
LINE
  8
1
 62
2
 10
256.4119708264471
 20
347.7750303323
 30
0
 11
257.0234414146823
 21
347.0750303323
 31
0
  0
LINE
  8
1
 62
2
 10
256.4119708264471
 20
347.7750303323
 30
0
 11
256.0722649440941
 21
347.0750303323
 31
0
  0
LINE
  8
1
 62
2
 10
256.4119708264471
 20
348.7750303323
 30
0
 11
256.4119708264471
 21
347.7750303323
 31
0
  0
LINE
  8
1
 62
2
 10
256.0722649440941
 20
348.7750303323
 30
0
 11
256.4119708264471
 21
348.7750303323
 31
0
  0
LINE
  8
1
 62
2
 10
256.1402061205647
 20
349.9750303323
 30
0
 11
256.4799120029177
 21
349.4750303323
 31
0
  0
LINE
  8
1
 62
2
 10
253.7622649440941
 20
349.0750303323
 30
0
 11
254.1019708264471
 21
349.0750303323
 31
0
  0
LINE
  8
1
 62
2
 10
253.7622649440941
 20
347.1750303323
 30
0
 11
254.1699120029176
 21
347.2750303323
 31
0
  0
LINE
  8
1
 62
2
 10
255.2569708264471
 20
348.9750303323
 30
0
 11
255.4607943558588
 21
348.9750303323
 31
0
  0
LINE
  8
1
 62
2
 10
254.781382591153
 20
348.0750303323
 30
0
 11
254.9852061205647
 21
347.3750303323
 31
0
  0
LINE
  8
1
 62
2
 10
255.2569708264471
 20
347.0750303323
 30
0
 11
254.7134414146824
 21
347.2750303323
 31
0
  0
LINE
  8
1
 62
2
 10
255.2569708264471
 20
348.9750303323
 30
0
 11
255.2569708264471
 21
347.0750303323
 31
0
  0
LINE
  8
1
 62
2
 10
254.3057943558588
 20
348.2750303323
 30
0
 11
255.4607943558588
 21
348.2750303323
 31
0
  0
LINE
  8
1
 62
2
 10
254.7134414146824
 20
348.6750303323
 30
0
 11
254.3057943558588
 21
347.3750303323
 31
0
  0
LINE
  8
1
 62
2
 10
254.781382591153
 20
350.0750303323
 30
0
 11
254.7134414146824
 21
348.6750303323
 31
0
  0
LINE
  8
1
 62
2
 10
254.2378531793882
 20
348.9750303323
 30
0
 11
255.2569708264471
 21
348.9750303323
 31
0
  0
LINE
  8
1
 62
2
 10
254.3737355323294
 20
349.3750303323
 30
0
 11
255.3249120029176
 21
349.3750303323
 31
0
  0
LINE
  8
1
 62
2
 10
254.3057943558588
 20
349.7750303323
 30
0
 11
255.3928531793882
 21
349.7750303323
 31
0
  0
LINE
  8
1
 62
2
 10
253.3546178852706
 20
347.0750303323
 30
0
 11
253.7622649440941
 21
347.1750303323
 31
0
  0
LINE
  8
1
 62
2
 10
254.1699120029176
 20
348.1750303323
 30
0
 11
254.0340296499765
 21
347.4750303323
 31
0
  0
LINE
  8
1
 62
2
 10
253.4225590617412
 20
348.1750303323
 30
0
 11
253.5584414146824
 21
347.3750303323
 31
0
  0
LINE
  8
1
 62
2
 10
253.7622649440941
 20
349.0750303323
 30
0
 11
253.7622649440941
 21
347.1750303323
 31
0
  0
LINE
  8
1
 62
2
 10
253.3546178852706
 20
348.4750303323
 30
0
 11
254.1699120029176
 21
348.4750303323
 31
0
  0
LINE
  8
1
 62
2
 10
253.4225590617412
 20
349.0750303323
 30
0
 11
253.7622649440941
 21
349.0750303323
 31
0
  0
LINE
  8
1
 62
2
 10
253.8302061205647
 20
349.9750303323
 30
0
 11
254.1699120029176
 21
349.3750303323
 31
0
  0
LINE
  8
1
 62
2
 10
253.3546178852706
 20
349.2750303323
 30
0
 11
253.8302061205647
 21
349.9750303323
 31
0
  0
LINE
  8
1
 62
2
 10
506.9344781741002
 20
790.9744624917
 30
0
 11
506.9344781741002
 21
784.9744624917
 31
0
  0
LINE
  8
1
 62
2
 10
505.5484781741001
 20
789.1744624917001
 30
0
 11
506.9344781741002
 21
790.9744624917
 31
0
  0
LINE
  8
1
 62
2
 10
504.0469781741001
 20
789.7744624917
 30
0
 11
504.1624781741001
 21
789.1744624917001
 31
0
  0
LINE
  8
1
 62
2
 10
503.8159781741001
 20
790.2244624917
 30
0
 11
504.0469781741001
 21
789.7744624917
 31
0
  0
LINE
  8
1
 62
2
 10
503.5849781741001
 20
790.5244624917
 30
0
 11
503.8159781741001
 21
790.2244624917
 31
0
  0
LINE
  8
1
 62
2
 10
503.2384781741001
 20
790.8244624917001
 30
0
 11
503.5849781741001
 21
790.5244624917
 31
0
  0
LINE
  8
1
 62
2
 10
502.7764781741001
 20
790.9744624917
 30
0
 11
503.2384781741001
 21
790.8244624917001
 31
0
  0
LINE
  8
1
 62
2
 10
500.9284781741001
 20
790.9744624917
 30
0
 11
502.7764781741001
 21
790.9744624917
 31
0
  0
LINE
  8
1
 62
2
 10
500.9284781741001
 20
784.9744624917
 30
0
 11
500.9284781741001
 21
790.9744624917
 31
0
  0
LINE
  8
1
 62
2
 10
502.7764781741001
 20
784.9744624917
 30
0
 11
500.9284781741001
 21
784.9744624917
 31
0
  0
LINE
  8
1
 62
2
 10
503.2384781741001
 20
785.1244624917
 30
0
 11
502.7764781741001
 21
784.9744624917
 31
0
  0
LINE
  8
1
 62
2
 10
503.5849781741001
 20
785.4244624917001
 30
0
 11
503.2384781741001
 21
785.1244624917
 31
0
  0
LINE
  8
1
 62
2
 10
503.8159781741001
 20
785.7244624917
 30
0
 11
503.5849781741001
 21
785.4244624917001
 31
0
  0
LINE
  8
1
 62
2
 10
504.0469781741001
 20
786.1744624917001
 30
0
 11
503.8159781741001
 21
785.7244624917
 31
0
  0
LINE
  8
1
 62
2
 10
504.1624781741001
 20
786.7744624917
 30
0
 11
504.0469781741001
 21
786.1744624917001
 31
0
  0
LINE
  8
1
 62
2
 10
504.1624781741001
 20
789.1744624917001
 30
0
 11
504.1624781741001
 21
786.7744624917
 31
0
  0
LINE
  8
1
 62
2
 10
540.5851435791
 20
784.9744624917
 30
0
 11
543.3571435791
 21
784.9744624917
 31
0
  0
LINE
  8
1
 62
2
 10
543.1261435791
 20
788.8744624917
 30
0
 11
540.5851435791
 21
784.9744624917
 31
0
  0
LINE
  8
1
 62
2
 10
543.3571435791
 20
789.4744624917
 30
0
 11
543.1261435791
 21
788.8744624917
 31
0
  0
LINE
  8
1
 62
2
 10
543.3571435791
 20
790.0744624917001
 30
0
 11
543.3571435791
 21
789.4744624917
 31
0
  0
LINE
  8
1
 62
2
 10
543.1261435791
 20
790.5244624917
 30
0
 11
543.3571435791
 21
790.0744624917001
 31
0
  0
LINE
  8
1
 62
2
 10
542.7796435790999
 20
790.8244624917001
 30
0
 11
543.1261435791
 21
790.5244624917
 31
0
  0
LINE
  8
1
 62
2
 10
542.3176435790999
 20
790.9744624917
 30
0
 11
542.7796435790999
 21
790.8244624917001
 31
0
  0
LINE
  8
1
 62
2
 10
541.6246435790999
 20
790.9744624917
 30
0
 11
542.3176435790999
 21
790.9744624917
 31
0
  0
LINE
  8
1
 62
2
 10
541.1626435791
 20
790.8244624917001
 30
0
 11
541.6246435790999
 21
790.9744624917
 31
0
  0
LINE
  8
1
 62
2
 10
540.8161435791
 20
790.5244624917
 30
0
 11
541.1626435791
 21
790.8244624917001
 31
0
  0
LINE
  8
1
 62
2
 10
540.5851435791
 20
790.0744624917001
 30
0
 11
540.8161435791
 21
790.5244624917
 31
0
  0
LINE
  8
1
 62
2
 10
539.0836435791
 20
789.7744624917
 30
0
 11
539.1991435791
 21
789.1744624917001
 31
0
  0
LINE
  8
1
 62
2
 10
538.8526435791
 20
790.2244624917
 30
0
 11
539.0836435791
 21
789.7744624917
 31
0
  0
LINE
  8
1
 62
2
 10
538.6216435791
 20
790.5244624917
 30
0
 11
538.8526435791
 21
790.2244624917
 31
0
  0
LINE
  8
1
 62
2
 10
538.2751435790999
 20
790.8244624917001
 30
0
 11
538.6216435791
 21
790.5244624917
 31
0
  0
LINE
  8
1
 62
2
 10
537.8131435790999
 20
790.9744624917
 30
0
 11
538.2751435790999
 21
790.8244624917001
 31
0
  0
LINE
  8
1
 62
2
 10
535.9651435791
 20
790.9744624917
 30
0
 11
537.8131435790999
 21
790.9744624917
 31
0
  0
LINE
  8
1
 62
2
 10
535.9651435791
 20
784.9744624917
 30
0
 11
535.9651435791
 21
790.9744624917
 31
0
  0
LINE
  8
1
 62
2
 10
537.8131435790999
 20
784.9744624917
 30
0
 11
535.9651435791
 21
784.9744624917
 31
0
  0
LINE
  8
1
 62
2
 10
538.2751435790999
 20
785.1244624917
 30
0
 11
537.8131435790999
 21
784.9744624917
 31
0
  0
LINE
  8
1
 62
2
 10
538.6216435791
 20
785.4244624917001
 30
0
 11
538.2751435790999
 21
785.1244624917
 31
0
  0
LINE
  8
1
 62
2
 10
538.8526435791
 20
785.7244624917
 30
0
 11
538.6216435791
 21
785.4244624917001
 31
0
  0
LINE
  8
1
 62
2
 10
539.0836435791
 20
786.1744624917001
 30
0
 11
538.8526435791
 21
785.7244624917
 31
0
  0
LINE
  8
1
 62
2
 10
539.1991435791
 20
786.7744624917
 30
0
 11
539.0836435791
 21
786.1744624917001
 31
0
  0
LINE
  8
1
 62
2
 10
539.1991435791
 20
789.1744624917001
 30
0
 11
539.1991435791
 21
786.7744624917
 31
0
  0
LINE
  8
1
 62
2
 10
577.3543089841
 20
784.9744624917
 30
0
 11
575.6218089841001
 21
784.9744624917
 31
0
  0
LINE
  8
1
 62
2
 10
577.7008089841
 20
785.1244624917
 30
0
 11
577.3543089841
 21
784.9744624917
 31
0
  0
LINE
  8
1
 62
2
 10
578.0473089841001
 20
785.4244624917001
 30
0
 11
577.7008089841
 21
785.1244624917
 31
0
  0
LINE
  8
1
 62
2
 10
578.2783089841001
 20
785.8744624917
 30
0
 11
578.0473089841001
 21
785.4244624917001
 31
0
  0
LINE
  8
1
 62
2
 10
578.3938089841001
 20
786.4744624917
 30
0
 11
578.2783089841001
 21
785.8744624917
 31
0
  0
LINE
  8
1
 62
2
 10
578.3938089841001
 20
787.2244624917
 30
0
 11
578.3938089841001
 21
786.4744624917
 31
0
  0
LINE
  8
1
 62
2
 10
578.2783089841001
 20
787.8244624917001
 30
0
 11
578.3938089841001
 21
787.2244624917
 31
0
  0
LINE
  8
1
 62
2
 10
578.1628089841001
 20
788.1244624917
 30
0
 11
578.2783089841001
 21
787.8244624917001
 31
0
  0
LINE
  8
1
 62
2
 10
577.9318089841
 20
788.4244624917001
 30
0
 11
578.1628089841001
 21
788.1244624917
 31
0
  0
LINE
  8
1
 62
2
 10
577.4698089841
 20
788.5744624917001
 30
0
 11
577.9318089841
 21
788.4244624917001
 31
0
  0
LINE
  8
1
 62
2
 10
577.8163089841
 20
788.7244624917
 30
0
 11
577.4698089841
 21
788.5744624917001
 31
0
  0
LINE
  8
1
 62
2
 10
578.0473089841001
 20
788.8744624917
 30
0
 11
577.8163089841
 21
788.7244624917
 31
0
  0
LINE
  8
1
 62
2
 10
578.2783089841001
 20
789.1744624917001
 30
0
 11
578.0473089841001
 21
788.8744624917
 31
0
  0
LINE
  8
1
 62
2
 10
578.3938089841001
 20
789.6244624917
 30
0
 11
578.2783089841001
 21
789.1744624917001
 31
0
  0
LINE
  8
1
 62
2
 10
578.3938089841001
 20
790.0744624917001
 30
0
 11
578.3938089841001
 21
789.6244624917
 31
0
  0
LINE
  8
1
 62
2
 10
578.2783089841001
 20
790.5244624917
 30
0
 11
578.3938089841001
 21
790.0744624917001
 31
0
  0
LINE
  8
1
 62
2
 10
577.9318089841
 20
790.8244624917001
 30
0
 11
578.2783089841001
 21
790.5244624917
 31
0
  0
LINE
  8
1
 62
2
 10
577.3543089841
 20
790.9744624917
 30
0
 11
577.9318089841
 21
790.8244624917001
 31
0
  0
LINE
  8
1
 62
2
 10
575.6218089841001
 20
790.9744624917
 30
0
 11
577.3543089841
 21
790.9744624917
 31
0
  0
LINE
  8
1
 62
2
 10
576.3148089841001
 20
788.5744624917001
 30
0
 11
577.4698089841
 21
788.5744624917001
 31
0
  0
LINE
  8
1
 62
2
 10
574.1203089841001
 20
789.7744624917
 30
0
 11
574.2358089841001
 21
789.1744624917001
 31
0
  0
LINE
  8
1
 62
2
 10
573.8893089841001
 20
790.2244624917
 30
0
 11
574.1203089841001
 21
789.7744624917
 31
0
  0
LINE
  8
1
 62
2
 10
573.6583089841001
 20
790.5244624917
 30
0
 11
573.8893089841001
 21
790.2244624917
 31
0
  0
LINE
  8
1
 62
2
 10
573.3118089841
 20
790.8244624917001
 30
0
 11
573.6583089841001
 21
790.5244624917
 31
0
  0
LINE
  8
1
 62
2
 10
572.8498089841
 20
790.9744624917
 30
0
 11
573.3118089841
 21
790.8244624917001
 31
0
  0
LINE
  8
1
 62
2
 10
571.0018089841001
 20
790.9744624917
 30
0
 11
572.8498089841
 21
790.9744624917
 31
0
  0
LINE
  8
1
 62
2
 10
571.0018089841001
 20
784.9744624917
 30
0
 11
571.0018089841001
 21
790.9744624917
 31
0
  0
LINE
  8
1
 62
2
 10
572.8498089841
 20
784.9744624917
 30
0
 11
571.0018089841001
 21
784.9744624917
 31
0
  0
LINE
  8
1
 62
2
 10
573.3118089841
 20
785.1244624917
 30
0
 11
572.8498089841
 21
784.9744624917
 31
0
  0
LINE
  8
1
 62
2
 10
573.6583089841001
 20
785.4244624917001
 30
0
 11
573.3118089841
 21
785.1244624917
 31
0
  0
LINE
  8
1
 62
2
 10
573.8893089841001
 20
785.7244624917
 30
0
 11
573.6583089841001
 21
785.4244624917001
 31
0
  0
LINE
  8
1
 62
2
 10
574.1203089841001
 20
786.1744624917001
 30
0
 11
573.8893089841001
 21
785.7244624917
 31
0
  0
LINE
  8
1
 62
2
 10
574.2358089841001
 20
786.7744624917
 30
0
 11
574.1203089841001
 21
786.1744624917001
 31
0
  0
LINE
  8
1
 62
2
 10
574.2358089841001
 20
789.1744624917001
 30
0
 11
574.2358089841001
 21
786.7744624917
 31
0
  0
LINE
  8
1
 62
2
 10
633.4303660595
 20
795.5415283723
 30
0
 11
635.4686013536177
 21
795.5415283723
 31
0
  0
LINE
  8
1
 62
2
 10
634.6533072359706
 20
791.9415283723
 30
0
 11
635.4686013536177
 21
790.3415283723
 31
0
  0
LINE
  8
1
 62
2
 10
634.2456601771471
 20
794.1415283722999
 30
0
 11
634.6533072359706
 21
791.9415283723
 31
0
  0
LINE
  8
1
 62
2
 10
632.4791895889118
 20
794.1415283722999
 30
0
 11
634.2456601771471
 21
794.1415283722999
 31
0
  0
LINE
  8
1
 62
2
 10
632.4791895889118
 20
793.3415283723
 30
0
 11
631.3921307653824
 21
790.3415283723
 31
0
  0
LINE
  8
1
 62
2
 10
635.4686013536177
 20
795.5415283723
 30
0
 11
635.1968366477354
 21
794.1415283722999
 31
0
  0
LINE
  8
1
 62
2
 10
631.3921307653824
 20
795.5415283723
 30
0
 11
633.4303660595
 21
795.5415283723
 31
0
  0
LINE
  8
1
 62
2
 10
631.3921307653824
 20
794.1415283722999
 30
0
 11
631.3921307653824
 21
795.5415283723
 31
0
  0
LINE
  8
1
 62
2
 10
633.4303660595
 20
796.3415283723
 30
0
 11
633.4303660595
 21
795.5415283723
 31
0
  0
LINE
  8
1
 62
2
 10
627.4515425300883
 20
793.9415283723
 30
0
 11
627.4515425300883
 21
790.9415283723
 31
0
  0
LINE
  8
1
 62
2
 10
627.4515425300883
 20
793.9415283723
 30
0
 11
629.3538954712648
 21
792.7415283723
 31
0
  0
LINE
  8
1
 62
2
 10
627.4515425300883
 20
795.9415283723
 30
0
 11
627.4515425300883
 21
793.9415283723
 31
0
  0
LINE
  8
1
 62
2
 10
624.1903660595
 20
792.5415283723
 30
0
 11
624.4621307653824
 21
793.3415283723
 31
0
  0
LINE
  8
1
 62
2
 10
623.7827190006765
 20
791.7415283723
 30
0
 11
624.1903660595
 21
792.5415283723
 31
0
  0
LINE
  8
1
 62
2
 10
622.9674248830295
 20
791.3415283723
 30
0
 11
623.7827190006765
 21
791.7415283723
 31
0
  0
LINE
  8
1
 62
2
 10
622.9674248830295
 20
795.3415283723
 30
0
 11
622.9674248830295
 21
791.3415283723
 31
0
  0
LINE
  8
1
 62
2
 10
621.4727190006765
 20
792.1415283722999
 30
0
 11
620.7933072359706
 21
791.1415283722999
 31
0
  0
LINE
  8
1
 62
2
 10
621.7444837065589
 20
793.1415283722999
 30
0
 11
621.4727190006765
 21
792.1415283722999
 31
0
  0
LINE
  8
1
 62
2
 10
621.7444837065589
 20
795.1415283722999
 30
0
 11
621.7444837065589
 21
793.1415283722999
 31
0
  0
LINE
  8
1
 62
2
 10
618.8909542947943
 20
796.3415283723
 30
0
 11
619.1627190006766
 21
795.5415283723
 31
0
  0
LINE
  8
1
 62
2
 10
618.3474248830295
 20
796.3415283723
 30
0
 11
618.6191895889118
 21
795.5415283723
 31
0
  0
LINE
  8
1
 62
2
 10
618.2115425300883
 20
793.1415283722999
 30
0
 11
618.8909542947943
 21
791.3415283723
 31
0
  0
LINE
  8
1
 62
2
 10
616.1733072359707
 20
793.1415283722999
 30
0
 11
615.4938954712648
 21
791.3415283723
 31
0
  0
LINE
  8
1
 62
2
 10
617.2603660595
 20
795.9415283723
 30
0
 11
617.2603660595
 21
790.7415283723
 31
0
  0
LINE
  8
1
 62
2
 10
615.6297778242059
 20
794.5415283723
 30
0
 11
618.8909542947943
 21
794.5415283723
 31
0
  0
LINE
  8
1
 62
2
 10
614.4511215471235
 20
781.6565377933
 30
0
 11
614.0434744882999
 21
780.6565377933
 31
0
  0
LINE
  8
1
 62
2
 10
614.5870039000647
 20
782.8565377933001
 30
0
 11
614.4511215471235
 21
781.6565377933
 31
0
  0
LINE
  8
1
 62
2
 10
614.4511215471235
 20
784.0565377933001
 30
0
 11
614.5870039000647
 21
782.8565377933001
 31
0
  0
LINE
  8
1
 62
2
 10
614.0434744882999
 20
785.0565377933001
 30
0
 11
614.4511215471235
 21
784.0565377933001
 31
0
  0
LINE
  8
1
 62
2
 10
607.6570039000648
 20
784.6565377933
 30
0
 11
608.7440627235941
 21
784.6565377933
 31
0
  0
LINE
  8
1
 62
2
 10
607.6570039000648
 20
784.6565377933
 30
0
 11
607.6570039000648
 21
783.0565377933001
 31
0
  0
LINE
  8
1
 62
2
 10
608.4722980177118
 20
782.2565377933
 30
0
 11
608.8799450765354
 21
782.2565377933
 31
0
  0
LINE
  8
1
 62
2
 10
610.238768605947
 20
784.8565377933001
 30
0
 11
610.6464156647706
 21
784.8565377933001
 31
0
  0
LINE
  8
1
 62
2
 10
609.9670039000647
 20
781.2565377933
 30
0
 11
610.6464156647706
 21
780.0565377933001
 31
0
  0
LINE
  8
1
 62
2
 10
609.4234744883
 20
782.6565377933
 30
0
 11
609.9670039000647
 21
781.2565377933
 31
0
  0
LINE
  8
1
 62
2
 10
609.1517097824177
 20
784.2565377933
 30
0
 11
609.4234744883
 21
782.6565377933
 31
0
  0
LINE
  8
1
 62
2
 10
609.2875921353589
 20
781.2565377933
 30
0
 11
608.4722980177118
 21
779.8565377933001
 31
0
  0
LINE
  8
1
 62
2
 10
609.9670039000647
 20
782.8565377933001
 30
0
 11
609.2875921353589
 21
781.2565377933
 31
0
  0
LINE
  8
1
 62
2
 10
610.238768605947
 20
784.8565377933001
 30
0
 11
609.9670039000647
 21
782.8565377933001
 31
0
  0
LINE
  8
1
 62
2
 10
609.2875921353589
 20
784.8565377933001
 30
0
 11
610.238768605947
 21
784.8565377933001
 31
0
  0
LINE
  8
1
 62
2
 10
609.1517097824177
 20
784.2565377933
 30
0
 11
608.7440627235941
 21
783.0565377933001
 31
0
  0
LINE
  8
1
 62
2
 10
609.2875921353589
 20
784.8565377933001
 30
0
 11
609.1517097824177
 21
784.2565377933
 31
0
  0
LINE
  8
1
 62
2
 10
609.2875921353589
 20
785.8565377933001
 30
0
 11
609.2875921353589
 21
784.8565377933001
 31
0
  0
LINE
  8
1
 62
2
 10
606.5699450765353
 20
782.2565377933
 30
0
 11
608.4722980177118
 21
782.2565377933
 31
0
  0
LINE
  8
1
 62
2
 10
607.7928862530059
 20
780.8565377933001
 30
0
 11
606.7058274294765
 21
779.8565377933001
 31
0
  0
LINE
  8
1
 62
2
 10
608.4722980177118
 20
782.2565377933
 30
0
 11
607.7928862530059
 21
780.8565377933001
 31
0
  0
LINE
  8
1
 62
2
 10
606.8417097824176
 20
781.2565377933
 30
0
 11
608.4722980177118
 21
780.4565377933001
 31
0
  0
LINE
  8
1
 62
2
 10
607.5211215471236
 20
782.6565377933
 30
0
 11
606.8417097824176
 21
781.2565377933
 31
0
  0
LINE
  8
1
 62
2
 10
607.6570039000648
 20
784.6565377933
 30
0
 11
608.6081803706529
 21
783.2565377933
 31
0
  0
LINE
  8
1
 62
2
 10
607.6570039000648
 20
784.6565377933
 30
0
 11
606.5699450765353
 21
782.8565377933001
 31
0
  0
LINE
  8
1
 62
2
 10
607.6570039000648
 20
785.8565377933001
 30
0
 11
607.6570039000648
 21
784.6565377933
 31
0
  0
LINE
  8
1
 62
2
 10
606.5699450765353
 20
784.6565377933
 30
0
 11
607.6570039000648
 21
784.6565377933
 31
0
  0
LINE
  8
1
 62
2
 10
608.6081803706529
 20
785.4565377933001
 30
0
 11
608.0646509588883
 21
784.8565377933001
 31
0
  0
LINE
  8
1
 62
2
 10
606.8417097824176
 20
785.4565377933001
 30
0
 11
607.2493568412413
 21
784.8565377933001
 31
0
  0
LINE
  8
1
 62
2
 10
603.0370039000646
 20
781.6565377933
 30
0
 11
603.4446509588883
 21
780.6565377933
 31
0
  0
LINE
  8
1
 62
2
 10
602.9011215471235
 20
782.8565377933001
 30
0
 11
603.0370039000646
 21
781.6565377933
 31
0
  0
LINE
  8
1
 62
2
 10
603.0370039000646
 20
784.0565377933001
 30
0
 11
602.9011215471235
 21
782.8565377933001
 31
0
  0
LINE
  8
1
 62
2
 10
603.4446509588883
 20
785.0565377933001
 30
0
 11
603.0370039000646
 21
784.0565377933001
 31
0
  0
LINE
  8
1
 62
2
 10
596.7864156647706
 20
782.8565377933001
 30
0
 11
596.7864156647706
 21
779.6565377933
 31
0
  0
LINE
  8
1
 62
2
 10
598.6887686059471
 20
783.2565377933
 30
0
 11
598.6887686059471
 21
779.6565377933
 31
0
  0
LINE
  8
1
 62
2
 10
598.5528862530059
 20
783.6565377933
 30
0
 11
598.6887686059471
 21
783.2565377933
 31
0
  0
LINE
  8
1
 62
2
 10
598.1452391941824
 20
784.0565377933001
 30
0
 11
598.5528862530059
 21
783.6565377933
 31
0
  0
LINE
  8
1
 62
2
 10
597.8734744883
 20
784.0565377933001
 30
0
 11
598.1452391941824
 21
784.0565377933001
 31
0
  0
LINE
  8
1
 62
2
 10
597.1940627235941
 20
783.6565377933
 30
0
 11
597.8734744883
 21
784.0565377933001
 31
0
  0
LINE
  8
1
 62
2
 10
596.7864156647706
 20
782.8565377933001
 30
0
 11
597.1940627235941
 21
783.6565377933
 31
0
  0
LINE
  8
1
 62
2
 10
596.7864156647706
 20
784.0565377933001
 30
0
 11
596.7864156647706
 21
782.8565377933001
 31
0
  0
LINE
  8
1
 62
2
 10
650.4981204035249
 20
781.7412498925201
 30
0
 11
650.2105027564616
 21
781.0356943369534
 31
0
  0
LINE
  8
1
 62
2
 10
650.5939929525461
 20
782.5879165592
 30
0
 11
650.4981204035249
 21
781.7412498925201
 31
0
  0
LINE
  8
1
 62
2
 10
650.4981204035249
 20
783.43458322588
 30
0
 11
650.5939929525461
 21
782.5879165592
 31
0
  0
LINE
  8
1
 62
2
 10
650.2105027564616
 20
784.1401387814467
 30
0
 11
650.4981204035249
 21
783.43458322588
 31
0
  0
LINE
  8
1
 62
2
 10
645.3210027563846
 20
782.5879165592
 30
0
 11
645.1292576583423
 21
781.7412498925201
 31
0
  0
LINE
  8
1
 62
2
 10
646.7590909917013
 20
780.4712498925001
 30
0
 11
647.8136890309336
 21
780.4712498925001
 31
0
  0
LINE
  8
1
 62
2
 10
645.7044929524691
 20
780.4712498925001
 30
0
 11
646.7590909917013
 21
780.4712498925001
 31
0
  0
LINE
  8
1
 62
2
 10
646.7590909917013
 20
782.4468054480867
 30
0
 11
646.7590909917013
 21
780.4712498925001
 31
0
  0
LINE
  8
1
 62
2
 10
645.8003655014901
 20
781.7412498925201
 30
0
 11
647.7178164819125
 21
781.7412498925201
 31
0
  0
LINE
  8
1
 62
2
 10
647.1425811877858
 20
782.8701387814267
 30
0
 11
647.8136890309336
 21
782.5879165592
 31
0
  0
LINE
  8
1
 62
2
 10
646.471473344638
 20
783.43458322588
 30
0
 11
647.1425811877858
 21
782.8701387814267
 31
0
  0
LINE
  8
1
 62
2
 10
645.9921105995323
 20
784.28124989256
 30
0
 11
646.471473344638
 21
783.43458322588
 31
0
  0
LINE
  8
1
 62
2
 10
646.5673458936591
 20
783.01124989254
 30
0
 11
645.7044929524691
 21
782.5879165592
 31
0
  0
LINE
  8
1
 62
2
 10
647.238453736807
 20
783.7168054481067
 30
0
 11
646.5673458936591
 21
783.01124989254
 31
0
  0
LINE
  8
1
 62
2
 10
647.6219439328913
 20
784.5634721147867
 30
0
 11
647.238453736807
 21
783.7168054481067
 31
0
  0
LINE
  8
1
 62
2
 10
645.8962380505112
 20
784.5634721147867
 30
0
 11
647.6219439328913
 21
784.5634721147867
 31
0
  0
LINE
  8
1
 62
2
 10
645.3210027563846
 20
782.5879165592
 30
0
 11
645.3210027563846
 21
780.4712498925001
 31
0
  0
LINE
  8
1
 62
2
 10
645.5127478544268
 20
783.43458322588
 30
0
 11
645.3210027563846
 21
782.5879165592
 31
0
  0
LINE
  8
1
 62
2
 10
645.5127478544268
 20
784.5634721147867
 30
0
 11
645.1292576583423
 21
783.43458322588
 31
0
  0
LINE
  8
1
 62
2
 10
642.5406988347721
 20
784.1401387814467
 30
0
 11
643.9787870700889
 21
784.1401387814467
 31
0
  0
LINE
  8
1
 62
2
 10
643.4035517759622
 20
781.6001387814067
 30
0
 11
643.9787870700889
 21
780.4712498925001
 31
0
  0
LINE
  8
1
 62
2
 10
643.1159341288989
 20
783.1523610036534
 30
0
 11
643.4035517759622
 21
781.6001387814067
 31
0
  0
LINE
  8
1
 62
2
 10
641.8695909916244
 20
783.1523610036534
 30
0
 11
643.1159341288989
 21
783.1523610036534
 31
0
  0
LINE
  8
1
 62
2
 10
641.8695909916244
 20
782.5879165592
 30
0
 11
641.1026105994554
 21
780.4712498925001
 31
0
  0
LINE
  8
1
 62
2
 10
643.9787870700889
 20
784.1401387814467
 30
0
 11
643.7870419720466
 21
783.1523610036534
 31
0
  0
LINE
  8
1
 62
2
 10
641.1026105994554
 20
784.1401387814467
 30
0
 11
642.5406988347721
 21
784.1401387814467
 31
0
  0
LINE
  8
1
 62
2
 10
641.1026105994554
 20
783.1523610036534
 30
0
 11
641.1026105994554
 21
784.1401387814467
 31
0
  0
LINE
  8
1
 62
2
 10
642.5406988347721
 20
784.7045832259
 30
0
 11
642.5406988347721
 21
784.1401387814467
 31
0
  0
LINE
  8
1
 62
2
 10
638.6099243249063
 20
781.7412498925201
 30
0
 11
638.8975419719696
 21
781.0356943369534
 31
0
  0
LINE
  8
1
 62
2
 10
638.5140517758852
 20
782.5879165592
 30
0
 11
638.6099243249063
 21
781.7412498925201
 31
0
  0
LINE
  8
1
 62
2
 10
638.6099243249063
 20
783.43458322588
 30
0
 11
638.5140517758852
 21
782.5879165592
 31
0
  0
LINE
  8
1
 62
2
 10
638.8975419719696
 20
784.1401387814467
 30
0
 11
638.6099243249063
 21
783.43458322588
 31
0
  0
LINE
  8
1
 62
2
 10
635.5420027562305
 20
782.8701387814267
 30
0
 11
635.5420027562305
 21
781.1768054480667
 31
0
  0
LINE
  8
1
 62
2
 10
635.5420027562305
 20
781.1768054480667
 30
0
 11
635.5420027562305
 21
780.4712498925001
 31
0
  0
LINE
  8
1
 62
2
 10
635.2543851091672
 20
780.6123610036134
 30
0
 11
635.5420027562305
 21
781.1768054480667
 31
0
  0
LINE
  8
1
 62
2
 10
634.8708949130827
 20
780.4712498925001
 30
0
 11
635.2543851091672
 21
780.6123610036134
 31
0
  0
LINE
  8
1
 62
2
 10
634.4874047169982
 20
780.6123610036134
 30
0
 11
634.8708949130827
 21
780.4712498925001
 31
0
  0
LINE
  8
1
 62
2
 10
634.1997870699349
 20
781.3179165591801
 30
0
 11
634.4874047169982
 21
780.6123610036134
 31
0
  0
LINE
  8
1
 62
2
 10
634.1039145209138
 20
781.8823610036334
 30
0
 11
634.1997870699349
 21
781.3179165591801
 31
0
  0
LINE
  8
1
 62
2
 10
634.1997870699349
 20
782.7290276703134
 30
0
 11
634.1039145209138
 21
781.8823610036334
 31
0
  0
LINE
  8
1
 62
2
 10
634.4874047169982
 20
783.2934721147667
 30
0
 11
634.1997870699349
 21
782.7290276703134
 31
0
  0
LINE
  8
1
 62
2
 10
634.8708949130827
 20
783.5756943369934
 30
0
 11
634.4874047169982
 21
783.2934721147667
 31
0
  0
LINE
  8
1
 62
2
 10
635.2543851091672
 20
783.2934721147667
 30
0
 11
634.8708949130827
 21
783.5756943369934
 31
0
  0
LINE
  8
1
 62
2
 10
635.5420027562305
 20
782.8701387814267
 30
0
 11
635.2543851091672
 21
783.2934721147667
 31
0
  0
LINE
  8
1
 62
2
 10
635.5420027562305
 20
784.7045832259
 30
0
 11
635.5420027562305
 21
782.8701387814267
 31
0
  0
LINE
  8
1
 62
2
 10
631.035992952238
 20
784.1401387814467
 30
0
 11
631.5153556973436
 21
784.1401387814467
 31
0
  0
LINE
  8
1
 62
2
 10
631.035992952238
 20
780.7534721147267
 30
0
 11
631.5153556973436
 21
780.7534721147267
 31
0
  0
LINE
  8
1
 62
2
 10
630.5566302071323
 20
780.7534721147267
 30
0
 11
631.035992952238
 21
780.7534721147267
 31
0
  0
LINE
  8
1
 62
2
 10
631.035992952238
 20
784.1401387814467
 30
0
 11
631.035992952238
 21
780.7534721147267
 31
0
  0
LINE
  8
1
 62
2
 10
629.9813949130057
 20
783.2934721147667
 30
0
 11
630.3648851090902
 21
783.43458322588
 31
0
  0
LINE
  8
1
 62
2
 10
629.7896498149635
 20
782.8701387814267
 30
0
 11
629.9813949130057
 21
783.2934721147667
 31
0
  0
LINE
  8
1
 62
2
 10
629.6937772659423
 20
782.4468054480867
 30
0
 11
629.7896498149635
 21
782.8701387814267
 31
0
  0
LINE
  8
1
 62
2
 10
629.7896498149635
 20
782.0234721147467
 30
0
 11
629.6937772659423
 21
782.4468054480867
 31
0
  0
LINE
  8
1
 62
2
 10
630.0772674620268
 20
781.6001387814067
 30
0
 11
629.7896498149635
 21
782.0234721147467
 31
0
  0
LINE
  8
1
 62
2
 10
630.3648851090902
 20
781.4590276702934
 30
0
 11
630.0772674620268
 21
781.6001387814067
 31
0
  0
LINE
  8
1
 62
2
 10
631.7071007953858
 20
781.4590276702934
 30
0
 11
630.3648851090902
 21
781.4590276702934
 31
0
  0
LINE
  8
1
 62
2
 10
632.0905909914703
 20
781.6001387814067
 30
0
 11
631.7071007953858
 21
781.4590276702934
 31
0
  0
LINE
  8
1
 62
2
 10
632.2823360895125
 20
782.0234721147467
 30
0
 11
632.0905909914703
 21
781.6001387814067
 31
0
  0
LINE
  8
1
 62
2
 10
632.3782086385336
 20
782.4468054480867
 30
0
 11
632.2823360895125
 21
782.0234721147467
 31
0
  0
LINE
  8
1
 62
2
 10
632.2823360895125
 20
782.8701387814267
 30
0
 11
632.3782086385336
 21
782.4468054480867
 31
0
  0
LINE
  8
1
 62
2
 10
632.0905909914703
 20
783.2934721147667
 30
0
 11
632.2823360895125
 21
782.8701387814267
 31
0
  0
LINE
  8
1
 62
2
 10
631.7071007953858
 20
783.43458322588
 30
0
 11
632.0905909914703
 21
783.2934721147667
 31
0
  0
LINE
  8
1
 62
2
 10
630.3648851090902
 20
783.43458322588
 30
0
 11
631.7071007953858
 21
783.43458322588
 31
0
  0
LINE
  8
1
 62
2
 10
630.5566302071323
 20
784.1401387814467
 30
0
 11
631.035992952238
 21
784.1401387814467
 31
0
  0
LINE
  8
1
 62
2
 10
470.0095579000059
 20
774.8894717224999
 30
0
 11
470.0095579000059
 21
769.2894717224999
 31
0
  0
LINE
  8
1
 62
2
 10
471.2324990764765
 20
771.0894717225
 30
0
 11
472.1836755470648
 21
769.6894717225
 31
0
  0
LINE
  8
1
 62
2
 10
470.5530873117706
 20
772.6894717225
 30
0
 11
471.2324990764765
 21
771.0894717225
 31
0
  0
LINE
  8
1
 62
2
 10
470.0095579000059
 20
774.8894717224999
 30
0
 11
470.5530873117706
 21
772.6894717225
 31
0
  0
LINE
  8
1
 62
2
 10
471.9119108411824
 20
774.8894717224999
 30
0
 11
470.824852017653
 21
772.8894717224999
 31
0
  0
LINE
  8
1
 62
2
 10
468.7866167235353
 20
771.2894717224999
 30
0
 11
467.9713226058883
 21
769.8894717224999
 31
0
  0
LINE
  8
1
 62
2
 10
469.1942637823589
 20
772.6894717225
 30
0
 11
468.7866167235353
 21
771.2894717224999
 31
0
  0
LINE
  8
1
 62
2
 10
469.3301461353
 20
774.2894717224999
 30
0
 11
469.1942637823589
 21
772.6894717225
 31
0
  0
LINE
  8
1
 62
2
 10
467.9713226058883
 20
774.2894717224999
 30
0
 11
469.3301461353
 21
774.2894717224999
 31
0
  0
LINE
  8
1
 62
2
 10
470.0095579000059
 20
769.2894717224999
 30
0
 11
469.0583814294177
 21
770.0894717225
 31
0
  0
LINE
  8
1
 62
2
 10
470.0095579000059
 20
775.4894717225
 30
0
 11
470.0095579000059
 21
774.8894717224999
 31
0
  0
LINE
  8
1
 62
2
 10
464.1666167235353
 20
773.4894717225
 30
0
 11
464.1666167235353
 21
769.4894717225
 31
0
  0
LINE
  8
1
 62
2
 10
464.1666167235353
 20
769.4894717225
 30
0
 11
466.6124990764765
 21
769.4894717225
 31
0
  0
LINE
  8
1
 62
2
 10
462.5360284882412
 20
769.4894717225
 30
0
 11
464.1666167235353
 21
769.4894717225
 31
0
  0
LINE
  8
1
 62
2
 10
464.1666167235353
 20
775.2894717224999
 30
0
 11
464.1666167235353
 21
773.4894717225
 31
0
  0
LINE
  8
1
 62
2
 10
464.1666167235353
 20
773.4894717225
 30
0
 11
466.3407343705941
 21
773.4894717225
 31
0
  0
LINE
  8
1
 62
2
 10
507.4986446243001
 20
775.4894717225
 30
0
 11
507.4986446243001
 21
769.4894717225
 31
0
  0
LINE
  8
1
 62
2
 10
506.1126446243001
 20
773.6894717225
 30
0
 11
507.4986446243001
 21
775.4894717225
 31
0
  0
LINE
  8
1
 62
2
 10
504.7266446243002
 20
775.4894717225
 30
0
 11
504.7266446243002
 21
769.4894717225
 31
0
  0
LINE
  8
1
 62
2
 10
503.3406446243001
 20
773.6894717225
 30
0
 11
504.7266446243002
 21
775.4894717225
 31
0
  0
LINE
  8
1
 62
2
 10
499.1826446243001
 20
769.4894717225
 30
0
 11
501.9546446243001
 21
769.4894717225
 31
0
  0
LINE
  8
1
 62
2
 10
501.7236446243001
 20
773.3894717224999
 30
0
 11
499.1826446243001
 21
769.4894717225
 31
0
  0
LINE
  8
1
 62
2
 10
501.9546446243001
 20
773.9894717225
 30
0
 11
501.7236446243001
 21
773.3894717224999
 31
0
  0
LINE
  8
1
 62
2
 10
501.9546446243001
 20
774.5894717225
 30
0
 11
501.9546446243001
 21
773.9894717225
 31
0
  0
LINE
  8
1
 62
2
 10
501.7236446243001
 20
775.0394717224999
 30
0
 11
501.9546446243001
 21
774.5894717225
 31
0
  0
LINE
  8
1
 62
2
 10
501.3771446243001
 20
775.3394717225
 30
0
 11
501.7236446243001
 21
775.0394717224999
 31
0
  0
LINE
  8
1
 62
2
 10
500.9151446243001
 20
775.4894717225
 30
0
 11
501.3771446243001
 21
775.3394717225
 31
0
  0
LINE
  8
1
 62
2
 10
500.2221446243001
 20
775.4894717225
 30
0
 11
500.9151446243001
 21
775.4894717225
 31
0
  0
LINE
  8
1
 62
2
 10
499.7601446243001
 20
775.3394717225
 30
0
 11
500.2221446243001
 21
775.4894717225
 31
0
  0
LINE
  8
1
 62
2
 10
499.4136446243001
 20
775.0394717224999
 30
0
 11
499.7601446243001
 21
775.3394717225
 31
0
  0
LINE
  8
1
 62
2
 10
499.1826446243001
 20
774.5894717225
 30
0
 11
499.4136446243001
 21
775.0394717224999
 31
0
  0
LINE
  8
1
 62
2
 10
541.6113100295
 20
775.0394717224999
 30
0
 11
541.9578100295
 21
775.3394717225
 31
0
  0
LINE
  8
1
 62
2
 10
541.3803100295
 20
774.5894717225
 30
0
 11
541.6113100295
 21
775.0394717224999
 31
0
  0
LINE
  8
1
 62
2
 10
541.3803100295
 20
773.9894717225
 30
0
 11
541.3803100295
 21
774.5894717225
 31
0
  0
LINE
  8
1
 62
2
 10
541.6113100295
 20
773.5394717224999
 30
0
 11
541.3803100295
 21
773.9894717225
 31
0
  0
LINE
  8
1
 62
2
 10
541.9578100295
 20
773.2394717225
 30
0
 11
541.6113100295
 21
773.5394717224999
 31
0
  0
LINE
  8
1
 62
2
 10
542.3043100295
 20
773.0894717225
 30
0
 11
541.9578100295
 21
773.2394717225
 31
0
  0
LINE
  8
1
 62
2
 10
542.7663100295
 20
773.0894717225
 30
0
 11
542.3043100295
 21
773.0894717225
 31
0
  0
LINE
  8
1
 62
2
 10
543.1128100295
 20
773.2394717225
 30
0
 11
542.7663100295
 21
773.0894717225
 31
0
  0
LINE
  8
1
 62
2
 10
543.4593100295
 20
773.5394717224999
 30
0
 11
543.1128100295
 21
773.2394717225
 31
0
  0
LINE
  8
1
 62
2
 10
543.6903100295001
 20
773.9894717225
 30
0
 11
543.4593100295
 21
773.5394717224999
 31
0
  0
LINE
  8
1
 62
2
 10
543.6903100295001
 20
774.5894717225
 30
0
 11
543.6903100295001
 21
773.9894717225
 31
0
  0
LINE
  8
1
 62
2
 10
543.4593100295
 20
775.0394717224999
 30
0
 11
543.6903100295001
 21
774.5894717225
 31
0
  0
LINE
  8
1
 62
2
 10
543.1128100295
 20
775.3394717225
 30
0
 11
543.4593100295
 21
775.0394717224999
 31
0
  0
LINE
  8
1
 62
2
 10
542.7663100295
 20
775.4894717225
 30
0
 11
543.1128100295
 21
775.3394717225
 31
0
  0
LINE
  8
1
 62
2
 10
542.3043100295
 20
775.4894717225
 30
0
 11
542.7663100295
 21
775.4894717225
 31
0
  0
LINE
  8
1
 62
2
 10
541.9578100295
 20
775.3394717225
 30
0
 11
542.3043100295
 21
775.4894717225
 31
0
  0
LINE
  8
1
 62
2
 10
543.3438100295
 20
772.7894717224999
 30
0
 11
542.7663100295
 21
773.0894717225
 31
0
  0
LINE
  8
1
 62
2
 10
543.6903100295001
 20
772.3394717225
 30
0
 11
543.3438100295
 21
772.7894717224999
 31
0
  0
LINE
  8
1
 62
2
 10
543.9213100295001
 20
771.7394717225
 30
0
 11
543.6903100295001
 21
772.3394717225
 31
0
  0
LINE
  8
1
 62
2
 10
543.9213100295001
 20
770.8394717225
 30
0
 11
543.9213100295001
 21
771.7394717225
 31
0
  0
LINE
  8
1
 62
2
 10
543.6903100295001
 20
770.2394717225
 30
0
 11
543.9213100295001
 21
770.8394717225
 31
0
  0
LINE
  8
1
 62
2
 10
543.3438100295
 20
769.7894717224999
 30
0
 11
543.6903100295001
 21
770.2394717225
 31
0
  0
LINE
  8
1
 62
2
 10
542.8818100295
 20
769.4894717225
 30
0
 11
543.3438100295
 21
769.7894717224999
 31
0
  0
LINE
  8
1
 62
2
 10
542.1888100295
 20
769.4894717225
 30
0
 11
542.8818100295
 21
769.4894717225
 31
0
  0
LINE
  8
1
 62
2
 10
541.7268100295
 20
769.7894717224999
 30
0
 11
542.1888100295
 21
769.4894717225
 31
0
  0
LINE
  8
1
 62
2
 10
541.3803100295
 20
770.2394717225
 30
0
 11
541.7268100295
 21
769.7894717224999
 31
0
  0
LINE
  8
1
 62
2
 10
541.1493100295
 20
770.8394717225
 30
0
 11
541.3803100295
 21
770.2394717225
 31
0
  0
LINE
  8
1
 62
2
 10
541.1493100295
 20
771.7394717225
 30
0
 11
541.1493100295
 21
770.8394717225
 31
0
  0
LINE
  8
1
 62
2
 10
541.3803100295
 20
772.3394717225
 30
0
 11
541.1493100295
 21
771.7394717225
 31
0
  0
LINE
  8
1
 62
2
 10
541.7268100295
 20
772.7894717224999
 30
0
 11
541.3803100295
 21
772.3394717225
 31
0
  0
LINE
  8
1
 62
2
 10
542.3043100295
 20
773.0894717225
 30
0
 11
541.7268100295
 21
772.7894717224999
 31
0
  0
LINE
  8
1
 62
2
 10
537.7998100295001
 20
774.1394717224999
 30
0
 11
539.0703100295001
 21
775.4894717225
 31
0
  0
LINE
  8
1
 62
2
 10
537.3378100295001
 20
773.3894717224999
 30
0
 11
537.7998100295001
 21
774.1394717224999
 31
0
  0
LINE
  8
1
 62
2
 10
537.1068100295001
 20
772.7894717224999
 30
0
 11
537.3378100295001
 21
773.3894717224999
 31
0
  0
LINE
  8
1
 62
2
 10
536.9913100295001
 20
771.5894717225
 30
0
 11
537.1068100295001
 21
772.7894717224999
 31
0
  0
LINE
  8
1
 62
2
 10
536.9913100295001
 20
770.9894717225
 30
0
 11
536.9913100295001
 21
771.5894717225
 31
0
  0
LINE
  8
1
 62
2
 10
537.1068100295001
 20
770.3894717224999
 30
0
 11
536.9913100295001
 21
770.9894717225
 31
0
  0
LINE
  8
1
 62
2
 10
537.3378100295001
 20
769.9394717225
 30
0
 11
537.1068100295001
 21
770.3894717224999
 31
0
  0
LINE
  8
1
 62
2
 10
537.6843100295001
 20
769.6394717224999
 30
0
 11
537.3378100295001
 21
769.9394717225
 31
0
  0
LINE
  8
1
 62
2
 10
538.0308100295001
 20
769.4894717225
 30
0
 11
537.6843100295001
 21
769.6394717224999
 31
0
  0
LINE
  8
1
 62
2
 10
538.7238100295001
 20
769.4894717225
 30
0
 11
538.0308100295001
 21
769.4894717225
 31
0
  0
LINE
  8
1
 62
2
 10
539.0703100295001
 20
769.6394717224999
 30
0
 11
538.7238100295001
 21
769.4894717225
 31
0
  0
LINE
  8
1
 62
2
 10
539.4168100295002
 20
769.9394717225
 30
0
 11
539.0703100295001
 21
769.6394717224999
 31
0
  0
LINE
  8
1
 62
2
 10
539.6478100295002
 20
770.3894717224999
 30
0
 11
539.4168100295002
 21
769.9394717225
 31
0
  0
LINE
  8
1
 62
2
 10
539.7633100295002
 20
770.9894717225
 30
0
 11
539.6478100295002
 21
770.3894717224999
 31
0
  0
LINE
  8
1
 62
2
 10
539.7633100295002
 20
771.5894717225
 30
0
 11
539.7633100295002
 21
770.9894717225
 31
0
  0
LINE
  8
1
 62
2
 10
539.6478100295002
 20
772.1894717225
 30
0
 11
539.7633100295002
 21
771.5894717225
 31
0
  0
LINE
  8
1
 62
2
 10
539.4168100295002
 20
772.6394717224999
 30
0
 11
539.6478100295002
 21
772.1894717225
 31
0
  0
LINE
  8
1
 62
2
 10
539.0703100295001
 20
772.9394717225
 30
0
 11
539.4168100295002
 21
772.6394717224999
 31
0
  0
LINE
  8
1
 62
2
 10
538.7238100295001
 20
773.0894717225
 30
0
 11
539.0703100295001
 21
772.9394717225
 31
0
  0
LINE
  8
1
 62
2
 10
538.0308100295001
 20
773.0894717225
 30
0
 11
538.7238100295001
 21
773.0894717225
 31
0
  0
LINE
  8
1
 62
2
 10
537.6843100295001
 20
772.9394717225
 30
0
 11
538.0308100295001
 21
773.0894717225
 31
0
  0
LINE
  8
1
 62
2
 10
537.3378100295001
 20
772.6394717224999
 30
0
 11
537.6843100295001
 21
772.9394717225
 31
0
  0
LINE
  8
1
 62
2
 10
537.1068100295001
 20
772.1894717225
 30
0
 11
537.3378100295001
 21
772.6394717224999
 31
0
  0
LINE
  8
1
 62
2
 10
536.9913100295001
 20
771.5894717225
 30
0
 11
537.1068100295001
 21
772.1894717225
 31
0
  0
LINE
  8
1
 62
2
 10
535.6053100295001
 20
775.4894717225
 30
0
 11
535.6053100295001
 21
769.4894717225
 31
0
  0
LINE
  8
1
 62
2
 10
534.2193100295001
 20
773.6894717225
 30
0
 11
535.6053100295001
 21
775.4894717225
 31
0
  0
LINE
  8
1
 62
2
 10
577.9184754344999
 20
769.4894717225
 30
0
 11
576.1859754344999
 21
769.4894717225
 31
0
  0
LINE
  8
1
 62
2
 10
578.2649754344999
 20
769.6394717224999
 30
0
 11
577.9184754344999
 21
769.4894717225
 31
0
  0
LINE
  8
1
 62
2
 10
578.6114754345
 20
769.9394717225
 30
0
 11
578.2649754344999
 21
769.6394717224999
 31
0
  0
LINE
  8
1
 62
2
 10
578.8424754345
 20
770.3894717224999
 30
0
 11
578.6114754345
 21
769.9394717225
 31
0
  0
LINE
  8
1
 62
2
 10
578.9579754345
 20
770.9894717225
 30
0
 11
578.8424754345
 21
770.3894717224999
 31
0
  0
LINE
  8
1
 62
2
 10
578.9579754345
 20
771.8894717224999
 30
0
 11
578.9579754345
 21
770.9894717225
 31
0
  0
LINE
  8
1
 62
2
 10
578.8424754345
 20
772.4894717225
 30
0
 11
578.9579754345
 21
771.8894717224999
 31
0
  0
LINE
  8
1
 62
2
 10
578.4959754344999
 20
772.9394717225
 30
0
 11
578.8424754345
 21
772.4894717225
 31
0
  0
LINE
  8
1
 62
2
 10
577.9184754344999
 20
773.0894717225
 30
0
 11
578.4959754344999
 21
772.9394717225
 31
0
  0
LINE
  8
1
 62
2
 10
576.1859754344999
 20
773.0894717225
 30
0
 11
577.9184754344999
 21
773.0894717225
 31
0
  0
LINE
  8
1
 62
2
 10
576.1859754344999
 20
775.4894717225
 30
0
 11
576.1859754344999
 21
773.0894717225
 31
0
  0
LINE
  8
1
 62
2
 10
578.7269754345
 20
775.4894717225
 30
0
 11
576.1859754344999
 21
775.4894717225
 31
0
  0
LINE
  8
1
 62
2
 10
572.0279754345
 20
769.4894717225
 30
0
 11
574.7999754345001
 21
769.4894717225
 31
0
  0
LINE
  8
1
 62
2
 10
574.5689754345001
 20
773.3894717224999
 30
0
 11
572.0279754345
 21
769.4894717225
 31
0
  0
LINE
  8
1
 62
2
 10
574.7999754345001
 20
773.9894717225
 30
0
 11
574.5689754345001
 21
773.3894717224999
 31
0
  0
LINE
  8
1
 62
2
 10
574.7999754345001
 20
774.5894717225
 30
0
 11
574.7999754345001
 21
773.9894717225
 31
0
  0
LINE
  8
1
 62
2
 10
574.5689754345001
 20
775.0394717224999
 30
0
 11
574.7999754345001
 21
774.5894717225
 31
0
  0
LINE
  8
1
 62
2
 10
574.2224754345
 20
775.3394717225
 30
0
 11
574.5689754345001
 21
775.0394717224999
 31
0
  0
LINE
  8
1
 62
2
 10
573.7604754345
 20
775.4894717225
 30
0
 11
574.2224754345
 21
775.3394717225
 31
0
  0
LINE
  8
1
 62
2
 10
573.0674754345
 20
775.4894717225
 30
0
 11
573.7604754345
 21
775.4894717225
 31
0
  0
LINE
  8
1
 62
2
 10
572.6054754345
 20
775.3394717225
 30
0
 11
573.0674754345
 21
775.4894717225
 31
0
  0
LINE
  8
1
 62
2
 10
572.2589754345
 20
775.0394717224999
 30
0
 11
572.6054754345
 21
775.3394717225
 31
0
  0
LINE
  8
1
 62
2
 10
572.0279754345
 20
774.5894717225
 30
0
 11
572.2589754345
 21
775.0394717224999
 31
0
  0
LINE
  8
1
 62
2
 10
570.6419754345
 20
775.4894717225
 30
0
 11
570.6419754345
 21
769.4894717225
 31
0
  0
LINE
  8
1
 62
2
 10
569.2559754345
 20
773.6894717225
 30
0
 11
570.6419754345
 21
775.4894717225
 31
0
  0
LINE
  8
1
 62
2
 10
609.8633077058998
 20
771.8894717224999
 30
0
 11
609.8633077058998
 21
769.4894717225
 31
0
  0
LINE
  8
1
 62
2
 10
607.7843077058999
 20
770.6894717225
 30
0
 11
610.5563077058999
 21
770.6894717225
 31
0
  0
LINE
  8
1
 62
2
 10
609.8633077058998
 20
775.4894717225
 30
0
 11
607.7843077058999
 21
770.6894717225
 31
0
  0
LINE
  8
1
 62
2
 10
647.1016986629001
 20
770.0894717225
 30
0
 11
646.0621986629001
 21
769.4894717225
 31
0
  0
LINE
  8
1
 62
2
 10
647.9101986629
 20
770.9894717225
 30
0
 11
647.1016986629001
 21
770.0894717225
 31
0
  0
LINE
  8
1
 62
2
 10
648.2566986629001
 20
771.5894717225
 30
0
 11
647.9101986629
 21
770.9894717225
 31
0
  0
LINE
  8
1
 62
2
 10
648.3721986629001
 20
772.1894717225
 30
0
 11
648.2566986629001
 21
771.5894717225
 31
0
  0
LINE
  8
1
 62
2
 10
648.4876986629001
 20
772.9394717225
 30
0
 11
648.3721986629001
 21
772.1894717225
 31
0
  0
LINE
  8
1
 62
2
 10
648.4876986629001
 20
773.9894717225
 30
0
 11
648.4876986629001
 21
772.9394717225
 31
0
  0
LINE
  8
1
 62
2
 10
648.3721986629001
 20
774.5894717225
 30
0
 11
648.4876986629001
 21
773.9894717225
 31
0
  0
LINE
  8
1
 62
2
 10
648.1411986629001
 20
775.0394717224999
 30
0
 11
648.3721986629001
 21
774.5894717225
 31
0
  0
LINE
  8
1
 62
2
 10
647.7946986629
 20
775.3394717225
 30
0
 11
648.1411986629001
 21
775.0394717224999
 31
0
  0
LINE
  8
1
 62
2
 10
647.4481986629
 20
775.4894717225
 30
0
 11
647.7946986629
 21
775.3394717225
 31
0
  0
LINE
  8
1
 62
2
 10
646.7551986629001
 20
775.4894717225
 30
0
 11
647.4481986629
 21
775.4894717225
 31
0
  0
LINE
  8
1
 62
2
 10
646.4086986629001
 20
775.3394717225
 30
0
 11
646.7551986629001
 21
775.4894717225
 31
0
  0
LINE
  8
1
 62
2
 10
646.0621986629001
 20
775.0394717224999
 30
0
 11
646.4086986629001
 21
775.3394717225
 31
0
  0
LINE
  8
1
 62
2
 10
645.8311986629001
 20
774.5894717225
 30
0
 11
646.0621986629001
 21
775.0394717224999
 31
0
  0
LINE
  8
1
 62
2
 10
645.7156986629001
 20
773.9894717225
 30
0
 11
645.8311986629001
 21
774.5894717225
 31
0
  0
LINE
  8
1
 62
2
 10
645.7156986629001
 20
773.6894717225
 30
0
 11
645.7156986629001
 21
773.9894717225
 31
0
  0
LINE
  8
1
 62
2
 10
645.8311986629001
 20
773.0894717225
 30
0
 11
645.7156986629001
 21
773.6894717225
 31
0
  0
LINE
  8
1
 62
2
 10
646.0621986629001
 20
772.6394717224999
 30
0
 11
645.8311986629001
 21
773.0894717225
 31
0
  0
LINE
  8
1
 62
2
 10
646.4086986629001
 20
772.3394717225
 30
0
 11
646.0621986629001
 21
772.6394717224999
 31
0
  0
LINE
  8
1
 62
2
 10
646.7551986629001
 20
772.1894717225
 30
0
 11
646.4086986629001
 21
772.3394717225
 31
0
  0
LINE
  8
1
 62
2
 10
648.3721986629001
 20
772.1894717225
 30
0
 11
646.7551986629001
 21
772.1894717225
 31
0
  0
LINE
  8
1
 62
2
 10
644.3296986629
 20
775.4894717225
 30
0
 11
644.3296986629
 21
769.4894717225
 31
0
  0
LINE
  8
1
 62
2
 10
642.9436986629
 20
773.6894717225
 30
0
 11
644.3296986629
 21
775.4894717225
 31
0
  0
LINE
  8
1
 62
2
 10
475.0784799673
 20
761.2894713426999
 30
0
 11
475.0784799673
 21
765.4894713427
 31
0
  0
LINE
  8
1
 62
2
 10
475.0784799673
 20
759.4894713427
 30
0
 11
475.0784799673
 21
761.2894713426999
 31
0
  0
LINE
  8
1
 62
2
 10
476.0024799673
 20
762.4894713427
 30
0
 11
478.3124799673
 21
759.4894713427
 31
0
  0
LINE
  8
1
 62
2
 10
478.3124799673
 20
765.4894713427
 30
0
 11
476.0024799673
 21
762.4894713427
 31
0
  0
LINE
  8
1
 62
2
 10
476.0024799673
 20
762.4894713427
 30
0
 11
475.0784799673
 21
761.2894713426999
 31
0
  0
LINE
  8
1
 62
2
 10
473.6924799673
 20
763.2394713427
 30
0
 11
473.6924799673
 21
761.7394713427
 31
0
  0
LINE
  8
1
 62
2
 10
473.5769799673
 20
764.1394713427
 30
0
 11
473.6924799673
 21
763.2394713427
 31
0
  0
LINE
  8
1
 62
2
 10
473.3459799673
 20
764.7394713427
 30
0
 11
473.5769799673
 21
764.1394713427
 31
0
  0
LINE
  8
1
 62
2
 10
473.1149799673
 20
765.0394713426999
 30
0
 11
473.3459799673
 21
764.7394713427
 31
0
  0
LINE
  8
1
 62
2
 10
472.7684799673
 20
765.3394713427
 30
0
 11
473.1149799673
 21
765.0394713426999
 31
0
  0
LINE
  8
1
 62
2
 10
472.4219799673001
 20
765.4894713427
 30
0
 11
472.7684799673
 21
765.3394713427
 31
0
  0
LINE
  8
1
 62
2
 10
472.1909799673001
 20
765.4894713427
 30
0
 11
472.4219799673001
 21
765.4894713427
 31
0
  0
LINE
  8
1
 62
2
 10
471.8444799673
 20
765.3394713427
 30
0
 11
472.1909799673001
 21
765.4894713427
 31
0
  0
LINE
  8
1
 62
2
 10
471.4979799673
 20
765.0394713426999
 30
0
 11
471.8444799673
 21
765.3394713427
 31
0
  0
LINE
  8
1
 62
2
 10
471.2669799673
 20
764.7394713427
 30
0
 11
471.4979799673
 21
765.0394713426999
 31
0
  0
LINE
  8
1
 62
2
 10
471.0359799673
 20
764.1394713427
 30
0
 11
471.2669799673
 21
764.7394713427
 31
0
  0
LINE
  8
1
 62
2
 10
470.9204799673
 20
763.2394713427
 30
0
 11
471.0359799673
 21
764.1394713427
 31
0
  0
LINE
  8
1
 62
2
 10
470.9204799673
 20
761.7394713427
 30
0
 11
470.9204799673
 21
763.2394713427
 31
0
  0
LINE
  8
1
 62
2
 10
471.0359799673
 20
760.8394713427
 30
0
 11
470.9204799673
 21
761.7394713427
 31
0
  0
LINE
  8
1
 62
2
 10
471.2669799673
 20
760.2394713427
 30
0
 11
471.0359799673
 21
760.8394713427
 31
0
  0
LINE
  8
1
 62
2
 10
471.4979799673
 20
759.9394713427
 30
0
 11
471.2669799673
 21
760.2394713427
 31
0
  0
LINE
  8
1
 62
2
 10
471.8444799673
 20
759.6394713427
 30
0
 11
471.4979799673
 21
759.9394713427
 31
0
  0
LINE
  8
1
 62
2
 10
472.1909799673001
 20
759.4894713427
 30
0
 11
471.8444799673
 21
759.6394713427
 31
0
  0
LINE
  8
1
 62
2
 10
472.4219799673001
 20
759.4894713427
 30
0
 11
472.1909799673001
 21
759.4894713427
 31
0
  0
LINE
  8
1
 62
2
 10
472.7684799673
 20
759.6394713427
 30
0
 11
472.4219799673001
 21
759.4894713427
 31
0
  0
LINE
  8
1
 62
2
 10
473.1149799673
 20
759.9394713427
 30
0
 11
472.7684799673
 21
759.6394713427
 31
0
  0
LINE
  8
1
 62
2
 10
473.3459799673
 20
760.2394713427
 30
0
 11
473.1149799673
 21
759.9394713427
 31
0
  0
LINE
  8
1
 62
2
 10
473.5769799673
 20
760.8394713427
 30
0
 11
473.3459799673
 21
760.2394713427
 31
0
  0
LINE
  8
1
 62
2
 10
473.6924799673
 20
761.7394713427
 30
0
 11
473.5769799673
 21
760.8394713427
 31
0
  0
LINE
  8
1
 62
2
 10
469.5344799673001
 20
765.4894713427
 30
0
 11
469.5344799673001
 21
759.4894713427
 31
0
  0
LINE
  8
1
 62
2
 10
468.1484799673
 20
763.6894713427
 30
0
 11
469.5344799673001
 21
765.4894713427
 31
0
  0
LINE
  8
1
 62
2
 10
463.7594799673
 20
759.9394713427
 30
0
 11
463.5284799673
 21
760.2394713427
 31
0
  0
LINE
  8
1
 62
2
 10
464.2214799673
 20
759.6394713427
 30
0
 11
463.7594799673
 21
759.9394713427
 31
0
  0
LINE
  8
1
 62
2
 10
464.7989799673001
 20
759.4894713427
 30
0
 11
464.2214799673
 21
759.6394713427
 31
0
  0
LINE
  8
1
 62
2
 10
465.4919799673
 20
759.4894713427
 30
0
 11
464.7989799673001
 21
759.4894713427
 31
0
  0
LINE
  8
1
 62
2
 10
466.0694799673
 20
759.6394713427
 30
0
 11
465.4919799673
 21
759.4894713427
 31
0
  0
LINE
  8
1
 62
2
 10
466.4159799673
 20
759.9394713427
 30
0
 11
466.0694799673
 21
759.6394713427
 31
0
  0
LINE
  8
1
 62
2
 10
466.6469799673
 20
760.3894713427
 30
0
 11
466.4159799673
 21
759.9394713427
 31
0
  0
LINE
  8
1
 62
2
 10
466.7624799673
 20
760.8394713427
 30
0
 11
466.6469799673
 21
760.3894713427
 31
0
  0
LINE
  8
1
 62
2
 10
466.7624799673
 20
761.1394713427
 30
0
 11
466.7624799673
 21
760.8394713427
 31
0
  0
LINE
  8
1
 62
2
 10
466.6469799673
 20
761.5894713427
 30
0
 11
466.7624799673
 21
761.1394713427
 31
0
  0
LINE
  8
1
 62
2
 10
466.4159799673
 20
762.0394713426999
 30
0
 11
466.6469799673
 21
761.5894713427
 31
0
  0
LINE
  8
1
 62
2
 10
466.0694799673
 20
762.3394713427
 30
0
 11
466.4159799673
 21
762.0394713426999
 31
0
  0
LINE
  8
1
 62
2
 10
464.1059799673
 20
763.3894713427
 30
0
 11
466.0694799673
 21
762.3394713427
 31
0
  0
LINE
  8
1
 62
2
 10
463.7594799673
 20
763.6894713427
 30
0
 11
464.1059799673
 21
763.3894713427
 31
0
  0
LINE
  8
1
 62
2
 10
463.6439799673
 20
764.1394713427
 30
0
 11
463.7594799673
 21
763.6894713427
 31
0
  0
LINE
  8
1
 62
2
 10
463.6439799673
 20
764.4394713427
 30
0
 11
463.6439799673
 21
764.1394713427
 31
0
  0
LINE
  8
1
 62
2
 10
463.7594799673
 20
764.8894713427
 30
0
 11
463.6439799673
 21
764.4394713427
 31
0
  0
LINE
  8
1
 62
2
 10
464.1059799673
 20
765.1894713427
 30
0
 11
463.7594799673
 21
764.8894713427
 31
0
  0
LINE
  8
1
 62
2
 10
464.4524799673
 20
765.3394713427
 30
0
 11
464.1059799673
 21
765.1894713427
 31
0
  0
LINE
  8
1
 62
2
 10
464.9144799673001
 20
765.4894713427
 30
0
 11
464.4524799673
 21
765.3394713427
 31
0
  0
LINE
  8
1
 62
2
 10
465.3764799673
 20
765.4894713427
 30
0
 11
464.9144799673001
 21
765.4894713427
 31
0
  0
LINE
  8
1
 62
2
 10
465.9539799673
 20
765.3394713427
 30
0
 11
465.3764799673
 21
765.4894713427
 31
0
  0
LINE
  8
1
 62
2
 10
466.3004799673
 20
765.1894713427
 30
0
 11
465.9539799673
 21
765.3394713427
 31
0
  0
LINE
  8
1
 62
2
 10
466.6469799673
 20
764.8894713427
 30
0
 11
466.3004799673
 21
765.1894713427
 31
0
  0
LINE
  8
1
 62
2
 10
462.1424799673
 20
759.4894713427
 30
0
 11
462.1424799673
 21
765.4894713427
 31
0
  0
LINE
  8
1
 62
2
 10
459.8324799673
 20
759.4894713427
 30
0
 11
458.9084799673
 21
759.4894713427
 31
0
  0
LINE
  8
1
 62
2
 10
460.1789799673001
 20
759.6394713427
 30
0
 11
459.8324799673
 21
759.4894713427
 31
0
  0
LINE
  8
1
 62
2
 10
460.5254799673
 20
759.9394713427
 30
0
 11
460.1789799673001
 21
759.6394713427
 31
0
  0
LINE
  8
1
 62
2
 10
460.7564799673
 20
760.5394713426999
 30
0
 11
460.5254799673
 21
759.9394713427
 31
0
  0
LINE
  8
1
 62
2
 10
460.7564799673
 20
765.4894713427
 30
0
 11
460.7564799673
 21
760.5394713426999
 31
0
  0
LINE
  8
1
 62
2
 10
507.4986446243001
 20
765.4894713427
 30
0
 11
507.4986446243001
 21
759.4894713427
 31
0
  0
LINE
  8
1
 62
2
 10
506.1126446243001
 20
763.6894713427
 30
0
 11
507.4986446243001
 21
765.4894713427
 31
0
  0
LINE
  8
1
 62
2
 10
504.7266446243002
 20
765.4894713427
 30
0
 11
504.7266446243002
 21
759.4894713427
 31
0
  0
LINE
  8
1
 62
2
 10
503.3406446243001
 20
763.6894713427
 30
0
 11
504.7266446243002
 21
765.4894713427
 31
0
  0
LINE
  8
1
 62
2
 10
499.1826446243001
 20
759.4894713427
 30
0
 11
501.9546446243001
 21
759.4894713427
 31
0
  0
LINE
  8
1
 62
2
 10
501.7236446243001
 20
763.3894713427
 30
0
 11
499.1826446243001
 21
759.4894713427
 31
0
  0
LINE
  8
1
 62
2
 10
501.9546446243001
 20
763.9894713427
 30
0
 11
501.7236446243001
 21
763.3894713427
 31
0
  0
LINE
  8
1
 62
2
 10
501.9546446243001
 20
764.5894713427
 30
0
 11
501.9546446243001
 21
763.9894713427
 31
0
  0
LINE
  8
1
 62
2
 10
501.7236446243001
 20
765.0394713426999
 30
0
 11
501.9546446243001
 21
764.5894713427
 31
0
  0
LINE
  8
1
 62
2
 10
501.3771446243001
 20
765.3394713427
 30
0
 11
501.7236446243001
 21
765.0394713426999
 31
0
  0
LINE
  8
1
 62
2
 10
500.9151446243001
 20
765.4894713427
 30
0
 11
501.3771446243001
 21
765.3394713427
 31
0
  0
LINE
  8
1
 62
2
 10
500.2221446243001
 20
765.4894713427
 30
0
 11
500.9151446243001
 21
765.4894713427
 31
0
  0
LINE
  8
1
 62
2
 10
499.7601446243001
 20
765.3394713427
 30
0
 11
500.2221446243001
 21
765.4894713427
 31
0
  0
LINE
  8
1
 62
2
 10
499.4136446243001
 20
765.0394713426999
 30
0
 11
499.7601446243001
 21
765.3394713427
 31
0
  0
LINE
  8
1
 62
2
 10
499.1826446243001
 20
764.5894713427
 30
0
 11
499.4136446243001
 21
765.0394713426999
 31
0
  0
LINE
  8
1
 62
2
 10
543.9213100295001
 20
763.2394713427
 30
0
 11
543.9213100295001
 21
761.7394713427
 31
0
  0
LINE
  8
1
 62
2
 10
543.8058100295001
 20
764.1394713427
 30
0
 11
543.9213100295001
 21
763.2394713427
 31
0
  0
LINE
  8
1
 62
2
 10
543.5748100295001
 20
764.7394713427
 30
0
 11
543.8058100295001
 21
764.1394713427
 31
0
  0
LINE
  8
1
 62
2
 10
543.3438100295
 20
765.0394713426999
 30
0
 11
543.5748100295001
 21
764.7394713427
 31
0
  0
LINE
  8
1
 62
2
 10
542.9973100295
 20
765.3394713427
 30
0
 11
543.3438100295
 21
765.0394713426999
 31
0
  0
LINE
  8
1
 62
2
 10
542.6508100295
 20
765.4894713427
 30
0
 11
542.9973100295
 21
765.3394713427
 31
0
  0
LINE
  8
1
 62
2
 10
542.4198100295
 20
765.4894713427
 30
0
 11
542.6508100295
 21
765.4894713427
 31
0
  0
LINE
  8
1
 62
2
 10
542.0733100295
 20
765.3394713427
 30
0
 11
542.4198100295
 21
765.4894713427
 31
0
  0
LINE
  8
1
 62
2
 10
541.7268100295
 20
765.0394713426999
 30
0
 11
542.0733100295
 21
765.3394713427
 31
0
  0
LINE
  8
1
 62
2
 10
541.4958100295
 20
764.7394713427
 30
0
 11
541.7268100295
 21
765.0394713426999
 31
0
  0
LINE
  8
1
 62
2
 10
541.2648100295
 20
764.1394713427
 30
0
 11
541.4958100295
 21
764.7394713427
 31
0
  0
LINE
  8
1
 62
2
 10
541.1493100295
 20
763.2394713427
 30
0
 11
541.2648100295
 21
764.1394713427
 31
0
  0
LINE
  8
1
 62
2
 10
541.1493100295
 20
761.7394713427
 30
0
 11
541.1493100295
 21
763.2394713427
 31
0
  0
LINE
  8
1
 62
2
 10
541.2648100295
 20
760.8394713427
 30
0
 11
541.1493100295
 21
761.7394713427
 31
0
  0
LINE
  8
1
 62
2
 10
541.4958100295
 20
760.2394713427
 30
0
 11
541.2648100295
 21
760.8394713427
 31
0
  0
LINE
  8
1
 62
2
 10
541.7268100295
 20
759.9394713427
 30
0
 11
541.4958100295
 21
760.2394713427
 31
0
  0
LINE
  8
1
 62
2
 10
542.0733100295
 20
759.6394713427
 30
0
 11
541.7268100295
 21
759.9394713427
 31
0
  0
LINE
  8
1
 62
2
 10
542.4198100295
 20
759.4894713427
 30
0
 11
542.0733100295
 21
759.6394713427
 31
0
  0
LINE
  8
1
 62
2
 10
542.6508100295
 20
759.4894713427
 30
0
 11
542.4198100295
 21
759.4894713427
 31
0
  0
LINE
  8
1
 62
2
 10
542.9973100295
 20
759.6394713427
 30
0
 11
542.6508100295
 21
759.4894713427
 31
0
  0
LINE
  8
1
 62
2
 10
543.3438100295
 20
759.9394713427
 30
0
 11
542.9973100295
 21
759.6394713427
 31
0
  0
LINE
  8
1
 62
2
 10
543.5748100295001
 20
760.2394713427
 30
0
 11
543.3438100295
 21
759.9394713427
 31
0
  0
LINE
  8
1
 62
2
 10
543.8058100295001
 20
760.8394713427
 30
0
 11
543.5748100295001
 21
760.2394713427
 31
0
  0
LINE
  8
1
 62
2
 10
543.9213100295001
 20
761.7394713427
 30
0
 11
543.8058100295001
 21
760.8394713427
 31
0
  0
LINE
  8
1
 62
2
 10
538.7238100295001
 20
759.4894713427
 30
0
 11
536.9913100295001
 21
759.4894713427
 31
0
  0
LINE
  8
1
 62
2
 10
539.0703100295001
 20
759.6394713427
 30
0
 11
538.7238100295001
 21
759.4894713427
 31
0
  0
LINE
  8
1
 62
2
 10
539.4168100295002
 20
759.9394713427
 30
0
 11
539.0703100295001
 21
759.6394713427
 31
0
  0
LINE
  8
1
 62
2
 10
539.6478100295002
 20
760.3894713427
 30
0
 11
539.4168100295002
 21
759.9394713427
 31
0
  0
LINE
  8
1
 62
2
 10
539.7633100295002
 20
760.9894713427
 30
0
 11
539.6478100295002
 21
760.3894713427
 31
0
  0
LINE
  8
1
 62
2
 10
539.7633100295002
 20
761.8894713427
 30
0
 11
539.7633100295002
 21
760.9894713427
 31
0
  0
LINE
  8
1
 62
2
 10
539.6478100295002
 20
762.4894713427
 30
0
 11
539.7633100295002
 21
761.8894713427
 31
0
  0
LINE
  8
1
 62
2
 10
539.3013100295001
 20
762.9394713427
 30
0
 11
539.6478100295002
 21
762.4894713427
 31
0
  0
LINE
  8
1
 62
2
 10
538.7238100295001
 20
763.0894713427
 30
0
 11
539.3013100295001
 21
762.9394713427
 31
0
  0
LINE
  8
1
 62
2
 10
536.9913100295001
 20
763.0894713427
 30
0
 11
538.7238100295001
 21
763.0894713427
 31
0
  0
LINE
  8
1
 62
2
 10
536.9913100295001
 20
765.4894713427
 30
0
 11
536.9913100295001
 21
763.0894713427
 31
0
  0
LINE
  8
1
 62
2
 10
539.5323100295002
 20
765.4894713427
 30
0
 11
536.9913100295001
 21
765.4894713427
 31
0
  0
LINE
  8
1
 62
2
 10
535.6053100295001
 20
765.4894713427
 30
0
 11
535.6053100295001
 21
759.4894713427
 31
0
  0
LINE
  8
1
 62
2
 10
534.2193100295001
 20
763.6894713427
 30
0
 11
535.6053100295001
 21
765.4894713427
 31
0
  0
LINE
  8
1
 62
2
 10
577.9184754344999
 20
759.4894713427
 30
0
 11
576.1859754344999
 21
759.4894713427
 31
0
  0
LINE
  8
1
 62
2
 10
578.2649754344999
 20
759.6394713427
 30
0
 11
577.9184754344999
 21
759.4894713427
 31
0
  0
LINE
  8
1
 62
2
 10
578.6114754345
 20
759.9394713427
 30
0
 11
578.2649754344999
 21
759.6394713427
 31
0
  0
LINE
  8
1
 62
2
 10
578.8424754345
 20
760.3894713427
 30
0
 11
578.6114754345
 21
759.9394713427
 31
0
  0
LINE
  8
1
 62
2
 10
578.9579754345
 20
760.9894713427
 30
0
 11
578.8424754345
 21
760.3894713427
 31
0
  0
LINE
  8
1
 62
2
 10
578.9579754345
 20
761.8894713427
 30
0
 11
578.9579754345
 21
760.9894713427
 31
0
  0
LINE
  8
1
 62
2
 10
578.8424754345
 20
762.4894713427
 30
0
 11
578.9579754345
 21
761.8894713427
 31
0
  0
LINE
  8
1
 62
2
 10
578.4959754344999
 20
762.9394713427
 30
0
 11
578.8424754345
 21
762.4894713427
 31
0
  0
LINE
  8
1
 62
2
 10
577.9184754344999
 20
763.0894713427
 30
0
 11
578.4959754344999
 21
762.9394713427
 31
0
  0
LINE
  8
1
 62
2
 10
576.1859754344999
 20
763.0894713427
 30
0
 11
577.9184754344999
 21
763.0894713427
 31
0
  0
LINE
  8
1
 62
2
 10
576.1859754344999
 20
765.4894713427
 30
0
 11
576.1859754344999
 21
763.0894713427
 31
0
  0
LINE
  8
1
 62
2
 10
578.7269754345
 20
765.4894713427
 30
0
 11
576.1859754344999
 21
765.4894713427
 31
0
  0
LINE
  8
1
 62
2
 10
572.0279754345
 20
759.4894713427
 30
0
 11
574.7999754345001
 21
759.4894713427
 31
0
  0
LINE
  8
1
 62
2
 10
574.5689754345001
 20
763.3894713427
 30
0
 11
572.0279754345
 21
759.4894713427
 31
0
  0
LINE
  8
1
 62
2
 10
574.7999754345001
 20
763.9894713427
 30
0
 11
574.5689754345001
 21
763.3894713427
 31
0
  0
LINE
  8
1
 62
2
 10
574.7999754345001
 20
764.5894713427
 30
0
 11
574.7999754345001
 21
763.9894713427
 31
0
  0
LINE
  8
1
 62
2
 10
574.5689754345001
 20
765.0394713426999
 30
0
 11
574.7999754345001
 21
764.5894713427
 31
0
  0
LINE
  8
1
 62
2
 10
574.2224754345
 20
765.3394713427
 30
0
 11
574.5689754345001
 21
765.0394713426999
 31
0
  0
LINE
  8
1
 62
2
 10
573.7604754345
 20
765.4894713427
 30
0
 11
574.2224754345
 21
765.3394713427
 31
0
  0
LINE
  8
1
 62
2
 10
573.0674754345
 20
765.4894713427
 30
0
 11
573.7604754345
 21
765.4894713427
 31
0
  0
LINE
  8
1
 62
2
 10
572.6054754345
 20
765.3394713427
 30
0
 11
573.0674754345
 21
765.4894713427
 31
0
  0
LINE
  8
1
 62
2
 10
572.2589754345
 20
765.0394713426999
 30
0
 11
572.6054754345
 21
765.3394713427
 31
0
  0
LINE
  8
1
 62
2
 10
572.0279754345
 20
764.5894713427
 30
0
 11
572.2589754345
 21
765.0394713426999
 31
0
  0
LINE
  8
1
 62
2
 10
570.6419754345
 20
765.4894713427
 30
0
 11
570.6419754345
 21
759.4894713427
 31
0
  0
LINE
  8
1
 62
2
 10
569.2559754345
 20
763.6894713427
 30
0
 11
570.6419754345
 21
765.4894713427
 31
0
  0
LINE
  8
1
 62
2
 10
608.2463077058999
 20
765.0394713426999
 30
0
 11
608.5928077058999
 21
765.3394713427
 31
0
  0
LINE
  8
1
 62
2
 10
608.0153077058999
 20
764.5894713427
 30
0
 11
608.2463077058999
 21
765.0394713426999
 31
0
  0
LINE
  8
1
 62
2
 10
608.0153077058999
 20
763.9894713427
 30
0
 11
608.0153077058999
 21
764.5894713427
 31
0
  0
LINE
  8
1
 62
2
 10
608.2463077058999
 20
763.5394713426999
 30
0
 11
608.0153077058999
 21
763.9894713427
 31
0
  0
LINE
  8
1
 62
2
 10
608.5928077058999
 20
763.2394713427
 30
0
 11
608.2463077058999
 21
763.5394713426999
 31
0
  0
LINE
  8
1
 62
2
 10
608.9393077058999
 20
763.0894713427
 30
0
 11
608.5928077058999
 21
763.2394713427
 31
0
  0
LINE
  8
1
 62
2
 10
609.4013077058999
 20
763.0894713427
 30
0
 11
608.9393077058999
 21
763.0894713427
 31
0
  0
LINE
  8
1
 62
2
 10
609.7478077058999
 20
763.2394713427
 30
0
 11
609.4013077058999
 21
763.0894713427
 31
0
  0
LINE
  8
1
 62
2
 10
610.0943077058998
 20
763.5394713426999
 30
0
 11
609.7478077058999
 21
763.2394713427
 31
0
  0
LINE
  8
1
 62
2
 10
610.3253077059
 20
763.9894713427
 30
0
 11
610.0943077058998
 21
763.5394713426999
 31
0
  0
LINE
  8
1
 62
2
 10
610.3253077059
 20
764.5894713427
 30
0
 11
610.3253077059
 21
763.9894713427
 31
0
  0
LINE
  8
1
 62
2
 10
610.0943077058998
 20
765.0394713426999
 30
0
 11
610.3253077059
 21
764.5894713427
 31
0
  0
LINE
  8
1
 62
2
 10
609.7478077058999
 20
765.3394713427
 30
0
 11
610.0943077058998
 21
765.0394713426999
 31
0
  0
LINE
  8
1
 62
2
 10
609.4013077058999
 20
765.4894713427
 30
0
 11
609.7478077058999
 21
765.3394713427
 31
0
  0
LINE
  8
1
 62
2
 10
608.9393077058999
 20
765.4894713427
 30
0
 11
609.4013077058999
 21
765.4894713427
 31
0
  0
LINE
  8
1
 62
2
 10
608.5928077058999
 20
765.3394713427
 30
0
 11
608.9393077058999
 21
765.4894713427
 31
0
  0
LINE
  8
1
 62
2
 10
609.9788077058998
 20
762.7894713426999
 30
0
 11
609.4013077058999
 21
763.0894713427
 31
0
  0
LINE
  8
1
 62
2
 10
610.3253077059
 20
762.3394713427
 30
0
 11
609.9788077058998
 21
762.7894713426999
 31
0
  0
LINE
  8
1
 62
2
 10
610.5563077058999
 20
761.7394713427
 30
0
 11
610.3253077059
 21
762.3394713427
 31
0
  0
LINE
  8
1
 62
2
 10
610.5563077058999
 20
760.8394713427
 30
0
 11
610.5563077058999
 21
761.7394713427
 31
0
  0
LINE
  8
1
 62
2
 10
610.3253077059
 20
760.2394713427
 30
0
 11
610.5563077058999
 21
760.8394713427
 31
0
  0
LINE
  8
1
 62
2
 10
609.9788077058998
 20
759.7894713426999
 30
0
 11
610.3253077059
 21
760.2394713427
 31
0
  0
LINE
  8
1
 62
2
 10
609.5168077058999
 20
759.4894713427
 30
0
 11
609.9788077058998
 21
759.7894713426999
 31
0
  0
LINE
  8
1
 62
2
 10
608.8238077058999
 20
759.4894713427
 30
0
 11
609.5168077058999
 21
759.4894713427
 31
0
  0
LINE
  8
1
 62
2
 10
608.3618077058999
 20
759.7894713426999
 30
0
 11
608.8238077058999
 21
759.4894713427
 31
0
  0
LINE
  8
1
 62
2
 10
608.0153077058999
 20
760.2394713427
 30
0
 11
608.3618077058999
 21
759.7894713426999
 31
0
  0
LINE
  8
1
 62
2
 10
607.7843077058999
 20
760.8394713427
 30
0
 11
608.0153077058999
 21
760.2394713427
 31
0
  0
LINE
  8
1
 62
2
 10
607.7843077058999
 20
761.7394713427
 30
0
 11
607.7843077058999
 21
760.8394713427
 31
0
  0
LINE
  8
1
 62
2
 10
608.0153077058999
 20
762.3394713427
 30
0
 11
607.7843077058999
 21
761.7394713427
 31
0
  0
LINE
  8
1
 62
2
 10
608.3618077058999
 20
762.7894713426999
 30
0
 11
608.0153077058999
 21
762.3394713427
 31
0
  0
LINE
  8
1
 62
2
 10
608.9393077058999
 20
763.0894713427
 30
0
 11
608.3618077058999
 21
762.7894713426999
 31
0
  0
LINE
  8
1
 62
2
 10
647.1016986629001
 20
760.0894713427
 30
0
 11
646.0621986629001
 21
759.4894713427
 31
0
  0
LINE
  8
1
 62
2
 10
647.9101986629
 20
760.9894713427
 30
0
 11
647.1016986629001
 21
760.0894713427
 31
0
  0
LINE
  8
1
 62
2
 10
648.2566986629001
 20
761.5894713427
 30
0
 11
647.9101986629
 21
760.9894713427
 31
0
  0
LINE
  8
1
 62
2
 10
648.3721986629001
 20
762.1894713427
 30
0
 11
648.2566986629001
 21
761.5894713427
 31
0
  0
LINE
  8
1
 62
2
 10
648.4876986629001
 20
762.9394713427
 30
0
 11
648.3721986629001
 21
762.1894713427
 31
0
  0
LINE
  8
1
 62
2
 10
648.4876986629001
 20
763.9894713427
 30
0
 11
648.4876986629001
 21
762.9394713427
 31
0
  0
LINE
  8
1
 62
2
 10
648.3721986629001
 20
764.5894713427
 30
0
 11
648.4876986629001
 21
763.9894713427
 31
0
  0
LINE
  8
1
 62
2
 10
648.1411986629001
 20
765.0394713426999
 30
0
 11
648.3721986629001
 21
764.5894713427
 31
0
  0
LINE
  8
1
 62
2
 10
647.7946986629
 20
765.3394713427
 30
0
 11
648.1411986629001
 21
765.0394713426999
 31
0
  0
LINE
  8
1
 62
2
 10
647.4481986629
 20
765.4894713427
 30
0
 11
647.7946986629
 21
765.3394713427
 31
0
  0
LINE
  8
1
 62
2
 10
646.7551986629001
 20
765.4894713427
 30
0
 11
647.4481986629
 21
765.4894713427
 31
0
  0
LINE
  8
1
 62
2
 10
646.4086986629001
 20
765.3394713427
 30
0
 11
646.7551986629001
 21
765.4894713427
 31
0
  0
LINE
  8
1
 62
2
 10
646.0621986629001
 20
765.0394713426999
 30
0
 11
646.4086986629001
 21
765.3394713427
 31
0
  0
LINE
  8
1
 62
2
 10
645.8311986629001
 20
764.5894713427
 30
0
 11
646.0621986629001
 21
765.0394713426999
 31
0
  0
LINE
  8
1
 62
2
 10
645.7156986629001
 20
763.9894713427
 30
0
 11
645.8311986629001
 21
764.5894713427
 31
0
  0
LINE
  8
1
 62
2
 10
645.7156986629001
 20
763.6894713427
 30
0
 11
645.7156986629001
 21
763.9894713427
 31
0
  0
LINE
  8
1
 62
2
 10
645.8311986629001
 20
763.0894713427
 30
0
 11
645.7156986629001
 21
763.6894713427
 31
0
  0
LINE
  8
1
 62
2
 10
646.0621986629001
 20
762.6394713427
 30
0
 11
645.8311986629001
 21
763.0894713427
 31
0
  0
LINE
  8
1
 62
2
 10
646.4086986629001
 20
762.3394713427
 30
0
 11
646.0621986629001
 21
762.6394713427
 31
0
  0
LINE
  8
1
 62
2
 10
646.7551986629001
 20
762.1894713427
 30
0
 11
646.4086986629001
 21
762.3394713427
 31
0
  0
LINE
  8
1
 62
2
 10
648.3721986629001
 20
762.1894713427
 30
0
 11
646.7551986629001
 21
762.1894713427
 31
0
  0
LINE
  8
1
 62
2
 10
644.3296986629
 20
765.4894713427
 30
0
 11
644.3296986629
 21
759.4894713427
 31
0
  0
LINE
  8
1
 62
2
 10
642.9436986629
 20
763.6894713427
 30
0
 11
644.3296986629
 21
765.4894713427
 31
0
  0
LINE
  8
0
 62
7
 10
607.3644790226
 20
613.8822162283523
 30
0
 11
607.3644790226
 21
613.8881365662478
 31
0
  0
LINE
  8
0
 62
7
 10
600.3562886670153
 20
620.885171605
 30
0
 11
600.3726706299848
 21
620.885171605
 31
0
  0
LINE
  8
0
 62
7
 10
508.3562886670159
 20
620.885171605
 30
0
 11
600.3562886670153
 21
620.885171605
 31
0
  0
LINE
  8
0
 62
7
 10
501.3644802743
 20
613.8822164649389
 30
0
 11
501.3644802743
 21
594.3851700553
 31
0
  0
LINE
  8
1
 62
7
 10
289.6004302487
 20
770.5547661802
 30
0
 11
284.1156026914
 21
761.0547661802
 31
0
  0
LINE
  8
1
 62
7
 10
300.5700853633
 20
770.5547661802
 30
0
 11
289.6004302487
 21
770.5547661802
 31
0
  0
LINE
  8
1
 62
7
 10
306.0549129206
 20
761.0547661802
 30
0
 11
300.5700853633
 21
770.5547661802
 31
0
  0
LINE
  8
1
 62
7
 10
300.5700853633
 20
751.5547661802
 30
0
 11
306.0549129206
 21
761.0547661802
 31
0
  0
LINE
  8
1
 62
7
 10
289.6004302487
 20
751.5547661802
 30
0
 11
300.5700853633
 21
751.5547661802
 31
0
  0
LINE
  8
1
 62
7
 10
284.1156026914
 20
761.0547661802
 30
0
 11
289.6004302487
 21
751.5547661802
 31
0
  0
LINE
  8
1
 62
7
 10
289.6004302487
 20
851.5547661802
 30
0
 11
284.1156026914
 21
842.0547661802
 31
0
  0
LINE
  8
1
 62
7
 10
300.5700853633
 20
851.5547661802
 30
0
 11
289.6004302487
 21
851.5547661802
 31
0
  0
LINE
  8
1
 62
7
 10
306.0549129206
 20
842.0547661802
 30
0
 11
300.5700853633
 21
851.5547661802
 31
0
  0
LINE
  8
1
 62
7
 10
300.5700853633
 20
832.5547661802
 30
0
 11
306.0549129206
 21
842.0547661802
 31
0
  0
LINE
  8
1
 62
7
 10
289.6004302487
 20
832.5547661802
 30
0
 11
300.5700853633
 21
832.5547661802
 31
0
  0
LINE
  8
1
 62
7
 10
284.1156026914
 20
842.0547661802
 30
0
 11
289.6004302487
 21
832.5547661802
 31
0
  0
LINE
  8
1
 62
7
 10
219.4523725422
 20
892.0547661802
 30
0
 11
213.9675449849
 21
882.5547661802
 31
0
  0
LINE
  8
1
 62
7
 10
230.4220276568
 20
892.0547661802
 30
0
 11
219.4523725422
 21
892.0547661802
 31
0
  0
LINE
  8
1
 62
7
 10
235.9068552141
 20
882.5547661802
 30
0
 11
230.4220276568
 21
892.0547661802
 31
0
  0
LINE
  8
1
 62
7
 10
230.4220276568
 20
873.0547661802
 30
0
 11
235.9068552141
 21
882.5547661802
 31
0
  0
LINE
  8
1
 62
7
 10
219.4523725422
 20
873.0547661802
 30
0
 11
230.4220276568
 21
873.0547661802
 31
0
  0
LINE
  8
1
 62
7
 10
213.9675449849
 20
882.5547661802
 30
0
 11
219.4523725422
 21
873.0547661802
 31
0
  0
LINE
  8
1
 62
7
 10
219.4523725422
 20
730.0547661802
 30
0
 11
213.9675449849
 21
720.5547661802
 31
0
  0
LINE
  8
1
 62
7
 10
230.4220276568
 20
730.0547661802
 30
0
 11
219.4523725422
 21
730.0547661802
 31
0
  0
LINE
  8
1
 62
7
 10
235.9068552141
 20
720.5547661802
 30
0
 11
230.4220276568
 21
730.0547661802
 31
0
  0
LINE
  8
1
 62
7
 10
230.4220276568
 20
711.0547661802
 30
0
 11
235.9068552141
 21
720.5547661802
 31
0
  0
LINE
  8
1
 62
7
 10
219.4523725422
 20
711.0547661802
 30
0
 11
230.4220276568
 21
711.0547661802
 31
0
  0
LINE
  8
1
 62
7
 10
213.9675449849
 20
720.5547661802
 30
0
 11
219.4523725422
 21
711.0547661802
 31
0
  0
LINE
  8
1
 62
7
 10
149.3043148356
 20
770.5547661802
 30
0
 11
143.8194872783
 21
761.0547661802
 31
0
  0
LINE
  8
1
 62
7
 10
160.2739699502
 20
770.5547661802
 30
0
 11
149.3043148356
 21
770.5547661802
 31
0
  0
LINE
  8
1
 62
7
 10
165.7587975075
 20
761.0547661802
 30
0
 11
160.2739699502
 21
770.5547661802
 31
0
  0
LINE
  8
1
 62
7
 10
160.2739699502
 20
751.5547661802
 30
0
 11
165.7587975075
 21
761.0547661802
 31
0
  0
LINE
  8
1
 62
7
 10
149.3043148356
 20
751.5547661802
 30
0
 11
160.2739699502
 21
751.5547661802
 31
0
  0
LINE
  8
1
 62
7
 10
143.8194872783
 20
761.0547661802
 30
0
 11
149.3043148356
 21
751.5547661802
 31
0
  0
LINE
  8
1
 62
7
 10
149.3043148356
 20
851.5547661802
 30
0
 11
143.8194872783
 21
842.0547661802
 31
0
  0
LINE
  8
1
 62
7
 10
160.2739699502
 20
851.5547661802
 30
0
 11
149.3043148356
 21
851.5547661802
 31
0
  0
LINE
  8
1
 62
7
 10
165.7587975075
 20
842.0547661802
 30
0
 11
160.2739699502
 21
851.5547661802
 31
0
  0
LINE
  8
1
 62
7
 10
160.2739699502
 20
832.5547661802
 30
0
 11
165.7587975075
 21
842.0547661802
 31
0
  0
LINE
  8
1
 62
7
 10
149.3043148356
 20
832.5547661802
 30
0
 11
160.2739699502
 21
832.5547661802
 31
0
  0
LINE
  8
1
 62
7
 10
143.8194872783
 20
842.0547661802
 30
0
 11
149.3043148356
 21
832.5547661802
 31
0
  0
LINE
  8
1
 62
7
 10
205.8462445610023
 20
610.6182932508801
 30
0
 11
209.9372000995
 21
594.3851763973
 31
0
  0
LINE
  8
1
 62
2
  6
DASHDOT
 10
58.6825838923
 20
455.2351763973
 30
0
 11
371.2938984373
 21
455.2351763973
 31
0
  0
LINE
  8
1
 62
2
  6
DASHDOT
 10
224.9372000995
 20
637.1243718085
 30
0
 11
224.9372000995
 21
346.2538486833
 31
0
  0
LINE
  8
1
 62
2
  6
DASHDOT
 10
224.9372000995
 20
913.8494245012
 30
0
 11
224.9372000995
 21
689.3686515354
 31
0
  0
LINE
  8
1
 62
2
  6
DASHDOT
 10
58.6825838923
 20
801.5547661802
 30
0
 11
371.2938984373
 21
801.5547661802
 31
0
  0
LINE
  8
1
 62
2
  6
DASHDOT
 10
554.3644796485
 20
637.1243718085
 30
0
 11
554.3644796485
 21
346.2538486833
 31
0
  0
LINE
  8
1
 62
2
  6
DASHDOT
 10
446.3644796485
 20
455.2351763973
 30
0
 11
662.3644796485
 21
455.2351763973
 31
0
  0
LINE
  8
0
 62
2
 10
451.8651467001
 20
797.7670843207
 30
0
 11
451.8651467001
 21
756.7971024026999
 31
0
  0
LINE
  8
0
 62
2
 10
451.8651467001
 20
756.7971024026999
 30
0
 11
665.8222568679
 21
756.7971024026999
 31
0
  0
LINE
  8
0
 62
2
 10
665.8222568679
 20
756.7971024026999
 30
0
 11
665.8222568679
 21
797.7670843207
 31
0
  0
LINE
  8
0
 62
2
 10
665.8222568679
 20
797.7670843207
 30
0
 11
451.8651467001
 21
797.7670843207
 31
0
  0
LINE
  8
0
 62
2
 10
486.9018121050999
 20
797.7670843207
 30
0
 11
486.9018121050999
 21
756.7971024026999
 31
0
  0
LINE
  8
0
 62
2
 10
521.9384775101
 20
797.7670843207
 30
0
 11
521.9384775101
 21
756.7971024026999
 31
0
  0
LINE
  8
0
 62
2
 10
556.9751429153
 20
797.7670843207
 30
0
 11
556.9751429153
 21
756.7971024026999
 31
0
  0
LINE
  8
0
 62
2
 10
592.0118083202999
 20
797.7670843207
 30
0
 11
592.0118083202999
 21
756.7971024026999
 31
0
  0
LINE
  8
0
 62
2
 10
627.0484737253
 20
787.5312349240999
 30
0
 11
627.0484737253
 21
756.7971024026999
 31
0
  0
LINE
  8
0
 62
2
 10
592.0118083202999
 20
787.5312349240999
 30
0
 11
665.8222568679
 21
787.5312349240999
 31
0
  0
LINE
  8
0
 62
2
 10
451.8651467001
 20
776.7971031626998
 30
0
 11
665.8222568679
 21
776.7971031626998
 31
0
  0
LINE
  8
0
 62
2
 10
451.8651467001
 20
766.7971027827
 30
0
 11
665.8222568679
 21
766.7971027827
 31
0
  0
LINE
  8
0
 62
7
 10
473.3644796485
 20
586.2351763973001
 30
0
 11
473.3644796485
 21
583.0296315479
 31
0
  0
LINE
  8
0
 62
7
 10
524.2567844939
 20
586.2351763973001
 30
0
 11
524.2567844939
 21
583.2351763973001
 31
0
  0
LINE
  8
0
 62
7
 10
584.472174803
 20
586.2351763973001
 30
0
 11
584.472174803
 21
583.2351763973001
 31
0
  0
LINE
  8
0
 62
2
  6
DASHDOT
 10
483.7719868935
 20
383.8384877702
 30
0
 11
504.4675100288
 21
405.3382067776
 31
0
  0
LINE
  8
0
 62
2
  6
DASHDOT
 10
625.3167990532
 20
384.2828569925
 30
0
 11
604.2614492681
 21
405.3382067776
 31
0
  0
LINE
  8
0
 62
2
  6
DASHDOT
 10
624.8724298309001
 20
525.7431265797
 30
0
 11
604.2614492681
 21
505.1321460169
 31
0
  0
LINE
  8
0
 62
2
  6
DASHDOT
 10
483.7719868935
 20
525.8276691522
 30
0
 11
504.4675100288
 21
505.1321460169
 31
0
  0
LINE
  8
0
 62
7
 10
542.8008432859
 20
611.8851831683001
 30
0
 11
542.8008432859
 21
613.8851723202999
 31
0
  0
LINE
  8
0
 62
7
 10
565.928116011
 20
613.8851723202999
 30
0
 11
565.928116011
 21
611.8851831683001
 31
0
  0
LINE
  8
0
 62
7
 10
503.7122625285
 20
362.6900321373
 30
0
 11
504.3644789034
 21
355.2351749071
 31
0
  0
LINE
  8
0
 62
7
 10
587.983671146
 20
355.2351749071
 30
0
 11
604.3644803935
 21
355.2351749071
 31
0
  0
LINE
  8
0
 62
7
 10
504.3644789034
 20
355.2351749071
 30
0
 11
520.7452881509
 21
355.2351749071
 31
0
  0
LINE
  8
0
 62
7
 10
605.0166967684
 20
362.6900321373
 30
0
 11
604.3644803935
 21
355.2351749071
 31
0
  0
LINE
  8
0
 62
7
 10
467.4979891056
 20
515.2351750562
 30
0
 11
467.3779826039
 21
514.887627823
 31
0
  0
LINE
  8
0
 62
7
 10
467.4979891056
 20
515.2351750562
 30
0
 11
467.587463128
 21
515.2351750562
 31
0
  0
LINE
  8
0
 62
7
 10
641.2309701913
 20
515.2351750562
 30
0
 11
641.141496169
 21
515.2351750562
 31
0
  0
LINE
  8
0
 62
7
 10
641.4094712013
 20
514.7182127961
 30
0
 11
641.2309701913
 21
515.2351750562
 31
0
  0
LINE
  8
0
 62
7
 10
470.8442311162
 20
521.3647937903
 30
0
 11
469.4404076212
 21
517.5752906629
 31
0
  0
LINE
  8
0
 62
7
 10
637.8848026866
 20
521.3648235926
 30
0
 11
639.5460064882
 21
517.2019271681
 31
0
  0
LINE
  8
0
 62
7
 10
618.2489614361
 20
546.0348656902
 30
0
 11
618.3644826883
 21
546.6516098508
 31
0
  0
LINE
  8
0
 62
7
 10
490.4799978608
 20
546.0348656902
 30
0
 11
490.3644766086
 21
546.6516098508
 31
0
  0
LINE
  8
0
 62
7
 10
523.8808780336
 20
556.2351799139
 30
0
 11
461.3644774431
 21
556.2351799139
 31
0
  0
LINE
  8
0
 62
7
 10
584.8480812633
 20
556.2351799139
 30
0
 11
647.3644818538
 21
556.2351799139
 31
0
  0
LINE
  8
0
 62
7
 10
554.3644796485
 20
560.7351741323
 30
0
 11
554.3644796485
 21
571.2351730594
 31
0
  0
LINE
  8
0
 62
7
 10
587.983671146
 20
355.2351749071
 30
0
 11
520.7452881509
 21
355.2351749071
 31
0
  0
LINE
  8
0
 62
7
 10
485.364481377
 20
590.2351817617
 30
0
 11
461.3644774431
 21
590.2351817617
 31
0
  0
LINE
  8
0
 62
7
 10
647.3644818538
 20
590.2351817617
 30
0
 11
623.3644779199
 21
590.2351817617
 31
0
  0
LINE
  8
0
 62
7
 10
479.0064986223
 20
588.2351777086
 30
0
 11
501.8644812876
 21
588.2351777086
 31
0
  0
LINE
  8
0
 62
7
 10
606.8644780093
 20
588.2351777086
 30
0
 11
629.7224606746
 21
588.2351777086
 31
0
  0
LINE
  8
0
 62
7
 10
604.3644803935
 20
591.3851788768
 30
0
 11
617.864481675
 21
591.3851788768
 31
0
  0
LINE
  8
0
 62
7
 10
561.2164428817
 20
591.3851788768
 30
0
 11
585.3644791418
 21
591.3851788768
 31
0
  0
LINE
  8
0
 62
7
 10
523.3644801551
 20
591.3851788768
 30
0
 11
547.5125164153
 21
591.3851788768
 31
0
  0
LINE
  8
0
 62
7
 10
490.8644776219
 20
591.3851788768
 30
0
 11
504.3644789034
 21
591.3851788768
 31
0
  0
LINE
  8
0
 62
7
 10
562.3644800284
 20
591.3851788768
 30
0
 11
562.3644800284
 21
594.3851700553
 31
0
  0
LINE
  8
0
 62
7
 10
546.3644792685
 20
591.3851788768
 30
0
 11
546.3644792685
 21
594.3851700553
 31
0
  0
LINE
  8
0
 62
7
 10
548.8155018897
 20
588.2351777086
 30
0
 11
548.8155018897
 21
589.8851832875999
 31
0
  0
LINE
  8
0
 62
7
 10
559.9134574072
 20
589.8851832875999
 30
0
 11
559.9134574072
 21
588.2351777086
 31
0
  0
LINE
  8
0
 62
7
 10
475.1623268598
 20
583.2351824769
 30
0
 11
501.8644812876
 21
583.2351824769
 31
0
  0
LINE
  8
0
 62
7
 10
606.8644780093
 20
583.2351824769
 30
0
 11
633.5666324371
 21
583.2351824769
 31
0
  0
LINE
  8
0
 62
7
 10
525.8574965769
 20
588.2351777086
 30
0
 11
582.87146272
 21
588.2351777086
 31
0
  0
LINE
  8
0
 62
7
 10
525.8644796336
 20
590.2351817617
 30
0
 11
501.8644812876
 21
590.2351817617
 31
0
  0
LINE
  8
0
 62
7
 10
606.8644780093
 20
590.2351817617
 30
0
 11
582.8644796634
 21
590.2351817617
 31
0
  0
LINE
  8
0
 62
7
 10
647.3644818538
 20
571.2351730594
 30
0
 11
461.3644774431
 21
571.2351730594
 31
0
  0
LINE
  8
0
 62
7
 10
523.2859063321
 20
583.2351824769
 30
0
 11
585.4430529648
 21
583.2351824769
 31
0
  0
LINE
  8
0
 62
7
 10
581.3644803488
 20
621.8851736316
 30
0
 11
581.3644803488
 21
620.885171605
 31
0
  0
LINE
  8
0
 62
7
 10
527.3644789481
 20
621.8851736316
 30
0
 11
527.3644789481
 21
620.885171605
 31
0
  0
LINE
  8
0
 62
7
 10
565.7888767667999
 20
621.8851736316
 30
0
 11
565.7888767667999
 21
620.885171605
 31
0
  0
LINE
  8
0
 62
7
 10
568.5018920699
 20
621.8851736316
 30
0
 11
568.5018920699
 21
620.885171605
 31
0
  0
LINE
  8
0
 62
7
 10
574.7888773107
 20
621.8851736316
 30
0
 11
574.7888773107
 21
620.885171605
 31
0
  0
LINE
  8
0
 62
7
 10
577.5018926138
 20
621.8851736316
 30
0
 11
577.5018926138
 21
620.885171605
 31
0
  0
LINE
  8
0
 62
7
 10
566.1929422417001
 20
621.8851736316
 30
0
 11
566.1929422417001
 21
620.885171605
 31
0
  0
LINE
  8
0
 62
7
 10
575.1929427856001
 20
621.8851736316
 30
0
 11
575.1929427856001
 21
620.885171605
 31
0
  0
LINE
  8
0
 62
7
 10
568.9636818492
 20
621.8851736316
 30
0
 11
568.9636818492
 21
620.885171605
 31
0
  0
LINE
  8
0
 62
7
 10
577.9636814618
 20
621.8851736316
 30
0
 11
577.9636814618
 21
620.885171605
 31
0
  0
LINE
  8
0
 62
7
 10
565.1539150053
 20
621.8851736316
 30
0
 11
565.1539150053
 21
620.885171605
 31
0
  0
LINE
  8
0
 62
7
 10
567.9246546128001
 20
621.8851736316
 30
0
 11
567.9246546128001
 21
620.885171605
 31
0
  0
LINE
  8
0
 62
7
 10
574.1539146179
 20
621.8851736316
 30
0
 11
574.1539146179
 21
620.885171605
 31
0
  0
LINE
  8
0
 62
7
 10
576.9246551567001
 20
621.8851736316
 30
0
 11
576.9246551567001
 21
620.885171605
 31
0
  0
LINE
  8
0
 62
7
 10
564.7498495304
 20
621.8851736316
 30
0
 11
564.7498495304
 21
620.885171605
 31
0
  0
LINE
  8
0
 62
7
 10
563.5208920935
 20
621.8851736316
 30
0
 11
563.5208920935
 21
620.885171605
 31
0
  0
LINE
  8
0
 62
7
 10
567.5205882066
 20
621.8851736316
 30
0
 11
567.5205882066
 21
620.885171605
 31
0
  0
LINE
  8
0
 62
7
 10
566.291631701
 20
621.8851736316
 30
0
 11
566.291631701
 21
620.885171605
 31
0
  0
LINE
  8
0
 62
7
 10
570.3490502560001
 20
621.8851736316
 30
0
 11
570.3490502560001
 21
620.885171605
 31
0
  0
LINE
  8
0
 62
7
 10
569.1200946817
 20
621.8851736316
 30
0
 11
569.1200946817
 21
620.885171605
 31
0
  0
LINE
  8
0
 62
7
 10
573.749849143
 20
621.8851736316
 30
0
 11
573.749849143
 21
620.885171605
 31
0
  0
LINE
  8
0
 62
7
 10
572.5208926374
 20
621.8851736316
 30
0
 11
572.5208926374
 21
620.885171605
 31
0
  0
LINE
  8
0
 62
7
 10
576.5205878192001
 20
621.8851736316
 30
0
 11
576.5205878192001
 21
620.885171605
 31
0
  0
LINE
  8
0
 62
7
 10
575.2916313135
 20
621.8851736316
 30
0
 11
575.2916313135
 21
620.885171605
 31
0
  0
LINE
  8
0
 62
7
 10
579.3490517312
 20
621.8851736316
 30
0
 11
579.3490517312
 21
620.885171605
 31
0
  0
LINE
  8
0
 62
7
 10
578.1200952256
 20
621.8851736316
 30
0
 11
578.1200952256
 21
620.885171605
 31
0
  0
LINE
  8
0
 62
7
 10
527.3644789481
 20
621.8851736316
 30
0
 11
581.3644803488
 21
621.8851736316
 31
0
  0
LINE
  8
0
 62
7
 10
559.3644795367
 20
621.8851736316
 30
0
 11
559.3644795367
 21
620.885171605
 31
0
  0
LINE
  8
0
 62
7
 10
529.3644792759
 20
621.8851736316
 30
0
 11
529.3644792759
 21
620.885171605
 31
0
  0
LINE
  8
0
 62
7
 10
604.3644803935
 20
594.3851700553
 30
0
 11
607.3644790226
 21
594.3851700553
 31
0
  0
LINE
  8
0
 62
7
 10
523.264480325
 20
594.3851700553
 30
0
 11
585.3644791418
 21
594.3851700553
 31
0
  0
LINE
  8
0
 62
7
 10
501.3644802743
 20
594.3851700553
 30
0
 11
504.3644789034
 21
594.3851700553
 31
0
  0
LINE
  8
0
 62
7
 10
542.8008432859
 20
613.8851723202999
 30
0
 11
565.928116011
 21
613.8851723202999
 31
0
  0
LINE
  8
0
 62
7
 10
542.8008432859
 20
611.8851831683001
 30
0
 11
565.928116011
 21
611.8851831683001
 31
0
  0
LINE
  8
0
 62
7
 10
426.5644769543
 20
600.8851757774
 30
0
 11
426.5644769543
 21
595.8851805457
 31
0
  0
LINE
  8
0
 62
7
 10
641.3644771451
 20
545.2351799735
 30
0
 11
629.3644826287
 21
545.2351799735
 31
0
  0
LINE
  8
0
 62
7
 10
644.8644767874
 20
598.235183073
 30
0
 11
644.8644767874
 21
590.2351817617
 31
0
  0
LINE
  8
0
 62
7
 10
644.8644767874
 20
598.235183073
 30
0
 11
625.8644829863
 21
598.235183073
 31
0
  0
LINE
  8
0
 62
7
 10
635.3644798869
 20
597.3866662511
 30
0
 11
635.3644798869
 21
590.2351817617
 31
0
  0
LINE
  8
0
 62
7
 10
625.8644829863
 20
598.235183073
 30
0
 11
625.8644829863
 21
590.2351817617
 31
0
  0
LINE
  8
0
 62
7
 10
504.3644789034
 20
598.235183073
 30
0
 11
504.3644789034
 21
590.2351817617
 31
0
  0
LINE
  8
0
 62
7
 10
523.3644801551
 20
598.235183073
 30
0
 11
504.3644789034
 21
598.235183073
 31
0
  0
LINE
  8
0
 62
7
 10
523.3644801551
 20
598.235183073
 30
0
 11
523.3644801551
 21
590.2351817617
 31
0
  0
LINE
  8
0
 62
7
 10
513.8644795292
 20
597.3866662511
 30
0
 11
513.8644795292
 21
590.2351817617
 31
0
  0
LINE
  8
0
 62
7
 10
479.3644766682
 20
545.2351799735
 30
0
 11
467.3644821519
 21
545.2351799735
 31
0
  0
LINE
  8
0
 62
7
 10
482.8644763106
 20
598.235183073
 30
0
 11
482.8644763106
 21
590.2351817617
 31
0
  0
LINE
  8
0
 62
7
 10
482.8644763106
 20
598.235183073
 30
0
 11
463.8644825095
 21
598.235183073
 31
0
  0
LINE
  8
0
 62
7
 10
473.36447941
 20
597.3866662511
 30
0
 11
473.36447941
 21
590.2351817617
 31
0
  0
LINE
  8
0
 62
7
 10
463.8644825095
 20
598.235183073
 30
0
 11
463.8644825095
 21
590.2351817617
 31
0
  0
LINE
  8
0
 62
7
 10
585.3644791418
 20
598.235183073
 30
0
 11
585.3644791418
 21
590.2351817617
 31
0
  0
LINE
  8
0
 62
7
 10
604.3644803935
 20
598.235183073
 30
0
 11
585.3644791418
 21
598.235183073
 31
0
  0
LINE
  8
0
 62
7
 10
604.3644803935
 20
598.235183073
 30
0
 11
604.3644803935
 21
590.2351817617
 31
0
  0
LINE
  8
0
 62
7
 10
594.8644797677
 20
597.3866662511
 30
0
 11
594.8644797677
 21
590.2351817617
 31
0
  0
LINE
  8
0
 62
7
 10
502.9114778513
 20
547.33750285
 30
0
 11
502.9114778513
 21
556.2351799139
 31
0
  0
LINE
  8
0
 62
7
 10
507.8646908873
 20
549.9348050484
 30
0
 11
507.8646908873
 21
556.2351799139
 31
0
  0
LINE
  8
0
 62
7
 10
518.8176925653
 20
554.5663169154
 30
0
 11
518.8176925653
 21
556.2351799139
 31
0
  0
LINE
  8
0
 62
7
 10
484.317481088
 20
547.0836839208
 30
0
 11
484.0121115917
 21
546.9287490973001
 31
0
  0
LINE
  8
0
 62
7
 10
462.411477732
 20
547.0836839208
 30
0
 11
462.411477732
 21
556.2351799139
 31
0
  0
LINE
  8
0
 62
7
 10
467.3646907681
 20
547.0836839208
 30
0
 11
467.3646907681
 21
556.2351799139
 31
0
  0
LINE
  8
0
 62
7
 10
463.8644825095
 20
546.2351745495
 30
0
 11
482.8644763106
 21
546.2351745495
 31
0
  0
LINE
  8
0
 62
7
 10
478.3176924461
 20
547.0836839208
 30
0
 11
478.3176924461
 21
556.2351799139
 31
0
  0
LINE
  8
0
 62
7
 10
484.317481088
 20
547.0836839208
 30
0
 11
484.317481088
 21
556.2351799139
 31
0
  0
LINE
  8
0
 62
7
 10
605.8174814457
 20
547.33750285
 30
0
 11
605.8174814457
 21
556.2351799139
 31
0
  0
LINE
  8
0
 62
7
 10
588.8646911257
 20
554.9346512684
 30
0
 11
588.8646911257
 21
556.2351799139
 31
0
  0
LINE
  8
0
 62
7
 10
599.8176928037
 20
550.4415637383
 30
0
 11
599.8176928037
 21
556.2351799139
 31
0
  0
LINE
  8
0
 62
7
 10
646.3174815649001
 20
547.0836839208
 30
0
 11
646.0121120685
 21
546.9287490973001
 31
0
  0
LINE
  8
0
 62
7
 10
624.4114782089
 20
547.0836839208
 30
0
 11
624.4114782089
 21
556.2351799139
 31
0
  0
LINE
  8
0
 62
7
 10
629.3646912449
 20
547.0836839208
 30
0
 11
629.3646912449
 21
556.2351799139
 31
0
  0
LINE
  8
0
 62
7
 10
644.8644767874
 20
546.2351745495
 30
0
 11
625.8644829863
 21
546.2351745495
 31
0
  0
LINE
  8
0
 62
7
 10
640.3176929229001
 20
547.0836839208
 30
0
 11
640.3176929229001
 21
556.2351799139
 31
0
  0
LINE
  8
0
 62
7
 10
646.3174815649001
 20
547.0836839208
 30
0
 11
646.3174815649001
 21
556.2351799139
 31
0
  0
LINE
  8
0
 62
7
 10
490.3644766086
 20
551.2351772317001
 30
0
 11
490.3644766086
 21
546.6516098508
 31
0
  0
LINE
  8
0
 62
7
 10
618.3644826883
 20
546.6516694555
 30
0
 11
618.3644826883
 21
551.2351772317001
 31
0
  0
LINE
  8
0
 62
7
 10
461.3644774431
 20
590.2351817617
 30
0
 11
461.3644774431
 21
556.2351799139
 31
0
  0
LINE
  8
0
 62
7
 10
485.364481377
 20
588.2351777086
 30
0
 11
485.364481377
 21
590.2351817617
 31
0
  0
LINE
  8
0
 62
7
 10
623.3644779199
 20
590.2351817617
 30
0
 11
623.3644779199
 21
588.2351777086
 31
0
  0
LINE
  8
0
 62
7
 10
647.3644818538
 20
556.2351799139
 30
0
 11
647.3644818538
 21
590.2351817617
 31
0
  0
LINE
  8
0
 62
7
 10
499.3644799465
 20
592.3851809034001
 30
0
 11
499.3644799465
 21
591.3851788768
 31
0
  0
LINE
  8
0
 62
7
 10
609.3644793504
 20
591.3851788768
 30
0
 11
609.3644793504
 21
592.3851809034001
 31
0
  0
LINE
  8
0
 62
7
 10
489.3644820326
 20
589.8851832875999
 30
0
 11
489.3644820326
 21
588.2351777086
 31
0
  0
LINE
  8
0
 62
7
 10
619.3644772643
 20
588.2351777086
 30
0
 11
619.3644772643
 21
589.8851832875999
 31
0
  0
LINE
  8
0
 62
7
 10
501.8644812876
 20
590.2351817617
 30
0
 11
501.8644812876
 21
556.2351799139
 31
0
  0
LINE
  8
0
 62
7
 10
525.8644796336
 20
588.2351777086
 30
0
 11
525.8644796336
 21
590.2351817617
 31
0
  0
LINE
  8
0
 62
7
 10
582.8644796634
 20
590.2351817617
 30
0
 11
582.8644796634
 21
588.2351777086
 31
0
  0
LINE
  8
0
 62
7
 10
606.8644780093
 20
556.2351799139
 30
0
 11
606.8644780093
 21
590.2351817617
 31
0
  0
LINE
  8
0
 62
7
 10
501.3644802743
 20
613.8881363296612
 30
0
 11
501.3644802743
 21
613.8822164649389
 31
0
  0
LINE
  8
0
 62
7
 10
607.3644790226
 20
594.3851700553
 30
0
 11
607.3644790226
 21
613.8822162283523
 31
0
  0
LINE
  8
0
 62
7
 10
501.3644802743
 20
600.8851757774
 30
0
 11
426.5644769543
 21
600.8851757774
 31
0
  0
LINE
  8
0
 62
7
 10
482.8644763106
 20
595.8851805457
 30
0
 11
501.3644802743
 21
595.8851805457
 31
0
  0
LINE
  8
0
 62
7
 10
426.5644769543
 20
595.8851805457
 30
0
 11
463.8644825095
 21
595.8851805457
 31
0
  0
LINE
  8
0
 62
7
 10
641.3644771451
 20
545.2351799735
 30
0
 11
641.3644771451
 21
546.2351745495
 31
0
  0
LINE
  8
0
 62
7
 10
629.3644826287
 20
546.2351745495
 30
0
 11
629.3644826287
 21
545.2351799735
 31
0
  0
LINE
  8
0
 62
7
 10
479.3644766682
 20
545.2351799735
 30
0
 11
479.3644766682
 21
546.2351745495
 31
0
  0
LINE
  8
0
 62
7
 10
467.3644821519
 20
546.2351745495
 30
0
 11
467.3644821519
 21
545.2351799735
 31
0
  0
LINE
  8
0
 62
7
 10
462.7034287327
 20
546.9055107364
 30
0
 11
463.8644825095
 21
546.2351745495
 31
0
  0
LINE
  8
0
 62
7
 10
482.8644763106
 20
546.2351745495
 30
0
 11
484.0255300873
 21
546.9055107364
 31
0
  0
LINE
  8
0
 62
7
 10
624.7034292096
 20
546.9055107364
 30
0
 11
625.8644829863
 21
546.2351745495
 31
0
  0
LINE
  8
0
 62
7
 10
644.8644767874
 20
546.2351745495
 30
0
 11
646.0255305642
 21
546.9055107364
 31
0
  0
LINE
  8
0
 62
7
 10
168.2348191971
 20
813.7547661802
 30
0
 11
173.1229554818
 21
812.7030420422
 31
0
  0
LINE
  8
0
 62
7
 10
168.2348191971
 20
789.3547661802
 30
0
 11
173.1229554818
 21
790.4064903181001
 31
0
  0
LINE
  8
0
 62
7
 10
237.9275811562
 20
711.529067167
 30
0
 11
237.9275811562
 21
711.5842074769
 31
0
  0
LINE
  8
0
 62
7
 10
211.9468190427
 20
711.5186863988999
 30
0
 11
211.9468190427
 21
711.5356116449
 31
0
  0
LINE
  8
0
 62
7
 10
243.5920547451
 20
892.0256126679
 30
0
 11
243.5920547451
 21
890.4906128815001
 31
0
  0
LINE
  8
0
 62
7
 10
186.2615398297
 20
885.5798355261001
 30
0
 11
186.2615398297
 21
883.9249354128
 31
0
  0
LINE
  8
0
 62
7
 10
204.8668979904
 20
891.8509291553
 30
0
 11
204.8668979904
 21
890.3136218144
 31
0
  0
LINE
  8
0
 62
7
 10
230.3648079277
 20
893.8385875329
 30
0
 11
230.3648079277
 21
893.2571525151
 31
0
  0
LINE
  8
0
 62
7
 10
197.5410382146
 20
889.9003329699
 30
0
 11
197.5410382146
 21
888.3292392939
 31
0
  0
LINE
  8
0
 62
7
 10
218.6238806999
 20
893.8145479518
 30
0
 11
218.6238806999
 21
892.7597648651
 31
0
  0
LINE
  8
0
 62
7
 10
186.9592407607
 20
885.9228509854
 30
0
 11
186.9592407607
 21
884.2766589906
 31
0
  0
LINE
  8
0
 62
7
 10
205.5645989214
 20
891.9970073397
 30
0
 11
205.5645989214
 21
890.4625344363
 31
0
  0
LINE
  8
0
 62
7
 10
216.1463963754
 20
892.1049716113
 30
0
 11
216.1463963754
 21
893.6347482833
 31
0
  0
LINE
  8
0
 62
7
 10
218.6238806999
 20
893.8145479518
 30
0
 11
216.1463963754
 21
893.6122875584
 31
0
  0
LINE
  8
0
 62
7
 10
213.1230256742
 20
893.2748104831001
 30
0
 11
213.1230256742
 21
891.7619013801
 31
0
  0
LINE
  8
0
 62
7
 10
207.6577017145
 20
892.4082342961
 30
0
 11
207.6577017145
 21
890.8807901558
 31
0
  0
LINE
  8
0
 62
7
 10
210.6810724156
 20
892.9495827051001
 30
0
 11
210.6810724156
 21
891.4311945493
 31
0
  0
LINE
  8
0
 62
7
 10
194.5176675135
 20
888.9115845715
 30
0
 11
194.5176675135
 21
887.3225826086
 31
0
  0
LINE
  8
0
 62
7
 10
189.0523435538
 20
886.8260211217
 30
0
 11
189.0523435538
 21
885.1978387901
 31
0
  0
LINE
  8
0
 62
7
 10
192.0757142549
 20
888.0308598249
 30
0
 11
192.0757142549
 21
886.4246634316
 31
0
  0
LINE
  8
0
 62
7
 10
200.0185225391
 20
890.6265401476001
 30
0
 11
197.5410382146
 21
889.9003329699
 31
0
  0
LINE
  8
0
 62
7
 10
200.0185225391
 20
890.5933170196
 30
0
 11
200.0185225391
 21
890.6265401476001
 31
0
  0
LINE
  8
0
 62
7
 10
232.4396701736
 20
893.7314810728
 30
0
 11
232.4396701736
 21
893.3264622655
 31
0
  0
LINE
  8
0
 62
7
 10
235.8113213231
 20
893.3630999781
 30
0
 11
235.8113213231
 21
892.936014905
 31
0
  0
LINE
  8
0
 62
7
 10
242.9807114048
 20
892.2682489014001
 30
0
 11
242.9807114048
 21
890.7381658737
 31
0
  0
LINE
  8
0
 62
7
 10
250.5428432688
 20
890.0438334167
 30
0
 11
253.2301165246
 21
889.5568125961
 31
0
  0
LINE
  8
0
 62
7
 10
250.5428432688
 20
888.2242064881
 30
0
 11
250.5428432688
 21
890.0438334167
 31
0
  0
LINE
  8
0
 62
7
 10
262.8623378536
 20
885.4981346597
 30
0
 11
262.8623378536
 21
883.6157494557
 31
0
  0
LINE
  8
0
 62
7
 10
253.2660999665
 20
889.1879595944
 30
0
 11
262.8623378536
 21
885.4981346597
 31
0
  0
LINE
  8
0
 62
7
 10
242.2026380626
 20
891.8186080992
 30
0
 11
242.2026380626
 21
890.2784177943
 31
0
  0
LINE
  8
0
 62
7
 10
243.5920547451
 20
892.0256126679
 30
0
 11
242.9807114048
 21
892.1419338442
 31
0
  0
LINE
  8
0
 62
7
 10
239.5720091437
 20
892.5005159260001
 30
0
 11
240.0907247052
 21
892.7916265693
 31
0
  0
LINE
  8
0
 62
7
 10
230.8835234892
 20
893.5066687396
 30
0
 11
239.5720091437
 21
892.5005159260001
 31
0
  0
LINE
  8
0
 62
7
 10
230.8835234892
 20
892.9778769512
 30
0
 11
230.8835234892
 21
893.5066687396
 31
0
  0
LINE
  8
0
 62
7
 10
242.2026380626
 20
891.8186080992
 30
0
 11
230.8835234892
 21
893.313599888
 31
0
  0
LINE
  8
0
 62
7
 10
228.11262658
 20
709.1112144865
 30
0
 11
234.4634795411
 21
709.5496931933
 31
0
  0
LINE
  8
0
 62
7
 10
234.4634795411
 20
709.5496931933
 30
0
 11
232.633026417
 21
709.4760090907
 31
0
  0
LINE
  8
0
 62
7
 10
229.2673271184
 20
709.1927145877
 30
0
 11
237.9275811562
 21
710.0129402931
 31
0
  0
LINE
  8
0
 62
7
 10
215.4109206578
 20
709.5470733573
 30
0
 11
217.4201049638
 21
709.4684115396
 31
0
  0
LINE
  8
0
 62
7
 10
221.3911951823
 20
709.1360194375
 30
0
 11
215.4109206578
 21
709.5470733573
 31
0
  0
LINE
  8
0
 62
7
 10
229.2673271184
 20
709.1927145877
 30
0
 11
229.2673271184
 21
709.3632515374
 31
0
  0
LINE
  8
0
 62
7
 10
228.7345395101
 20
709.2424333858
 30
0
 11
229.2673271184
 21
709.1927145877
 31
0
  0
LINE
  8
0
 62
7
 10
220.6070730805
 20
709.1907248571
 30
0
 11
220.6070730805
 21
709.3632515374
 31
0
  0
LINE
  8
0
 62
7
 10
221.0246606553
 20
709.2298984872
 30
0
 11
220.6070730805
 21
709.1907248571
 31
0
  0
LINE
  8
0
 62
7
 10
199.9372000995
 20
887.0985502508876
 30
0
 11
199.9372000995
 21
884.037989559551
 31
0
  0
LINE
  8
0
 62
7
 10
201.6872000995
 20
716.8782207123001
 30
0
 11
199.9372000995
 21
717.3974043137
 31
0
  0
LINE
  8
0
 62
7
 10
199.9372000995
 20
719.0715428008
 30
0
 11
199.9372000995
 21
716.0109821095
 31
0
  0
LINE
  8
0
 62
7
 10
201.6872000995
 20
715.5113288713
 30
0
 11
199.9372000995
 21
716.0109821095
 31
0
  0
LINE
  8
0
 62
7
 10
249.9372000995
 20
716.6639469998
 30
0
 11
249.9372000995
 21
718.3081173396
 31
0
  0
LINE
  8
0
 62
7
 10
249.9372000995
 20
886.4455853605
 30
0
 11
249.9372000995
 21
884.8014150207
 31
0
  0
LINE
  8
0
 62
7
 10
105.4402246153
 20
798.5547661802
 30
0
 11
129.7166384164
 21
798.5547661802
 31
0
  0
LINE
  8
0
 62
7
 10
105.4402246153
 20
804.5547661802
 30
0
 11
129.7166384164
 21
804.5547661802
 31
0
  0
LINE
  8
0
 62
7
 10
64.9372000995
 20
864.0547661802
 30
0
 11
64.9372000995
 21
739.0547661802
 31
0
  0
LINE
  8
0
 62
7
 10
364.9372000995
 20
864.0547661802
 30
0
 11
364.9372000995
 21
739.0547661802
 31
0
  0
LINE
  8
0
 62
7
 10
344.9372000995
 20
798.5547661802
 30
0
 11
307.8742886906
 21
798.5547661802
 31
0
  0
LINE
  8
0
 62
7
 10
307.8742886906
 20
804.5547661802
 30
0
 11
344.9372000995
 21
804.5547661802
 31
0
  0
LINE
  8
0
 62
7
 10
211.9468190427
 20
711.5186863988999
 30
0
 11
217.8182792484
 21
710.9588860505
 31
0
  0
LINE
  8
0
 62
7
 10
199.9372000995
 20
719.0715428008
 30
0
 11
201.6872000995
 21
718.574109529
 31
0
  0
LINE
  8
0
 62
7
 10
216.1463963754
 20
892.1049716113
 30
0
 11
218.0222682559
 21
892.2606439715
 31
0
  0
LINE
  8
0
 62
7
 10
200.0185225391
 20
890.6265401476001
 30
0
 11
200.0185225391
 21
889.050501433
 31
0
  0
LINE
  8
0
 62
7
 10
197.5410382146
 20
888.3292392939
 30
0
 11
200.0185225391
 21
889.068340769
 31
0
  0
LINE
  8
0
 62
7
 10
237.9275811562
 20
711.529067167
 30
0
 11
231.935853046
 21
710.9520449951
 31
0
  0
LINE
  8
0
 62
7
 10
236.4875450087
 20
711.3945210646
 30
0
 11
237.9275811562
 21
711.529067167
 31
0
  0
LINE
  8
0
 62
7
 10
66.9372000995
 20
696.0547661802
 30
0
 11
66.9372000995
 21
907.0547661802
 31
0
  0
LINE
  8
0
 62
7
 10
84.9372000995
 20
696.0547661802
 30
0
 11
84.9372000995
 21
907.0547661802
 31
0
  0
LINE
  8
0
 62
7
 10
344.9372000995
 20
696.0547661802
 30
0
 11
344.9372000995
 21
907.0547661802
 31
0
  0
LINE
  8
0
 62
7
 10
362.9372000995
 20
696.0547661802
 30
0
 11
362.9372000995
 21
907.0547661802
 31
0
  0
LINE
  8
0
 62
7
 10
278.9389919181
 20
791.1237316974
 30
0
 11
279.0204692314
 21
791.5547661802
 31
0
  0
LINE
  8
0
 62
7
 10
279.0204692314
 20
811.5547661802
 30
0
 11
278.9389919181
 21
811.9858006629
 31
0
  0
LINE
  8
0
 62
7
 10
147.8839985034
 20
798.3616728874
 30
0
 11
147.8839985034
 21
795.2408292621
 31
0
  0
LINE
  8
0
 62
7
 10
147.3985339395
 20
795.9600008372
 30
0
 11
147.3985339395
 21
798.3616728874
 31
0
  0
LINE
  8
0
 62
7
 10
147.3985339395
 20
798.3616728874
 30
0
 11
147.8839985034
 21
798.3616728874
 31
0
  0
LINE
  8
0
 62
7
 10
142.8839985034
 20
798.2096683272
 30
0
 11
143.3694630674
 21
798.2096683272
 31
0
  0
LINE
  8
0
 62
7
 10
144.9873616043
 20
798.0272628551001
 30
0
 11
145.4728261683
 21
798.0272628551001
 31
0
  0
LINE
  8
0
 62
7
 10
143.3694630674
 20
795.9600008372
 30
0
 11
144.9873616043
 21
795.9600008372
 31
0
  0
LINE
  8
0
 62
7
 10
143.3694630674
 20
798.2096683272
 30
0
 11
143.3694630674
 21
795.9600008372
 31
0
  0
LINE
  8
0
 62
7
 10
142.8839985034
 20
795.2408292621
 30
0
 11
142.8839985034
 21
798.2096683272
 31
0
  0
LINE
  8
0
 62
7
 10
147.8839985034
 20
795.2408292621
 30
0
 11
142.8839985034
 21
795.2408292621
 31
0
  0
LINE
  8
0
 62
7
 10
145.4728261683
 20
795.9600008372
 30
0
 11
147.3985339395
 21
795.9600008372
 31
0
  0
LINE
  8
0
 62
7
 10
145.4728261683
 20
798.0272628551001
 30
0
 11
145.4728261683
 21
795.9600008372
 31
0
  0
LINE
  8
0
 62
7
 10
144.9873616043
 20
795.9600008372
 30
0
 11
144.9873616043
 21
798.0272628551001
 31
0
  0
LINE
  8
0
 62
7
 10
145.9620908462
 20
802.3928338222
 30
0
 11
145.9620908462
 21
803.1224557108
 31
0
  0
LINE
  8
0
 62
7
 10
144.628250831
 20
803.0920547988
 30
0
 11
144.628250831
 21
802.4232347342
 31
0
  0
LINE
  8
0
 62
7
 10
212.9372000995
 20
720.5547661802
 30
0
 11
212.9372000995001
 21
723.3818808554
 31
0
  0
LINE
  8
0
 62
7
 10
236.9372000994998
 20
723.3818808554
 30
0
 11
236.9372000995001
 21
720.5547661802
 31
0
  0
LINE
  8
0
 62
7
 10
148.7891423929
 20
771.4470710256001
 30
0
 11
151.2374955211
 21
772.8606283631777
 31
0
  0
LINE
  8
0
 62
7
 10
163.2374955211
 20
752.0760186724
 30
0
 11
160.7891423929
 21
750.6624613347
 31
0
  0
LINE
  8
0
 62
7
 10
289.085257806
 20
750.6624613347
 30
0
 11
286.6369046778
 21
752.0760186724
 31
0
  0
LINE
  8
0
 62
7
 10
298.6369046778595
 20
772.8606283631657
 30
0
 11
301.085257806
 21
771.4470710256001
 31
0
  0
LINE
  8
0
 62
7
 10
301.085257806
 20
831.6624613347
 30
0
 11
298.6369046778
 21
830.2489039971222
 31
0
  0
LINE
  8
0
 62
7
 10
151.2374955210406
 20
830.2489039971343
 30
0
 11
148.7891423929
 21
831.6624613347
 31
0
  0
LINE
  8
0
 62
7
 10
286.6369046777407
 20
851.0335136879658
 30
0
 11
289.085257806
 21
852.4470710256001
 31
0
  0
LINE
  8
0
 62
7
 10
160.7891423929
 20
852.4470710256001
 30
0
 11
163.2374955211
 21
851.033513688
 31
0
  0
LINE
  8
0
 62
7
 10
212.9372000995001
 20
879.7276515049
 30
0
 11
212.9372000995
 21
882.5547661802
 31
0
  0
LINE
  8
0
 62
7
 10
236.9372000995001
 20
882.5547661802
 30
0
 11
236.9372000994999
 21
879.7276515049
 31
0
  0
LINE
  8
0
 62
7
 10
208.9997000995
 20
728.2676861882
 30
0
 11
206.6872000995
 21
728.8090618396
 31
0
  0
LINE
  8
0
 62
7
 10
161.4779596366879
 20
815.6233410861028
 30
0
 11
151.7149995654849
 21
817.7877372254673
 31
0
  0
LINE
  8
0
 62
7
 10
161.477959636709
 20
787.486191274202
 30
0
 11
151.7149995655061
 21
785.3217951348374
 31
0
  0
LINE
  8
0
 62
7
 10
162.3372799717483
 20
784.0547661802249
 30
0
 11
172.0221738782076
 21
786.5547661802019
 31
0
  0
LINE
  8
0
 62
7
 10
172.0221738782076
 20
816.554766180198
 30
0
 11
162.3372799717483
 21
819.0547661801751
 31
0
  0
LINE
  8
0
 62
7
 10
282.3828265648
 20
793.5547661802
 30
0
 11
283.9372000995
 21
793.5547661802
 31
0
  0
LINE
  8
0
 62
7
 10
283.9372000995
 20
809.5547661802
 30
0
 11
282.3828265648
 21
809.5547661802
 31
0
  0
LINE
  8
0
 62
7
 10
279.0561170743
 20
811.5547661802
 30
0
 11
278.9389919181
 21
811.9858006629
 31
0
  0
LINE
  8
0
 62
7
 10
278.9389919181
 20
791.1237316974
 30
0
 11
279.0561170743
 21
791.5547661802
 31
0
  0
LINE
  8
0
 62
7
 10
284.6872000995
 20
796.6113361968
 30
0
 11
284.6872000995
 21
806.4981961635
 31
0
  0
LINE
  8
0
 62
7
 10
282.733810269
 20
796.7017410498
 30
0
 11
283.1872000995
 21
796.6113361968
 31
0
  0
LINE
  8
0
 62
7
 10
283.1872000995
 20
806.4981961635
 30
0
 11
282.733810269
 21
806.4077913105
 31
0
  0
LINE
  8
0
 62
7
 10
283.1872000995
 20
806.4981961635
 30
0
 11
283.1872000995
 21
796.6113361968
 31
0
  0
LINE
  8
0
 62
7
 10
170.2073179509
 20
787.3547661802
 30
0
 11
164.4372000995
 21
787.3547661802
 31
0
  0
LINE
  8
0
 62
7
 10
162.4372000995
 20
789.3547661802
 30
0
 11
162.4372000995
 21
813.7547661802
 31
0
  0
LINE
  8
0
 62
7
 10
164.4372000995
 20
815.7547661802
 30
0
 11
170.2073179509
 21
815.7547661801999
 31
0
  0
LINE
  8
0
 62
7
 10
280.3628259417
 20
811.5547661802
 30
0
 11
278.6121477007
 21
811.5547661802
 31
0
  0
LINE
  8
0
 62
7
 10
278.6121477007
 20
791.5547661802
 30
0
 11
280.3628259417
 21
791.5547661802
 31
0
  0
LINE
  8
0
 62
7
 10
261.9372000995
 20
776.5547661802
 30
0
 11
261.9372000995
 21
806.5547661802
 31
0
  0
LINE
  8
0
 62
7
 10
261.9372000995
 20
806.5547661802
 30
0
 11
249.9372000995
 21
806.5547661802
 31
0
  0
LINE
  8
0
 62
7
 10
249.9372000995
 20
776.5547661802
 30
0
 11
261.9372000995
 21
776.5547661802
 31
0
  0
LINE
  8
0
 62
7
 10
249.9372000995
 20
806.5547661802
 30
0
 11
249.9372000995
 21
776.5547661802
 31
0
  0
LINE
  8
0
 62
7
 10
218.0372000995
 20
802.6547661802
 30
0
 11
222.4372000995
 21
802.6547661802
 31
0
  0
LINE
  8
0
 62
7
 10
218.0372000995
 20
802.6547661802
 30
0
 11
218.0372000995
 21
807.0547661802
 31
0
  0
LINE
  8
0
 62
7
 10
215.8372000995
 20
807.0547661802
 30
0
 11
218.0372000995
 21
807.0547661802
 31
0
  0
LINE
  8
0
 62
7
 10
215.8372000995
 20
802.6547661802
 30
0
 11
215.8372000995
 21
807.0547661802
 31
0
  0
LINE
  8
0
 62
7
 10
211.4372000995
 20
802.6547661802
 30
0
 11
215.8372000995
 21
802.6547661802
 31
0
  0
LINE
  8
0
 62
7
 10
211.4372000995
 20
800.4547661802
 30
0
 11
211.4372000995
 21
802.6547661802
 31
0
  0
LINE
  8
0
 62
7
 10
211.4372000995
 20
800.4547661802
 30
0
 11
215.8372000995
 21
800.4547661802
 31
0
  0
LINE
  8
0
 62
7
 10
215.8372000995
 20
796.0547661802
 30
0
 11
215.8372000995
 21
800.4547661802
 31
0
  0
LINE
  8
0
 62
7
 10
215.8372000995
 20
796.0547661802
 30
0
 11
218.0372000995
 21
796.0547661802
 31
0
  0
LINE
  8
0
 62
7
 10
218.0372000995
 20
796.0547661802
 30
0
 11
218.0372000995
 21
800.4547661802
 31
0
  0
LINE
  8
0
 62
7
 10
218.0372000995
 20
800.4547661802
 30
0
 11
222.4372000995
 21
800.4547661802
 31
0
  0
LINE
  8
0
 62
7
 10
222.4372000995
 20
800.4547661802
 30
0
 11
222.4372000995
 21
802.6547661802
 31
0
  0
LINE
  8
0
 62
7
 10
198.9372000995
 20
783.5547661802
 30
0
 11
198.9372000995
 21
819.5547661802
 31
0
  0
LINE
  8
0
 62
7
 10
198.9372000995
 20
819.5547661802
 30
0
 11
188.9372000995
 21
819.5547661802
 31
0
  0
LINE
  8
0
 62
7
 10
188.9372000995
 20
819.5547661802
 30
0
 11
188.9372000995
 21
783.5547661802
 31
0
  0
LINE
  8
0
 62
7
 10
188.9372000995
 20
783.5547661802
 30
0
 11
198.9372000995
 21
783.5547661802
 31
0
  0
LINE
  8
0
 62
7
 10
224.4372000995
 20
814.5451472369
 30
0
 11
216.9372000995
 21
810.215020218
 31
0
  0
LINE
  8
0
 62
7
 10
216.9372000995
 20
810.215020218
 30
0
 11
209.4372000995
 21
814.5451472369
 31
0
  0
LINE
  8
0
 62
7
 10
224.4372000995
 20
805.8848931991
 30
0
 11
224.4372000995
 21
814.5451472369
 31
0
  0
LINE
  8
0
 62
7
 10
211.4372000995
 20
811.0810456217999
 30
0
 11
211.4372000995
 21
804.7301926607
 31
0
  0
LINE
  8
0
 62
7
 10
216.9372000995
 20
807.9056191412
 30
0
 11
211.4372000995
 21
811.0810456217999
 31
0
  0
LINE
  8
0
 62
7
 10
222.4372000995
 20
811.0810456217999
 30
0
 11
216.9372000995
 21
807.9056191412
 31
0
  0
LINE
  8
0
 62
7
 10
222.4372000995
 20
804.7301926607
 30
0
 11
222.4372000995
 21
811.0810456217999
 31
0
  0
LINE
  8
0
 62
7
 10
227.9372000995
 20
801.5547661802
 30
0
 11
222.4372000995
 21
804.7301926607
 31
0
  0
LINE
  8
0
 62
7
 10
222.4372000995
 20
798.3793396996
 30
0
 11
227.9372000995
 21
801.5547661802
 31
0
  0
LINE
  8
0
 62
7
 10
222.4372000995
 20
792.0284867385
 30
0
 11
222.4372000995
 21
798.3793396996
 31
0
  0
LINE
  8
0
 62
7
 10
216.9372000995
 20
795.2039132191
 30
0
 11
222.4372000995
 21
792.0284867385
 31
0
  0
LINE
  8
0
 62
7
 10
211.4372000995
 20
792.0284867385
 30
0
 11
216.9372000995
 21
795.2039132191
 31
0
  0
LINE
  8
0
 62
7
 10
211.4372000995
 20
798.3793396996
 30
0
 11
211.4372000995
 21
792.0284867385
 31
0
  0
LINE
  8
0
 62
7
 10
205.9372000995
 20
801.5547661802
 30
0
 11
211.4372000995
 21
798.3793396996
 31
0
  0
LINE
  8
0
 62
7
 10
211.4372000995
 20
804.7301926607
 30
0
 11
205.9372000995
 21
801.5547661802
 31
0
  0
LINE
  8
0
 62
7
 10
209.4372000995
 20
814.5451472369
 30
0
 11
209.4372000995
 21
805.8848931991
 31
0
  0
LINE
  8
0
 62
7
 10
209.4372000995
 20
805.8848931991
 30
0
 11
201.9372000995
 21
801.5547661802
 31
0
  0
LINE
  8
0
 62
7
 10
201.9372000995
 20
801.5547661802
 30
0
 11
209.4372000995
 21
797.2246391612
 31
0
  0
LINE
  8
0
 62
7
 10
209.4372000995
 20
797.2246391612
 30
0
 11
209.4372000995
 21
788.5643851234
 31
0
  0
LINE
  8
0
 62
7
 10
209.4372000995
 20
788.5643851234
 30
0
 11
216.9372000995
 21
792.8945121423
 31
0
  0
LINE
  8
0
 62
7
 10
216.9372000995
 20
792.8945121423
 30
0
 11
224.4372000995
 21
788.5643851234
 31
0
  0
LINE
  8
0
 62
7
 10
224.4372000995
 20
788.5643851234
 30
0
 11
224.4372000995
 21
797.2246391612
 31
0
  0
LINE
  8
0
 62
7
 10
224.4372000995
 20
797.2246391612
 30
0
 11
231.9372000995
 21
801.5547661802
 31
0
  0
LINE
  8
0
 62
7
 10
231.9372000995
 20
801.5547661802
 30
0
 11
224.4372000995
 21
805.8848931991
 31
0
  0
LINE
  8
0
 62
7
 10
256.2057921572
 20
817.5393377173
 30
0
 11
261.8329249712
 21
817.5393377173
 31
0
  0
LINE
  8
0
 62
7
 10
254.9489044506
 20
811.9401357412
 30
0
 11
255.8035880911
 21
811.9401357412
 31
0
  0
LINE
  8
0
 62
7
 10
254.9489044506
 20
810.7111788725
 30
0
 11
254.9489044506
 21
811.9401357412
 31
0
  0
LINE
  8
0
 62
7
 10
261.8329249712
 20
810.7111788725
 30
0
 11
254.9489044506
 21
810.7111788725
 31
0
  0
LINE
  8
0
 62
7
 10
261.8329249712
 20
811.9401357412
 30
0
 11
261.8329249712
 21
810.7111788725
 31
0
  0
LINE
  8
0
 62
7
 10
257.2615778308
 20
811.9401357412
 30
0
 11
261.8329249712
 21
811.9401357412
 31
0
  0
LINE
  8
0
 62
7
 10
261.8329249712
 20
813.4819179947
 30
0
 11
256.6079962234
 21
813.4819179947
 31
0
  0
LINE
  8
0
 62
7
 10
261.8329249712
 20
814.7108748634
 30
0
 11
261.8329249712
 21
813.4819179947
 31
0
  0
LINE
  8
0
 62
7
 10
257.2615778308
 20
814.7108748634
 30
0
 11
261.8329249712
 21
814.7108748634
 31
0
  0
LINE
  8
0
 62
7
 10
261.8329249712
 20
816.3103808486
 30
0
 11
256.6582717316
 21
816.3103808486
 31
0
  0
LINE
  8
0
 62
7
 10
261.8329249712
 20
817.5393377173
 30
0
 11
261.8329249712
 21
816.3103808486
 31
0
  0
LINE
  8
0
 62
7
 10
246.9372000995
 20
774.5547661802
 30
0
 11
246.9372000995
 21
828.5547661802
 31
0
  0
LINE
  8
0
 62
7
 10
246.9372000995
 20
828.5547661802
 30
0
 11
234.9372000995
 21
828.5547661802
 31
0
  0
LINE
  8
0
 62
7
 10
234.9372000995
 20
774.5547661802
 30
0
 11
246.9372000995
 21
774.5547661802
 31
0
  0
LINE
  8
0
 62
7
 10
234.9372000995
 20
828.5547661802
 30
0
 11
234.9372000995
 21
774.5547661802
 31
0
  0
LINE
  8
0
 62
7
 10
256.2057921572
 20
826.5393377173
 30
0
 11
261.8329249712
 21
826.5393377173
 31
0
  0
LINE
  8
0
 62
7
 10
254.9489044506
 20
820.9401357412
 30
0
 11
255.8035880911
 21
820.9401357412
 31
0
  0
LINE
  8
0
 62
7
 10
254.9489044506
 20
819.7111788725
 30
0
 11
254.9489044506
 21
820.9401357412
 31
0
  0
LINE
  8
0
 62
7
 10
261.8329249712
 20
819.7111788725
 30
0
 11
254.9489044506
 21
819.7111788725
 31
0
  0
LINE
  8
0
 62
7
 10
261.8329249712
 20
820.9401357412
 30
0
 11
261.8329249712
 21
819.7111788725
 31
0
  0
LINE
  8
0
 62
7
 10
257.2615778308
 20
820.9401357412
 30
0
 11
261.8329249712
 21
820.9401357412
 31
0
  0
LINE
  8
0
 62
7
 10
261.8329249712
 20
822.4819179947
 30
0
 11
256.6079962234
 21
822.4819179947
 31
0
  0
LINE
  8
0
 62
7
 10
261.8329249712
 20
823.7108748634
 30
0
 11
261.8329249712
 21
822.4819179947
 31
0
  0
LINE
  8
0
 62
7
 10
257.2615778308
 20
823.7108748634
 30
0
 11
261.8329249712
 21
823.7108748634
 31
0
  0
LINE
  8
0
 62
7
 10
261.8329249712
 20
825.3103808486
 30
0
 11
256.6582717316
 21
825.3103808486
 31
0
  0
LINE
  8
0
 62
7
 10
261.8329249712
 20
826.5393377173
 30
0
 11
261.8329249712
 21
825.3103808486
 31
0
  0
LINE
  8
0
 62
7
 10
201.6872000995
 20
673.7547661802
 30
0
 11
206.6872000995
 21
673.7547661802
 31
0
  0
LINE
  8
0
 62
7
 10
218.7286501503
 20
893.8463505758
 30
0
 11
217.8145404958
 21
893.7484738836
 31
0
  0
LINE
  8
0
 62
7
 10
210.6883608415
 20
892.9239416718
 30
0
 11
209.7664247359
 21
892.7509290991
 31
0
  0
LINE
  8
0
 62
7
 10
207.6708360028
 20
892.3576662732
 30
0
 11
204.9404273155
 21
891.8452717279
 31
0
  0
LINE
  8
0
 62
7
 10
200.1545520192
 20
890.6775519293
 30
0
 11
197.5642338581
 21
889.8369187372
 31
0
  0
LINE
  8
0
 62
7
 10
191.2655353888
 20
887.6716917186
 30
0
 11
187.0066047966
 21
885.8711176344
 31
0
  0
LINE
  8
0
 62
7
 10
256.122920611
 20
888.6125691939
 30
0
 11
253.22959655
 21
889.5552165246
 31
0
  0
LINE
  8
0
 62
7
 10
242.9138927428
 20
892.2627041778
 30
0
 11
239.4271239529
 21
892.8527855668
 31
0
  0
LINE
  8
0
 62
7
 10
234.0976738556
 20
893.5374682741
 30
0
 11
231.0468801387
 21
893.8268612379
 31
0
  0
LINE
  8
0
 62
7
 10
333.9496683888
 20
756.2921418995001
 30
0
 11
338.1575156156
 21
754.8813434572001
 31
0
  0
LINE
  8
0
 62
7
 10
338.1575156156
 20
848.2281889031
 30
0
 11
333.8435312318
 21
846.7607793514
 31
0
  0
LINE
  8
0
 62
7
 10
64.9372000995
 20
739.0547661802
 30
0
 11
66.9372000995
 21
737.0547661802
 31
0
  0
LINE
  8
0
 62
7
 10
66.9372000995
 20
866.0547661802
 30
0
 11
64.9372000995
 21
864.0547661802
 31
0
  0
LINE
  8
0
 62
7
 10
364.9372000995
 20
864.0547661802
 30
0
 11
362.9372000995
 21
866.0547661802
 31
0
  0
LINE
  8
0
 62
7
 10
362.9372000995
 20
737.0547661802
 30
0
 11
364.9372000995
 21
739.0547661802
 31
0
  0
LINE
  8
0
 62
7
 10
214.536728865
 20
891.8895843116
 30
0
 11
213.9548130885
 21
891.8186592064
 31
0
  0
LINE
  8
0
 62
7
 10
197.5746891592
 20
888.2197024634
 30
0
 11
196.2727226599
 21
887.8313836954
 31
0
  0
LINE
  8
0
 62
7
 10
193.324558237
 20
886.8502691259
 30
0
 11
189.4932537447
 21
885.2577467523
 31
0
  0
LINE
  8
0
 62
7
 10
189.4932537447
 20
885.2577467523
 30
0
 11
188.764144309
 21
884.9546846773
 31
0
  0
LINE
  8
0
 62
7
 10
267.9096309945
 20
881.7602416329
 30
0
 11
262.8623378536
 21
884.0777068169
 31
0
  0
LINE
  8
0
 62
7
 10
84.9372000995
 20
907.0547661802
 30
0
 11
66.9372000995
 21
907.0547661802
 31
0
  0
LINE
  8
0
 62
7
 10
66.9372000995
 20
696.0547661802
 30
0
 11
84.9372000995
 21
696.0547661802
 31
0
  0
LINE
  8
0
 62
7
 10
344.9372000995
 20
696.0547661802
 30
0
 11
362.9372000995
 21
696.0547661802
 31
0
  0
LINE
  8
0
 62
7
 10
362.9372000995
 20
907.0547661802
 30
0
 11
344.9372000995
 21
907.0547661802
 31
0
  0
LINE
  8
0
 62
7
 10
201.6872000995
 20
753.9266494842
 30
0
 11
201.6872000995
 21
673.7547661802
 31
0
  0
LINE
  8
0
 62
7
 10
206.6872000995
 20
673.7547661802
 30
0
 11
206.6872000995
 21
751.7959729874
 31
0
  0
LINE
  8
0
 62
7
 10
283.9372000995
 20
591.3851763973
 30
0
 11
283.9372000995
 21
594.3851763973
 31
0
  0
LINE
  8
0
 62
7
 10
281.8845441991
 20
592.3851763973
 30
0
 11
281.8845441991
 21
591.3851763973
 31
0
  0
LINE
  8
0
 62
7
 10
276.6603314243
 20
611.8851763973
 30
0
 11
276.6603314243
 21
613.8851763973
 31
0
  0
LINE
  8
0
 62
7
 10
174.9254112395
 20
605.3851763973
 30
0
 11
174.9254112395
 21
595.3851763973
 31
0
  0
LINE
  8
0
 62
7
 10
174.9254112395
 20
595.3851763973
 30
0
 11
174.8985748228
 21
594.3851763973
 31
0
  0
LINE
  8
0
 62
7
 10
200.1872000995
 20
603.3851763973
 30
0
 11
200.1872000995
 21
598.5713170589
 31
0
  0
LINE
  8
0
 62
7
 10
338.5983257531
 20
522.7412854251001
 30
0
 11
315.2210143061
 21
513.5439953724
 31
0
  0
LINE
  8
0
 62
7
 10
190.1639664248
 20
357.8271273563
 30
0
 11
189.9372000995
 21
355.2351763973
 31
0
  0
LINE
  8
0
 62
7
 10
174.3989099753
 20
361.3878606708
 30
0
 11
174.9372000995
 21
355.2351763973
 31
0
  0
LINE
  8
0
 62
7
 10
174.9372000995
 20
355.2351763973
 30
0
 11
189.9372000995
 21
355.2351763973
 31
0
  0
LINE
  8
0
 62
7
 10
259.4254518487
 20
361.0844856697
 30
0
 11
259.9372000995
 21
355.2351763973
 31
0
  0
LINE
  8
0
 62
7
 10
259.9372000995
 20
355.2351763973
 30
0
 11
274.9372000995
 21
355.2351763973
 31
0
  0
LINE
  8
0
 62
7
 10
275.9798884493
 20
367.153158771
 30
0
 11
274.9372000995
 21
355.2351763973
 31
0
  0
LINE
  8
0
 62
7
 10
338.6840712928
 20
387.7622361977
 30
0
 11
308.788578819
 21
399.8438196069
 31
0
  0
LINE
  8
0
 62
7
 10
294.0425813069
 20
542.7883037236001
 30
0
 11
290.6181335495
 21
545.2351763973001
 31
0
  0
LINE
  8
0
 62
7
 10
329.0010841973
 20
498.6905911735
 30
0
 11
338.1575156156
 21
501.8120847176
 31
0
  0
LINE
  8
0
 62
7
 10
221.388155267
 20
367.2258137008
 30
0
 11
222.4372000995
 21
355.2351763973
 31
0
  0
LINE
  8
0
 62
7
 10
222.4372000995
 20
355.2351763973
 30
0
 11
227.4372000995
 21
355.2351763973
 31
0
  0
LINE
  8
0
 62
7
 10
228.4798884493
 20
367.153158771
 30
0
 11
227.4372000995
 21
355.2351763973
 31
0
  0
LINE
  8
0
 62
7
 10
278.5915265689
 20
544.2496304585
 30
0
 11
276.2330511338
 21
543.9741476458
 31
0
  0
LINE
  8
0
 62
7
 10
280.3628259417
 20
544.4993501033
 30
0
 11
278.5915265689
 21
544.2496304585
 31
0
  0
LINE
  8
0
 62
7
 10
64.9372000995
 20
517.7351763973001
 30
0
 11
64.9372000995
 21
392.7351763973
 31
0
  0
LINE
  8
0
 62
7
 10
364.9372000995
 20
517.7351763973001
 30
0
 11
364.9372000995
 21
392.7351763973
 31
0
  0
LINE
  8
0
 62
7
 10
174.3989099753
 20
361.3878606708
 30
0
 11
168.694174636
 21
363.1769651475
 31
0
  0
LINE
  8
0
 62
7
 10
224.9372000995
 20
367.0889442332
 30
0
 11
228.4798884493
 21
367.153158771
 31
0
  0
LINE
  8
0
 62
7
 10
273.8152269056
 20
366.1533087348
 30
0
 11
275.9798884493
 21
367.153158771
 31
0
  0
LINE
  8
0
 62
7
 10
233.9372000995
 20
407.7351763973
 30
0
 11
233.9372000995
 21
395.7351763973
 31
0
  0
LINE
  8
0
 62
7
 10
215.9372000995
 20
407.7351763973
 30
0
 11
233.9372000995
 21
407.7351763973
 31
0
  0
LINE
  8
0
 62
7
 10
215.9372000995
 20
395.7351763973
 30
0
 11
215.9372000995
 21
407.7351763973
 31
0
  0
LINE
  8
0
 62
7
 10
233.9372000995
 20
395.7351763973
 30
0
 11
215.9372000995
 21
395.7351763973
 31
0
  0
LINE
  8
0
 62
7
 10
229.2953988454
 20
405.3096586317
 30
0
 11
230.540316193
 21
405.3096586317
 31
0
  0
LINE
  8
0
 62
7
 10
229.2953988454
 20
398.3096586317
 30
0
 11
229.2953988454
 21
405.3096586317
 31
0
  0
LINE
  8
0
 62
7
 10
230.540316193
 20
398.3096586317
 30
0
 11
229.2953988454
 21
398.3096586317
 31
0
  0
LINE
  8
0
 62
7
 10
230.1452943423
 20
398.9893090212
 30
0
 11
230.540316193
 21
398.9893090212
 31
0
  0
LINE
  8
0
 62
7
 10
230.1452943423
 20
404.6300082422
 30
0
 11
230.1452943423
 21
398.9893090212
 31
0
  0
LINE
  8
0
 62
7
 10
230.540316193
 20
404.6300082422
 30
0
 11
230.1452943423
 21
404.6300082422
 31
0
  0
LINE
  8
0
 62
7
 10
307.9372000995
 20
556.2351763973001
 30
0
 11
141.9372000995
 21
556.2351763973001
 31
0
  0
LINE
  8
0
 62
7
 10
231.9372000995
 20
515.2351763973001
 30
0
 11
231.9372000995
 21
512.2351763973001
 31
0
  0
LINE
  8
0
 62
7
 10
231.9372000995
 20
505.2351763973
 30
0
 11
231.9372000995
 21
508.2351763973
 31
0
  0
LINE
  8
0
 62
7
 10
249.9372000995
 20
510.2351763973
 30
0
 11
231.9372000995
 21
505.2351763973
 31
0
  0
LINE
  8
0
 62
7
 10
249.9372000995
 20
510.2351763973
 30
0
 11
231.9372000995
 21
515.2351763973001
 31
0
  0
LINE
  8
0
 62
7
 10
231.9372000995
 20
512.2351763973001
 30
0
 11
199.9372000995
 21
512.2351763973001
 31
0
  0
LINE
  8
0
 62
7
 10
199.9372000995
 20
512.2351763973001
 30
0
 11
199.9372000995
 21
508.2351763973
 31
0
  0
LINE
  8
0
 62
7
 10
231.9372000995
 20
508.2351763973
 30
0
 11
199.9372000995
 21
508.2351763973
 31
0
  0
LINE
  8
0
 62
7
 10
224.9372000995
 20
495.2351763973
 30
0
 11
224.9386554223
 21
495.2326557042
 31
0
  0
LINE
  8
0
 62
7
 10
224.9372000994717
 20
495.2351763972509
 30
0
 11
220.6070730805
 21
487.7351763973
 31
0
  0
LINE
  8
0
 62
7
 10
220.6070730805
 20
487.7351763973
 30
0
 11
211.9468190427
 21
487.7351763973
 31
0
  0
LINE
  8
0
 62
7
 10
211.9468190427
 20
487.7351763973
 30
0
 11
216.2769460616
 21
480.2351763973
 31
0
  0
LINE
  8
0
 62
7
 10
216.2769460616
 20
480.2351763973
 30
0
 11
211.9468190427
 21
472.7351763973
 31
0
  0
LINE
  8
0
 62
7
 10
211.9468190427
 20
472.7351763973
 30
0
 11
220.6070730805
 21
472.7351763973
 31
0
  0
LINE
  8
0
 62
7
 10
220.6070730805
 20
472.7351763973
 30
0
 11
224.9372000995184
 21
465.2351763972682
 31
0
  0
LINE
  8
0
 62
7
 10
224.9394999784
 20
469.2391599044
 30
0
 11
224.9372000995
 21
469.2351763973
 31
0
  0
LINE
  8
0
 62
7
 10
221.7617736189
 20
474.7351763973
 30
0
 11
224.9372000995213
 21
469.2351763972631
 31
0
  0
LINE
  8
0
 62
7
 10
215.4109206578
 20
474.7351763973
 30
0
 11
221.7617736189
 21
474.7351763973
 31
0
  0
LINE
  8
0
 62
7
 10
218.5863471384
 20
480.2351763973
 30
0
 11
215.4109206578
 21
474.7351763973
 31
0
  0
LINE
  8
0
 62
7
 10
215.4109206578
 20
485.7351763973
 30
0
 11
218.5863471384
 21
480.2351763973
 31
0
  0
LINE
  8
0
 62
7
 10
221.7617736189
 20
485.7351763973
 30
0
 11
215.4109206578
 21
485.7351763973
 31
0
  0
LINE
  8
0
 62
7
 10
224.937200099472
 20
491.2351763972516
 30
0
 11
221.7617736189
 21
485.7351763973
 31
0
  0
LINE
  8
0
 62
7
 10
224.9372000994717
 20
495.2351763972509
 30
0
 11
229.2673271184
 21
487.7351763973
 31
0
  0
LINE
  8
0
 62
7
 10
224.937200099472
 20
491.2351763972516
 30
0
 11
228.11262658
 21
485.7351763973
 31
0
  0
LINE
  8
0
 62
7
 10
228.11262658
 20
485.7351763973
 30
0
 11
234.4634795411
 21
485.7351763973
 31
0
  0
LINE
  8
0
 62
7
 10
234.4634795411
 20
485.7351763973
 30
0
 11
231.2880530606
 21
480.2351763973
 31
0
  0
LINE
  8
0
 62
7
 10
231.2880530606
 20
480.2351763973
 30
0
 11
234.4634795411
 21
474.7351763973
 31
0
  0
LINE
  8
0
 62
7
 10
234.4634795411
 20
474.7351763973
 30
0
 11
228.11262658
 21
474.7351763973
 31
0
  0
LINE
  8
0
 62
7
 10
228.11262658
 20
474.7351763973
 30
0
 11
224.9372000995213
 21
469.2351763972631
 31
0
  0
LINE
  8
0
 62
7
 10
229.2673271184
 20
472.7351763973
 30
0
 11
224.9372000995184
 21
465.2351763972682
 31
0
  0
LINE
  8
0
 62
7
 10
237.9275811562
 20
472.7351763973
 30
0
 11
229.2673271184
 21
472.7351763973
 31
0
  0
LINE
  8
0
 62
7
 10
233.5974541373
 20
480.2351763973
 30
0
 11
237.9275811562
 21
472.7351763973
 31
0
  0
LINE
  8
0
 62
7
 10
237.9275811562
 20
487.7351763973
 30
0
 11
233.5974541373
 21
480.2351763973
 31
0
  0
LINE
  8
0
 62
7
 10
229.2673271184
 20
487.7351763973
 30
0
 11
237.9275811562
 21
487.7351763973
 31
0
  0
LINE
  8
0
 62
7
 10
226.0372000995
 20
481.4851763973
 30
0
 11
226.0372000995
 21
485.7351763973
 31
0
  0
LINE
  8
0
 62
7
 10
226.0372000995
 20
478.9851763973
 30
0
 11
226.0372000995
 21
474.7351763973
 31
0
  0
LINE
  8
0
 62
7
 10
230.4372000995
 20
478.9851763973
 30
0
 11
226.0372000995
 21
478.9851763973
 31
0
  0
LINE
  8
0
 62
7
 10
230.4372000995
 20
481.4851763973
 30
0
 11
230.4372000995
 21
478.9851763973
 31
0
  0
LINE
  8
0
 62
7
 10
226.0372000995
 20
481.4851763973
 30
0
 11
230.4372000995
 21
481.4851763973
 31
0
  0
LINE
  8
0
 62
7
 10
226.0372000995
 20
485.7351763973
 30
0
 11
223.8372000995
 21
485.7351763973
 31
0
  0
LINE
  8
0
 62
7
 10
223.8372000995
 20
481.4851763973
 30
0
 11
223.8372000995
 21
485.7351763973
 31
0
  0
LINE
  8
0
 62
7
 10
223.8372000995
 20
481.4851763973
 30
0
 11
219.4372000995
 21
481.4851763973
 31
0
  0
LINE
  8
0
 62
7
 10
219.4372000995
 20
481.4851763973
 30
0
 11
219.4372000995
 21
478.9851763973
 31
0
  0
LINE
  8
0
 62
7
 10
219.4372000995
 20
478.9851763973
 30
0
 11
223.8372000995
 21
478.9851763973
 31
0
  0
LINE
  8
0
 62
7
 10
223.8372000995
 20
478.9851763973
 30
0
 11
223.8372000995
 21
474.7351763973
 31
0
  0
LINE
  8
0
 62
7
 10
226.0372000995
 20
474.7351763973
 30
0
 11
223.8372000995
 21
474.7351763973
 31
0
  0
LINE
  8
0
 62
7
 10
66.9372000995
 20
355.2351763973
 30
0
 11
66.9372000995
 21
560.7351763973001
 31
0
  0
LINE
  8
0
 62
7
 10
84.9372000995
 20
355.2351763973
 30
0
 11
84.9372000995
 21
560.7351763973001
 31
0
  0
LINE
  8
0
 62
7
 10
84.9372000995
 20
355.2351763973
 30
0
 11
66.9372000995
 21
355.2351763973
 31
0
  0
LINE
  8
0
 62
7
 10
344.9372000995
 20
355.2351763973
 30
0
 11
344.9372000995
 21
560.7351763973001
 31
0
  0
LINE
  8
0
 62
7
 10
344.9372000995
 20
355.2351763973
 30
0
 11
362.9372000995
 21
355.2351763973
 31
0
  0
LINE
  8
0
 62
7
 10
362.9372000995
 20
355.2351763973
 30
0
 11
362.9372000995
 21
560.7351763973001
 31
0
  0
LINE
  8
0
 62
7
 10
279.313675738
 20
539.7940946206001
 30
0
 11
279.3307215928
 21
540.1137043976
 31
0
  0
LINE
  8
0
 62
7
 10
170.6785602345
 20
591.3851763973
 30
0
 11
170.6785602345
 21
592.3851763973
 31
0
  0
LINE
  8
0
 62
7
 10
170.6810371178
 20
591.3851763973
 30
0
 11
170.6810371178
 21
592.3851763973
 31
0
  0
LINE
  8
0
 62
7
 10
209.5591806862
 20
595.8851763973
 30
0
 11
199.9372000995
 21
595.8851763973
 31
0
  0
LINE
  8
0
 62
7
 10
307.085257806
 20
590.2351763973001
 30
0
 11
283.085257806
 21
590.2351763973001
 31
0
  0
LINE
  8
0
 62
7
 10
166.7891423929
 20
590.2351763973001
 30
0
 11
142.7891423929
 21
590.2351763973001
 31
0
  0
LINE
  8
0
 62
7
 10
171.431899272
 20
592.3851763973
 30
0
 11
171.431899272
 21
591.3851763973
 31
0
  0
LINE
  8
0
 62
7
 10
235.9068552141
 20
594.3851763973
 30
0
 11
281.459346411
 21
594.3851763973
 31
0
  0
LINE
  8
0
 62
7
 10
235.9068552141
 20
591.3851763973
 30
0
 11
284.1156026914
 21
591.3851763973
 31
0
  0
LINE
  8
0
 62
7
 10
165.7587975075
 20
591.3851763973
 30
0
 11
213.9675449849
 21
591.3851763973
 31
0
  0
LINE
  8
0
 62
7
 10
236.9372000995
 20
588.2351763973001
 30
0
 11
284.9036638231
 21
588.2351763973001
 31
0
  0
LINE
  8
0
 62
7
 10
164.9707363759
 20
588.2351763973001
 30
0
 11
212.9372000995
 21
588.2351763973001
 31
0
  0
LINE
  8
0
 62
7
 10
238.9372000995
 20
583.2351763973001
 30
0
 11
286.5282742059
 21
583.2351763973001
 31
0
  0
LINE
  8
0
 62
7
 10
163.346125993
 20
583.2351763973001
 30
0
 11
210.9372000995
 21
583.2351763973001
 31
0
  0
LINE
  8
0
 62
7
 10
236.9372000995
 20
590.2351763973001
 30
0
 11
212.9372000995
 21
590.2351763973001
 31
0
  0
LINE
  8
0
 62
7
 10
307.9372000995
 20
571.2351763973001
 30
0
 11
141.9372000995
 21
571.2351763973001
 31
0
  0
LINE
  8
0
 62
7
 10
278.9372000995
 20
594.3851763973
 30
0
 11
284.1156026914
 21
594.3851763973
 31
0
  0
LINE
  8
0
 62
7
 10
201.9372000995
 20
621.8851763973
 30
0
 11
201.9372000995
 21
620.8851763973
 31
0
  0
LINE
  8
0
 62
7
 10
231.9372000995
 20
621.8851763973
 30
0
 11
231.9372000995
 21
620.8851763973
 31
0
  0
LINE
  8
0
 62
7
 10
276.6603314243
 20
613.8851763973
 30
0
 11
282.9372000995
 21
613.8851763973
 31
0
  0
LINE
  8
0
 62
7
 10
282.9372000995
 20
611.8851763973
 30
0
 11
276.6603314243
 21
611.8851763973
 31
0
  0
LINE
  8
0
 62
7
 10
209.4372000995
 20
621.8851763973
 30
0
 11
209.4372000995
 21
620.8851763973
 31
0
  0
LINE
  8
0
 62
7
 10
201.9372000995
 20
621.8851763973
 30
0
 11
231.9372000995
 21
621.8851763973
 31
0
  0
LINE
  8
0
 62
7
 10
224.4372000995
 20
621.8851763973
 30
0
 11
224.4372000995
 21
620.8851763973
 31
0
  0
LINE
  8
0
 62
7
 10
216.9372000995
 20
621.8851763973
 30
0
 11
216.9372000995
 21
620.8851763973
 31
0
  0
LINE
  8
0
 62
7
 10
162.4372000995
 20
598.2351763973001
 30
0
 11
162.4372000995
 21
605.3851763973
 31
0
  0
LINE
  8
0
 62
7
 10
164.4372000995
 20
607.3851763973
 30
0
 11
168.2348191971
 21
607.3851763973
 31
0
  0
LINE
  8
0
 62
7
 10
198.9372000995
 20
621.8851763973
 30
0
 11
198.9372000995
 21
620.8851763973
 31
0
  0
LINE
  8
0
 62
7
 10
188.9372000995
 20
621.8851763973
 30
0
 11
198.9372000995
 21
621.8851763973
 31
0
  0
LINE
  8
0
 62
7
 10
188.9372000995
 20
621.8851763973
 30
0
 11
188.9372000995
 21
620.8851763973
 31
0
  0
LINE
  8
0
 62
7
 10
249.9372000995
 20
621.8851763973
 30
0
 11
261.9372000995
 21
621.8851763973
 31
0
  0
LINE
  8
0
 62
7
 10
261.9372000995
 20
621.8851763973
 30
0
 11
261.9372000995
 21
620.8851763973
 31
0
  0
LINE
  8
0
 62
7
 10
249.9372000995
 20
621.8851763973
 30
0
 11
249.9372000995
 21
620.8851763973
 31
0
  0
LINE
  8
0
 62
7
 10
246.9372000995
 20
621.8851763973
 30
0
 11
246.9372000995
 21
620.8851763973
 31
0
  0
LINE
  8
0
 62
7
 10
234.9372000995
 20
621.8851763973
 30
0
 11
246.9372000995
 21
621.8851763973
 31
0
  0
LINE
  8
0
 62
7
 10
234.9372000995
 20
621.8851763973
 30
0
 11
234.9372000995
 21
620.8851763973
 31
0
  0
LINE
  8
0
 62
7
 10
235.9068552141
 20
594.3851763973
 30
0
 11
277.9372000995
 21
594.3851763973
 31
0
  0
LINE
  8
0
 62
7
 10
170.4372000995
 20
594.3851763973
 30
0
 11
213.9675449849
 21
594.3851763973
 31
0
  0
LINE
  8
0
 62
7
 10
199.9372000995
 20
594.3851763973
 30
0
 11
199.9372000994999
 21
609.8851763973
 31
0
  0
LINE
  8
0
 62
7
 10
270.9372000995
 20
620.8851763973
 30
0
 11
178.9372000995
 21
620.8851763973
 31
0
  0
LINE
  8
0
 62
7
 10
208.4372000995
 20
595.8851763973
 30
0
 11
208.4372000995
 21
597.1351763973
 31
0
  0
LINE
  8
0
 62
7
 10
207.4372000995
 20
597.1351763973
 30
0
 11
207.4372000995
 21
595.8851763973
 31
0
  0
LINE
  8
0
 62
7
 10
200.9372000995
 20
595.8851763973
 30
0
 11
200.9372000995
 21
597.1351763973
 31
0
  0
LINE
  8
0
 62
7
 10
206.7872000995
 20
598.3851763973
 30
0
 11
206.6279344152
 21
599.2811763972001
 31
0
  0
LINE
  8
0
 62
7
 10
204.9696435728
 20
603.8851763973
 30
0
 11
204.9696435728
 21
603.3851763973
 31
0
  0
LINE
  8
0
 62
7
 10
205.4267402857
 20
603.8851763973
 30
0
 11
204.9696435728
 21
603.8851763973
 31
0
  0
LINE
  8
0
 62
7
 10
205.4267402857
 20
603.8851763973
 30
0
 11
205.4267402857
 21
603.3851763973
 31
0
  0
LINE
  8
0
 62
7
 10
205.0712206201
 20
603.8851763973
 30
0
 11
205.0712206201
 21
603.3851763973
 31
0
  0
LINE
  8
0
 62
7
 10
207.5430771491
 20
603.8851763973
 30
0
 11
205.443052275
 21
603.8851763973
 31
0
  0
LINE
  8
0
 62
7
 10
205.443052275
 20
603.8851763973
 30
0
 11
205.443052275
 21
603.3851763973
 31
0
  0
LINE
  8
0
 62
7
 10
199.9372000995
 20
603.3851763973
 30
0
 11
207.6690836201
 21
603.3851763973
 31
0
  0
LINE
  8
0
 62
7
 10
199.9372000995
 20
602.3851763973
 30
0
 11
207.9210965623
 21
602.3851763973
 31
0
  0
LINE
  8
0
 62
7
 10
301.085257806
 20
545.2351763973001
 30
0
 11
289.085257806
 21
545.2351763973001
 31
0
  0
LINE
  8
0
 62
7
 10
284.1156026914
 20
597.3866706212
 30
0
 11
284.1156026914
 21
590.2351763973001
 31
0
  0
LINE
  8
0
 62
7
 10
289.6004302487
 20
597.3866706212
 30
0
 11
289.6004302487
 21
590.2351763973001
 31
0
  0
LINE
  8
0
 62
7
 10
304.585257806
 20
598.2351763973001
 30
0
 11
285.585257806
 21
598.2351763973001
 31
0
  0
LINE
  8
0
 62
7
 10
306.0549129206
 20
597.3866706212
 30
0
 11
306.0549129206
 21
590.2351763973001
 31
0
  0
LINE
  8
0
 62
7
 10
300.5700853633
 20
597.3866706212
 30
0
 11
300.5700853633
 21
590.2351763973001
 31
0
  0
LINE
  8
0
 62
7
 10
160.7891423929
 20
545.2351763973001
 30
0
 11
148.7891423929
 21
545.2351763973001
 31
0
  0
LINE
  8
0
 62
7
 10
143.8194872783
 20
597.3866706212
 30
0
 11
143.8194872783
 21
590.2351763973001
 31
0
  0
LINE
  8
0
 62
7
 10
165.7587975075
 20
597.3866706212
 30
0
 11
165.7587975075
 21
590.2351763973001
 31
0
  0
LINE
  8
0
 62
7
 10
164.2891423929
 20
598.2351763973001
 30
0
 11
145.2891423929
 21
598.2351763973001
 31
0
  0
LINE
  8
0
 62
7
 10
160.2739699502
 20
597.3866706212
 30
0
 11
160.2739699502
 21
590.2351763973001
 31
0
  0
LINE
  8
0
 62
7
 10
149.3043148356
 20
597.3866706212
 30
0
 11
149.3043148356
 21
590.2351763973001
 31
0
  0
LINE
  8
0
 62
7
 10
230.9372000995
 20
545.2351763973001
 30
0
 11
218.9372000995
 21
545.2351763973001
 31
0
  0
LINE
  8
0
 62
7
 10
213.9675449849
 20
597.3866706212
 30
0
 11
213.9675449849
 21
590.2351763973001
 31
0
  0
LINE
  8
0
 62
7
 10
235.9068552141
 20
597.3866706212
 30
0
 11
235.9068552141
 21
590.2351763973001
 31
0
  0
LINE
  8
0
 62
7
 10
234.4372000995
 20
598.2351763973001
 30
0
 11
215.4372000995
 21
598.2351763973001
 31
0
  0
LINE
  8
0
 62
7
 10
230.4220276568
 20
597.3866706212
 30
0
 11
230.4220276568
 21
590.2351763973001
 31
0
  0
LINE
  8
0
 62
7
 10
219.4523725422
 20
597.3866706212
 30
0
 11
219.4523725422
 21
590.2351763973001
 31
0
  0
LINE
  8
0
 62
7
 10
304.8729552963
 20
547.0836821733
 30
0
 11
304.8729552963
 21
556.2351763973001
 31
0
  0
LINE
  8
0
 62
7
 10
285.2975603157
 20
547.0836821733
 30
0
 11
285.2975603157
 21
556.2351763973001
 31
0
  0
LINE
  8
0
 62
7
 10
304.5708347247
 20
546.2351763973001
 30
0
 11
285.5996808873
 21
546.2351763973001
 31
0
  0
LINE
  8
0
 62
7
 10
294.4810166628
 20
547.0836821733
 30
0
 11
294.4810166628
 21
556.2351763973001
 31
0
  0
LINE
  8
0
 62
7
 10
304.2687141531
 20
547.0836821733
 30
0
 11
304.2687141531
 21
556.2351763973001
 31
0
  0
LINE
  8
0
 62
7
 10
234.7248975898
 20
547.0836821733
 30
0
 11
234.7248975898
 21
556.2351763973001
 31
0
  0
LINE
  8
0
 62
7
 10
215.1495026092
 20
547.0836821733
 30
0
 11
215.1495026092
 21
556.2351763973001
 31
0
  0
LINE
  8
0
 62
7
 10
234.4372000995
 20
546.2351763973001
 30
0
 11
215.4516231808
 21
546.2351763973001
 31
0
  0
LINE
  8
0
 62
7
 10
224.3329589563
 20
547.0836821733
 30
0
 11
224.3329589563
 21
556.2351763973001
 31
0
  0
LINE
  8
0
 62
7
 10
234.1206564466
 20
547.0836821733
 30
0
 11
234.1206564466
 21
556.2351763973001
 31
0
  0
LINE
  8
0
 62
7
 10
164.5768398832
 20
547.0836821733
 30
0
 11
164.5768398832
 21
556.2351763973001
 31
0
  0
LINE
  8
0
 62
7
 10
163.97259874
 20
547.0836821733
 30
0
 11
163.97259874
 21
556.2351763973001
 31
0
  0
LINE
  8
0
 62
7
 10
164.2747193116
 20
546.2351763973001
 30
0
 11
145.3035654742
 21
546.2351763973001
 31
0
  0
LINE
  8
0
 62
7
 10
145.0014449026
 20
547.0836821733
 30
0
 11
145.0014449026
 21
556.2351763973001
 31
0
  0
LINE
  8
0
 62
7
 10
154.1849012497
 20
547.0836821733
 30
0
 11
154.1849012497
 21
556.2351763973001
 31
0
  0
LINE
  8
0
 62
7
 10
288.9372000995
 20
546.2115822232
 30
0
 11
288.9372000995
 21
546.2351763973001
 31
0
  0
LINE
  8
0
 62
7
 10
64.9372000995
 20
392.7351763973
 30
0
 11
66.9372000995
 21
390.7351763973
 31
0
  0
LINE
  8
0
 62
7
 10
66.9372000995
 20
519.7351763973001
 30
0
 11
64.9372000995
 21
517.7351763973001
 31
0
  0
LINE
  8
0
 62
7
 10
364.9372000995
 20
517.7351763973001
 30
0
 11
362.9372000995
 21
519.7351763973001
 31
0
  0
LINE
  8
0
 62
7
 10
362.9372000995
 20
390.7351763973
 30
0
 11
364.9372000995
 21
392.7351763973
 31
0
  0
LINE
  8
0
 62
7
 10
84.9372000995
 20
560.7351763973001
 30
0
 11
66.9372000995
 21
560.7351763973001
 31
0
  0
LINE
  8
0
 62
7
 10
362.9372000995
 20
560.7351763973001
 30
0
 11
344.9372000995
 21
560.7351763973001
 31
0
  0
LINE
  8
0
 62
7
 10
141.9372000994999
 20
581.2351763973001
 30
0
 11
141.9372000995
 21
556.2351763973001
 31
0
  0
LINE
  8
0
 62
7
 10
307.9372000995
 20
556.2351763973001
 30
0
 11
307.9372000995001
 21
581.2351763973001
 31
0
  0
LINE
  8
0
 62
7
 10
283.085257806
 20
590.2351763973001
 30
0
 11
283.085257806
 21
588.2351763973001
 31
0
  0
LINE
  8
0
 62
7
 10
307.085257806
 20
581.5331963382
 30
0
 11
307.085257806
 21
590.2351763973001
 31
0
  0
LINE
  8
0
 62
7
 10
142.7891423929
 20
590.2351763973001
 30
0
 11
142.7891423929
 21
581.5331963382
 31
0
  0
LINE
  8
0
 62
7
 10
166.7891423929
 20
588.2351763973001
 30
0
 11
166.7891423929
 21
590.2351763973001
 31
0
  0
LINE
  8
0
 62
7
 10
212.9372000995
 20
590.2351763973001
 30
0
 11
212.9372000995
 21
585.0068747595
 31
0
  0
LINE
  8
0
 62
7
 10
236.9372000995
 20
585.0068747595
 30
0
 11
236.9372000995
 21
590.2351763973001
 31
0
  0
LINE
  8
0
 62
7
 10
282.9372000995
 20
611.8851763973
 30
0
 11
282.9372000995
 21
613.8851763973
 31
0
  0
LINE
  8
0
 62
7
 10
171.9372000995
 20
613.8851763973
 30
0
 11
171.9372000995
 21
612.3851763973
 31
0
  0
LINE
  8
0
 62
7
 10
277.9372000995
 20
594.3851763973
 30
0
 11
277.9372000995
 21
611.8851763973
 31
0
  0
LINE
  8
0
 62
7
 10
285.585257806
 20
598.2351763973001
 30
0
 11
284.1156026914
 21
597.3866706212
 31
0
  0
LINE
  8
0
 62
7
 10
306.0549129206
 20
597.3866706212
 30
0
 11
304.585257806
 21
598.2351763973001
 31
0
  0
LINE
  8
0
 62
7
 10
301.085257806
 20
545.2351763973001
 30
0
 11
301.085257806
 21
546.2351763973001
 31
0
  0
LINE
  8
0
 62
7
 10
289.085257806
 20
546.2351763973001
 30
0
 11
289.085257806
 21
545.2351763973001
 31
0
  0
LINE
  8
0
 62
7
 10
145.2891423929
 20
598.2351763973001
 30
0
 11
143.8194872783
 21
597.3866706212
 31
0
  0
LINE
  8
0
 62
7
 10
165.7587975075
 20
597.3866706212
 30
0
 11
164.2891423929
 21
598.2351763973001
 31
0
  0
LINE
  8
0
 62
7
 10
160.7891423929
 20
545.2351763973001
 30
0
 11
160.7891423929
 21
546.2351763973001
 31
0
  0
LINE
  8
0
 62
7
 10
148.7891423929
 20
546.2351763973001
 30
0
 11
148.7891423929
 21
545.2351763973001
 31
0
  0
LINE
  8
0
 62
7
 10
215.4372000995
 20
598.2351763973001
 30
0
 11
213.9675449849
 21
597.3866706212
 31
0
  0
LINE
  8
0
 62
7
 10
235.9068552141
 20
597.3866706212
 30
0
 11
234.4372000995
 21
598.2351763973001
 31
0
  0
LINE
  8
0
 62
7
 10
230.9372000995
 20
545.2351763973001
 30
0
 11
230.9372000995
 21
546.2351763973001
 31
0
  0
LINE
  8
0
 62
7
 10
218.9372000995
 20
546.2351763973001
 30
0
 11
218.9372000995
 21
545.2351763973001
 31
0
  0
LINE
  8
0
 62
7
 10
234.4372000995
 20
546.2351763973001
 30
0
 11
234.4516451115
 21
546.2435162288
 31
0
  0
ARC
  8
0
 62
7
 10
600.3644796485
 20
613.8851763973
 30
0
 40
6.999999999999999
 50
0.02422931320110112
 51
89.93295588910797
  0
ARC
  8
0
 62
7
 10
600.3644796485
 20
613.8851763973
 30
0
 40
6.999999999999999
 50
359.9757706867989
 51
0.02422931320110112
  0
ARC
  8
0
 62
7
 10
508.3644796485
 20
613.8851763973
 30
0
 40
6.999999999999999
 50
90.06704411088644
 51
179.975772623287
  0
ARC
  8
0
 62
7
 10
489.2665742101
 20
513.366669655
 30
0
 40
20.08371634219257
 50
111.0321671155
 51
156.5317557584
  0
ARC
  8
0
 62
7
 10
619.4648281657001
 20
513.3694054925001
 30
0
 40
20.08030954580883
 50
23.4638385114001
 51
68.97154083480011
  0
ARC
  8
0
 62
7
 10
554.3644796485
 20
455.2351763973
 30
0
 40
105.5
 50
288.5822281093
 51
251.4177718907
  0
ARC
  8
0
 62
7
 10
479.9651774968
 20
580.2889549627
 30
0
 40
8.003844145891817
 50
96.87925034719979
 51
118.1298436492002
  0
ARC
  8
0
 62
7
 10
628.7758033952
 20
580.3270720431
 30
0
 40
7.96456497369276
 50
61.81714145100047
 51
83.17376455259961
  0
ARC
  8
0
 62
7
 10
547.2792399207
 20
589.8666178507
 30
0
 40
1.536374144820883
 50
0.6923750106984903
 51
81.26667501299903
  0
ARC
  8
0
 62
7
 10
561.442395255
 20
589.8729800185
 30
0
 40
1.528986547423131
 50
98.49824846589816
 51
179.5427015104984
  0
ARC
  8
0
 62
7
 10
589.5816714621
 20
592.5062118752001
 30
0
 40
8.089058771910322
 50
219.6244149802996
 51
230.8276524295003
  0
ARC
  8
0
 62
7
 10
630.7362310462
 20
583.8341209145
 30
0
 40
14.40157679767643
 50
90.48437903559983
 51
109.7720436721
  0
ARC
  8
0
 62
7
 10
509.2362355146
 20
583.8340725096
 30
0
 40
14.40162524162923
 50
90.48439660689991
 51
109.7720105431004
  0
ARC
  8
0
 62
7
 10
518.7362343828
 20
583.8340828835
 30
0
 40
14.40161488474252
 50
90.48440478359997
 51
109.772017924
  0
ARC
  8
0
 62
7
 10
468.7362305693
 20
583.8341209145
 30
0
 40
14.40157679767644
 50
90.4843790356003
 51
109.7720436721
  0
ARC
  8
0
 62
7
 10
599.7362299699
 20
583.8341089212
 30
0
 40
14.40158880863431
 50
90.48438715540011
 51
109.7720355523
  0
ARC
  8
0
 62
7
 10
464.7725709256
 20
550.6109124575
 30
0
 40
4.377262435404163
 50
271.5122255079003
 51
306.3117400705007
  0
ARC
  8
0
 62
7
 10
481.2053126431
 20
552.3594175193
 30
0
 40
6.125272029197831
 50
271.0502706960994
 51
300.5364608590995
  0
ARC
  8
0
 62
7
 10
626.7725714024
 20
550.6109124575
 30
0
 40
4.377262435404277
 50
271.5122255079003
 51
306.3117400704999
  0
ARC
  8
0
 62
7
 10
643.20531312
 20
552.3594175193
 30
0
 40
6.125272029197832
 50
271.0502706961
 51
300.5364608590999
  0
ARC
  8
0
 62
7
 10
489.0637352435
 20
546.5527427136
 30
0
 40
1.304493315308815
 50
326.9693500312009
 51
4.346597060999088
  0
ARC
  8
0
 62
7
 10
619.6517605659
 20
546.5437362924999
 30
0
 40
1.291789858584648
 50
175.2098201975019
 51
214.3851248501979
  0
ARC
  8
0
 62
7
 10
481.6345061825
 20
553.6827867096
 30
0
 40
11.58433638688211
 50
311.0962073307
 51
317.0547640915
  0
ARC
  8
0
 62
7
 10
626.8673694559
 20
553.4598598102
 30
0
 40
11.26643051989955
 50
222.9011159594999
 51
228.8250344612999
  0
ARC
  8
0
 62
7
 10
485.3644796485
 20
551.2351763973001
 30
0
 40
5
 50
0
 51
90
  0
ARC
  8
0
 62
7
 10
623.3644796485
 20
551.2351763973001
 30
0
 40
5.000000000000114
 50
90
 51
180
  0
ARC
  8
0
 62
7
 10
501.3644796485
 20
592.3851763973
 30
0
 40
2
 50
90
 51
180
  0
ARC
  8
0
 62
7
 10
607.3644796485
 20
592.3851763973
 30
0
 40
2
 50
0
 51
90
  0
ARC
  8
0
 62
7
 10
617.8644796485
 20
589.8851763973
 30
0
 40
1.5
 50
0
 51
90
  0
ARC
  8
0
 62
7
 10
490.8644796485
 20
589.8851763973
 30
0
 40
1.500000000000114
 50
90
 51
180
  0
ARC
  8
0
 62
7
 10
600.3644796485
 20
613.8851763973
 30
0
 40
7
 50
89.93295588910797
 51
90.06704411089201
  0
ARC
  8
0
 62
7
 10
508.3644796485
 20
613.8851763973
 30
0
 40
7.000000000000001
 50
179.975772623287
 51
180.024227376713
  0
ARC
  8
0
 62
7
 10
1117.016400573
 20
801.5547661802103
 30
0
 40
973.0792004735529
 50
179.6859527075006
 51
179.7816184650006
  0
ARC
  8
0
 62
7
 10
224.9372000995
 20
801.5547661802
 30
0
 40
58.00000000000002
 50
167.8574392187001
 51
192.1425607813
  0
ARC
  8
0
 62
7
 10
177.818053323
 20
806.2759953283
 30
0
 40
12.15608447515225
 50
128.7618269903002
 51
142.0314672381997
  0
ARC
  8
0
 62
7
 10
177.8923415103
 20
796.9068037105
 30
0
 40
12.25973115901027
 50
218.0248739722998
 51
231.1818317991001
  0
ARC
  8
0
 62
7
 10
208.6420467945
 20
875.5592280252
 30
0
 40
16.72337508413152
 50
100.6040448195999
 51
103.0464462620001
  0
ARC
  8
0
 62
7
 10
241.0116104726082
 20
717.1078267646017
 30
0
 40
178.4452748328093
 50
100.7727395617027
 51
101.4576515757027
  0
ARC
  8
0
 62
7
 10
244.6514543008
 20
647.2152520505
 30
0
 40
248.0712561094393
 50
97.30171183259999
 51
97.87070005610001
  0
ARC
  8
0
 62
7
 10
224.8115871184961
 20
802.9237969571996
 30
0
 40
91.12563050802463
 50
95.97088900099752
 51
96.78015387199753
  0
ARC
  8
0
 62
7
 10
225.3225647541928
 20
797.8390660510991
 30
0
 40
96.23517202017601
 50
96.72484415489569
 51
97.21307664659567
  0
ARC
  8
0
 62
7
 10
222.7443763162
 20
813.9703547595
 30
0
 40
79.89339383533105
 50
99.35995400429994
 51
100.2061979687
  0
ARC
  8
0
 62
7
 10
207.973324072
 20
890.290377347
 30
0
 40
2.160394220178432
 50
98.40068165890068
 51
106.9252366840987
  0
ARC
  8
0
 62
7
 10
232.4255937287952
 20
744.0166445669993
 30
0
 40
150.5011269929414
 50
96.20963968129814
 51
97.36878472109817
  0
ARC
  8
0
 62
7
 10
233.6260873337
 20
756.0909555162
 30
0
 40
138.7687196223211
 50
99.51740280190001
 51
100.7855915771
  0
ARC
  8
0
 62
7
 10
188.4943342501
 20
881.9193601316
 30
0
 40
4.287709299597001
 50
110.9787588523999
 51
121.3821008049001
  0
ARC
  8
0
 62
7
 10
224.8680163196
 20
800.9459865815001
 30
0
 40
93.0491415774831
 50
112.6382382513
 51
114.0419855745
  0
ARC
  8
0
 62
7
 10
222.8861428583
 20
806.3207103943
 30
0
 40
87.32600432118554
 50
110.6599437488
 51
112.7954532364
  0
ARC
  8
0
 62
7
 10
213.6273729845
 20
832.1010843107
 30
0
 40
59.93841658793553
 50
108.5917191798
 51
111.0733831687
  0
ARC
  8
0
 62
7
 10
227.1793215196978
 20
795.1378934334994
 30
0
 40
99.29898686324573
 50
107.3660420986987
 51
109.2033782925986
  0
ARC
  8
0
 62
7
 10
231.0103643676
 20
886.1936529431
 30
0
 40
7.672142334377528
 50
79.26317410980009
 51
94.82674109760006
  0
ARC
  8
0
 62
7
 10
215.8438478542
 20
726.2223652448
 30
0
 40
168.3292167270342
 50
83.1874447079
 51
84.3419340608
  0
ARC
  8
0
 62
7
 10
218.7593726335018
 20
749.3632161607998
 30
0
 40
145.0059843369512
 50
81.54070728920073
 51
83.24668852160072
  0
ARC
  8
0
 62
7
 10
227.8912021046
 20
821.2198728711001
 30
0
 40
72.61226906894335
 50
80.85115438600003
 51
83.22309778130004
  0
ARC
  8
0
 62
7
 10
220.5061676953016
 20
767.0167861663998
 30
0
 40
127.3115587517081
 50
82.80127977520068
 51
83.62410997690071
  0
ARC
  8
0
 62
7
 10
222.8676633917
 20
815.8521204213
 30
0
 40
74.84557375194127
 50
95.20396919070002
 51
107.8406253778593
  0
ARC
  8
0
 62
7
 10
231.2492334185976
 20
754.6664510439998
 30
0
 40
138.2885458381998
 50
96.26992132669899
 51
97.53173215459897
  0
ARC
  8
0
 62
7
 10
246.8400457128106
 20
633.6128994072014
 30
0
 40
260.3415922588941
 50
97.44131806260235
 51
97.98364922050233
  0
ARC
  8
0
 62
7
 10
231.861379077
 20
766.5089063005
 30
0
 40
126.7051044417698
 50
99.62286537910002
 51
101.012531953
  0
ARC
  8
0
 62
7
 10
239.1676337648975
 20
727.7472520378994
 30
0
 40
166.1488100369083
 50
100.9322926571991
 51
101.6683659474991
  0
ARC
  8
0
 62
7
 10
209.7916218577012
 20
868.9487193125002
 30
0
 40
21.9251445624982
 50
101.115848294503
 51
102.9802599890032
  0
ARC
  8
0
 62
7
 10
225.2362429794986
 20
800.9663613476995
 30
0
 40
91.65712099522079
 50
107.587442438699
 51
109.5814548480991
  0
ARC
  8
0
 62
7
 10
217.828025436
 20
820.1589633035
 30
0
 40
71.09377289636736
 50
109.1402628516
 51
111.237223222
  0
ARC
  8
0
 62
7
 10
220.0462690779988
 20
813.1556016177996
 30
0
 40
78.42644551550623
 50
110.894417694099
 51
113.278284501699
  0
ARC
  8
0
 62
7
 10
225.2865690742033
 20
800.0279463878014
 30
0
 40
92.55716974325389
 50
113.0465835179023
 51
114.4622468683022
  0
ARC
  8
0
 62
7
 10
188.8854313646
 20
879.5878831632
 30
0
 40
5.069006707661058
 50
112.3332922960998
 51
121.1736956891001
  0
ARC
  8
0
 62
7
 10
225.0313089135
 20
808.8523364748
 30
0
 40
79.26283320036822
 50
98.19470534750002
 51
108.4570471731496
  0
ARC
  8
0
 62
7
 10
145.7582410147
 20
803.5104407989001
 30
0
 40
16.78963146858416
 50
186.6890595796998
 51
197.1672997673
  0
ARC
  8
0
 62
7
 10
145.7582410147
 20
799.5990915614
 30
0
 40
16.78963146860031
 50
162.8327002327
 51
173.3109404203
  0
ARC
  8
0
 62
7
 10
224.9372000995014
 20
801.5547661802015
 30
0
 40
79.99999999999996
 50
313.5513868704985
 51
321.4807121888985
  0
ARC
  8
0
 62
7
 10
224.9372000995
 20
801.5547661802
 30
0
 40
79.99999999999986
 50
286.4486131295
 51
313.5513868705
  0
ARC
  8
0
 62
7
 10
224.9372000995
 20
801.5547661802
 30
0
 40
79.99999999999992
 50
226.4486131295
 51
253.1046224398001
  0
ARC
  8
0
 62
7
 10
224.9372000995
 20
801.5547661802
 30
0
 40
79.99999999999974
 50
106.4486131295032
 51
133.5513868705602
  0
ARC
  8
0
 62
7
 10
224.9372000995048
 20
801.5547661801969
 30
0
 40
79.99999999999822
 50
38.51928781110385
 51
73.5513868705557
  0
ARC
  8
0
 62
7
 10
196.6216707138
 20
705.6473587728
 30
0
 40
20.00000000000004
 50
27.76566615159995
 51
59.78299275279988
  0
ARC
  8
0
 62
7
 10
293.8376866326
 20
729.0790947069
 30
0
 40
20.00000000000006
 50
87.7656661515998
 51
133.5513868704998
  0
ARC
  8
0
 62
7
 10
156.0367135663896
 20
874.0304376533959
 30
0
 40
19.99999999999556
 50
267.7656661516294
 51
313.55138687059
  0
ARC
  8
0
 62
7
 10
253.2527294851
 20
897.4621735876
 30
0
 40
20.00000000000004
 50
207.7656661516
 51
253.5513868705517
  0
ARC
  8
0
 62
7
 10
253.2527294851
 20
705.6473587728
 30
0
 40
20.00000000000015
 50
106.4486131295001
 51
152.2343338484
  0
ARC
  8
0
 62
7
 10
156.0367135664
 20
729.0790947069
 30
0
 40
20.00000000000004
 50
46.44861312950005
 51
92.23433384839996
  0
ARC
  8
0
 62
7
 10
293.8376866326
 20
874.0304376534
 30
0
 40
20.00000000000008
 50
226.4486131294999
 51
272.2343338484002
  0
ARC
  8
0
 62
7
 10
196.6216707138
 20
897.4621735876
 30
0
 40
20.00000000000746
 50
286.4486131295032
 51
332.2343338483999
  0
ARC
  8
0
 62
7
 10
-667.1420003741
 20
801.5547661802
 30
0
 40
975.0792004735531
 50
357.5898518572
 51
2.410148142800002
  0
ARC
  8
0
 62
7
 10
1117.016400573
 20
801.5547661802
 30
0
 40
975.079200473553
 50
177.5898518572
 51
182.4101481428
  0
ARC
  8
0
 62
7
 10
145.773918782
 20
802.4601988768
 30
0
 40
2.005070625322252
 50
261.4183908295004
 51
313.0255030443003
  0
ARC
  8
0
 62
7
 10
146.1212979895
 20
800.7057293452
 30
0
 40
1.694599784799103
 50
52.9621997959002
 51
95.39087174769966
  0
ARC
  8
0
 62
7
 10
145.1823606063
 20
802.9000463166
 30
0
 40
2.440048836379501
 50
228.0400926916003
 51
276.8816899614017
  0
ARC
  8
0
 62
7
 10
145.7420943444
 20
802.223071896
 30
0
 40
2.454246029260254
 50
264.9492630947999
 51
316.6510053884996
  0
ARC
  8
0
 62
7
 10
145.7677549961
 20
805.1631100257
 30
0
 40
2.628470279553841
 50
47.23586920760003
 51
98.65694129529904
  0
ARC
  8
0
 62
7
 10
144.9863905411
 20
806.9495950345
 30
0
 40
2.591331315028503
 50
226.9501469447007
 51
278.5605775946995
  0
ARC
  8
0
 62
7
 10
145.7154634361
 20
807.1561260261
 30
0
 40
2.790197363324622
 50
262.9317057837004
 51
311.1754837134006
  0
ARC
  8
0
 62
7
 10
145.0372744646
 20
805.0352463175
 30
0
 40
2.746874272322951
 50
82.99813135630072
 51
131.4911441043001
  0
ARC
  8
0
 62
7
 10
145.030645104
 20
807.7178334901
 30
0
 40
2.653542586170924
 50
237.4314213712005
 51
277.3937606794993
  0
ARC
  8
0
 62
7
 10
144.9729546982
 20
804.6892937638
 30
0
 40
2.406456872032845
 50
80.45199364390018
 51
124.7228243054003
  0
ARC
  8
0
 62
7
 10
145.7218881503
 20
804.3750422411
 30
0
 40
2.710037276882155
 50
57.75815835069963
 51
97.41543856860078
  0
ARC
  8
0
 62
7
 10
145.7791666657
 20
807.5134945799
 30
0
 40
2.461034898792825
 50
260.4798030388002
 51
304.3466000420006
  0
ARC
  8
0
 62
7
 10
224.9372000994073
 20
801.5547661802724
 30
0
 40
75.0000000001173
 50
282.2688989960067
 51
317.7311010039698
  0
ARC
  8
0
 62
7
 10
224.9372000995
 20
801.5547661802
 30
0
 40
74.99999999999993
 50
222.268898996
 51
251.9407695092
  0
ARC
  8
0
 62
7
 10
224.9372000995107
 20
801.5547661802018
 30
0
 40
75.00000000001266
 50
162.2688989959989
 51
197.7311010040717
  0
ARC
  8
0
 62
7
 10
224.9372000992829
 20
801.5547661803015
 30
0
 40
75.00000000017596
 50
342.2688989958757
 51
17.73110100390208
  0
ARC
  8
0
 62
7
 10
224.9372000995
 20
801.5547661802
 30
0
 40
65.00000000000003
 50
167.5000000000667
 51
192.5000000000192
  0
ARC
  8
0
 62
7
 10
224.9372000995
 20
801.5547661802
 30
0
 40
75.00000000000001
 50
102.268898996
 51
137.7311010040643
  0
ARC
  8
0
 62
7
 10
224.9372000995
 20
801.5547661802
 30
0
 40
75.0000000000001
 50
42.26889899599996
 51
77.7311010040324
  0
ARC
  8
0
 62
7
 10
207.9372000994966
 20
723.3818808553988
 30
0
 40
5.000000000003496
 50
0
 51
77.73110100401264
  0
ARC
  8
0
 62
7
 10
241.9372000995
 20
723.3818808554
 30
0
 40
5.000000000000175
 50
102.2688989959995
 51
180
  0
ARC
  8
0
 62
7
 10
284.1369046778
 20
747.7458916534
 30
0
 40
5.000000000000017
 50
60.00000000000011
 51
137.7311010039634
  0
ARC
  8
0
 62
7
 10
165.7374955211
 20
747.7458916534
 30
0
 40
5.00000000000001
 50
42.26889899600028
 51
119.9999999999999
  0
ARC
  8
0
 62
7
 10
148.7374955211
 20
777.1907553821
 30
0
 40
5.000000000000017
 50
299.9999999999998
 51
17.73110100407255
  0
ARC
  8
0
 62
7
 10
301.1369046778
 20
777.1907553821
 30
0
 40
5.000000000000022
 50
162.2688989959996
 51
240.0000000006598
  0
ARC
  8
0
 62
7
 10
148.7374955211
 20
825.9187769782
 30
0
 40
5.000000000000076
 50
342.2688989959997
 51
60.0000000006593
  0
ARC
  8
0
 62
7
 10
301.1369046778
 20
825.9187769782
 30
0
 40
5.000000000000017
 50
119.9999999999999
 51
197.731101004026
  0
ARC
  8
0
 62
7
 10
284.1369046778611
 20
855.3636407069084
 30
0
 40
4.999999999976646
 50
222.268898995344
 51
299.9999999986878
  0
ARC
  8
0
 62
7
 10
165.7374955211
 20
855.3636407069
 30
0
 40
5.000000000000017
 50
240.0000000000001
 51
317.7311010040639
  0
ARC
  8
0
 62
7
 10
241.9372000995
 20
879.7276515049
 30
0
 40
5.000000000000085
 50
180
 51
257.7311010040332
  0
ARC
  8
0
 62
7
 10
207.9372000995073
 20
879.7276515049666
 30
0
 40
4.999999999992912
 50
282.2688989952367
 51
359.9999999992366
  0
ARC
  8
0
 62
7
 10
224.9372000995
 20
801.5547661802
 30
0
 40
65.00000000000011
 50
4.897237558599966
 51
164.3815017243743
  0
ARC
  8
0
 62
7
 10
224.9372000995
 20
801.5547661802
 30
0
 40
65.00000000000016
 50
195.6184982756257
 51
249.0414597964
  0
ARC
  8
0
 62
7
 10
224.9372000995
 20
801.5547661802
 30
0
 40
65.00000000000011
 50
253.693879841
 51
355.1027624414001
  0
ARC
  8
0
 62
7
 10
283.9372000995
 20
801.5547661802
 30
0
 40
5.249999999999972
 50
256.5054122686996
 51
103.4945877313004
  0
ARC
  8
0
 62
7
 10
283.9372000995
 20
801.5547661802
 30
0
 40
8
 50
270
 51
90
  0
ARC
  8
0
 62
7
 10
224.9372000995
 20
801.5547661802
 30
0
 40
55.00000000000002
 50
195.8266201318703
 51
244.9931082523
  0
ARC
  8
0
 62
7
 10
224.9372000995
 20
801.5547661802
 30
0
 40
55.00000000000004
 50
250.6208310665
 51
349.0673388552
  0
ARC
  8
0
 62
7
 10
224.9372000995
 20
801.5547661802
 30
0
 40
55
 50
10.93266114479996
 51
164.1733798681298
  0
ARC
  8
0
 62
7
 10
283.9372000995
 20
801.5547661802
 30
0
 40
5.00000000000001
 50
261.3730734413009
 51
98.62692655869904
  0
ARC
  8
0
 62
7
 10
164.4372000995
 20
789.3547661802
 30
0
 40
2
 50
180
 51
270
  0
ARC
  8
0
 62
7
 10
164.4372000995
 20
813.7547661802
 30
0
 40
2
 50
90
 51
180
  0
ARC
  8
0
 62
7
 10
170.2073179509
 20
820.7547661802
 30
0
 40
5.000000000000114
 50
270
 51
340.6684235941
  0
ARC
  8
0
 62
7
 10
170.2073179509
 20
782.3547661802
 30
0
 40
5.000000000000017
 50
19.33157640590045
 51
90
  0
ARC
  8
0
 62
7
 10
278.6121477007
 20
813.5547661802
 30
0
 40
2.000000000000023
 50
192.6022648415
 51
270
  0
ARC
  8
0
 62
7
 10
280.3628259417
 20
809.5547661802
 30
0
 40
2.000000000000019
 50
8.213210701700037
 51
90
  0
ARC
  8
0
 62
7
 10
224.9372000995
 20
801.5547661802
 30
0
 40
58.00000000000007
 50
351.7867892983
 51
8.213210701699991
  0
ARC
  8
0
 62
7
 10
280.3628259417
 20
793.5547661802
 30
0
 40
2
 50
270
 51
351.7867892982999
  0
ARC
  8
0
 62
7
 10
278.6121477007
 20
789.5547661802
 30
0
 40
2
 50
90
 51
167.3977351585
  0
ARC
  8
0
 62
7
 10
257.1387408352
 20
816.0904885493
 30
0
 40
1.38507142407331
 50
224.7754532619034
 51
275.0880410407013
  0
ARC
  8
0
 62
7
 10
256.0967221931
 20
816.3496891139
 30
0
 40
1.194638044219238
 50
84.76162402269985
 51
135.0969408056995
  0
ARC
  8
0
 62
7
 10
256.1281120015
 20
813.5169346363
 30
0
 40
1.181652949417404
 50
105.9402966459002
 51
183.6867390726006
  0
ARC
  8
0
 62
7
 10
257.1387408352
 20
813.3197494271
 30
0
 40
1.3850714240731
 50
224.7754532619981
 51
275.0880410407021
  0
ARC
  8
0
 62
7
 10
257.1387408352
 20
825.0904885493
 30
0
 40
1.385071424073823
 50
224.7754532620015
 51
275.0880410406996
  0
ARC
  8
0
 62
7
 10
256.0967221931
 20
825.3496891139
 30
0
 40
1.194638044218559
 50
84.76162402269688
 51
135.0969408056976
  0
ARC
  8
0
 62
7
 10
256.1281120015
 20
822.5169346363
 30
0
 40
1.181652949417295
 50
105.9402966459017
 51
183.6867390726009
  0
ARC
  8
0
 62
7
 10
257.1387408352
 20
822.3197494271
 30
0
 40
1.3850714240731
 50
224.7754532619981
 51
275.0880410407021
  0
ARC
  8
0
 62
7
 10
334.9372000995
 20
745.4140540892
 30
0
 40
10
 50
0
 51
71.21417090460004
  0
ARC
  8
0
 62
7
 10
334.9372000995
 20
857.6954782711
 30
0
 40
10.00000000000006
 50
288.7858290955003
 51
0
  0
ARC
  8
0
 62
7
 10
224.3255159699
 20
801.5734379995
 30
0
 40
90.77827051583431
 50
224.6851737882826
 51
255.5591531227
  0
ARC
  8
0
 62
7
 10
221.9804387205
 20
804.5610442067
 30
0
 40
86.98539901932367
 50
112.448978612
 51
135.6465002723931
  0
ARC
  8
0
 62
7
 10
218.1751023082
 20
805.2195297005
 30
0
 40
89.23791651393769
 50
184.2827966583
 51
229.1309567385943
  0
ARC
  8
0
 62
7
 10
217.9444835149
 20
798.0257077687
 30
0
 40
88.9844373317876
 50
130.8151794936481
 51
175.7916014514
  0
ARC
  8
0
 62
7
 10
225.8708378839
 20
799.2327536316
 30
0
 40
88.50476778202901
 50
277.4440804449001
 51
298.3586352685
  0
ARC
  8
0
 62
7
 10
334.9372000995
 20
532.0469911451
 30
0
 40
10.00000000000002
 50
291.4760679236999
 51
0
  0
ARC
  8
0
 62
7
 10
311.5597687899
 20
522.8497168434
 30
0
 40
10.00005854116487
 50
194.8996597622001
 51
291.4766739598998
  0
ARC
  8
0
 62
7
 10
109.2352004408
 20
517.3476116978
 30
0
 40
19.93607700011101
 50
273.4349531426999
 51
354.717511468
  0
ARC
  8
0
 62
7
 10
109.3041161404
 20
517.9253607408
 30
0
 40
20.55040949136944
 50
259.1627338122001
 51
353.3590146468
  0
ARC
  8
0
 62
7
 10
305.0367322288
 20
390.5710138356
 30
0
 40
10.00306351619151
 50
67.97137576419985
 51
169.0051641179999
  0
ARC
  8
0
 62
7
 10
334.9372000995
 20
378.4907230386
 30
0
 40
10.00000000000011
 50
0
 51
67.99502377409984
  0
ARC
  8
0
 62
7
 10
281.6096756942
 20
533.4816528127
 30
0
 40
11.08802452611428
 50
75.89064662400018
 51
96.45657394599954
  0
ARC
  8
0
 62
7
 10
224.9721980793
 20
481.8529284793
 30
0
 40
125.5867965748486
 50
285.9225781718999
 51
292.8872221785
  0
ARC
  8
0
 62
7
 10
126.4644668904
 20
492.5049940423
 30
0
 40
3.007395433389417
 50
237.5364891941999
 51
6.117292134499833
  0
ARC
  8
0
 62
7
 10
275.5389924039
 20
540.5124645117001
 30
0
 40
3.53096628100682
 50
13.91777786809994
 51
78.64061367659988
  0
ARC
  8
0
 62
7
 10
334.9204086804
 20
511.291392043
 30
0
 40
10.01679233493227
 50
288.8546218565998
 51
0.02450097370003819
  0
ARC
  8
0
 62
7
 10
334.9200119159
 20
399.1786771102
 30
0
 40
10.01718898211576
 50
359.9771223529
 51
71.14375481679973
  0
ARC
  8
0
 62
7
 10
164.6778729003
 20
512.3658322347
 30
0
 40
35.73023578263317
 50
113.0840334568
 51
174.9480696699
  0
ARC
  8
0
 62
7
 10
94.9223600413
 20
442.7314790076
 30
0
 40
55.91872908054602
 50
57.64393702550001
 51
79.1711377211
  0
ARC
  8
0
 62
7
 10
210.0749943518059
 20
482.1838902387887
 30
0
 40
125.9406745564019
 50
260.9034581943126
 51
273.3512917001127
  0
ARC
  8
0
 62
7
 10
259.8469920507779
 20
399.3026554831922
 30
0
 40
36.02252505170291
 50
349.0803079721569
 51
45.42956657005676
  0
ARC
  8
0
 62
7
 10
330.0419822113
 20
527.8077069832
 30
0
 40
29.13571522636779
 50
194.9763804497999
 51
267.9526242444002
  0
ARC
  8
0
 62
7
 10
334.8748555611
 20
492.8714761952
 30
0
 40
81.05133012955282
 50
232.0302144595916
 51
265.1588172493
  0
ARC
  8
0
 62
7
 10
228.9942094325
 20
402.2611019321
 30
0
 40
3.268007355261225
 50
351.7182179788998
 51
35.53577174089989
  0
ARC
  8
0
 62
7
 10
229.1544249112
 20
402.2037441016
 30
0
 40
3.992943689429982
 50
354.0577854444997
 51
38.02210116760001
  0
ARC
  8
0
 62
7
 10
228.769588075
 20
401.3886910018
 30
0
 40
3.481796654635673
 50
326.9940245657998
 51
6.624754009800107
  0
ARC
  8
0
 62
7
 10
283.7656279936
 20
583.3152754828
 30
0
 40
5.049806982203188
 50
52.98414395100012
 51
76.97581972450017
  0
ARC
  8
0
 62
7
 10
166.1245230051
 20
583.2815285716
 30
0
 40
5.08624128075333
 50
103.1113740356007
 51
126.9286622888999
  0
ARC
  8
0
 62
7
 10
172.6905468058
 20
592.3732210961
 30
0
 40
2.012022090461079
 50
89.53315141810057
 51
179.6595502947003
  0
ARC
  8
0
 62
7
 10
238.9372000995
 20
585.2351763973001
 30
0
 40
2
 50
180
 51
270
  0
ARC
  8
0
 62
7
 10
210.9372000995
 20
585.2351763973001
 30
0
 40
2
 50
270
 51
0
  0
ARC
  8
0
 62
7
 10
164.4372000995
 20
605.3851763973
 30
0
 40
2
 50
90
 51
180
  0
ARC
  8
0
 62
7
 10
166.4372000995
 20
594.3851763973
 30
0
 40
1.600000000000015
 50
244.9125144384989
 51
115.087485561501
  0
ARC
  8
0
 62
7
 10
166.4372000995
 20
594.3851763973
 30
0
 40
3.99999999999998
 50
311.4096221093001
 51
0
  0
ARC
  8
0
 62
7
 10
202.9372000995
 20
609.8851763973
 30
0
 40
3.00000000000007
 50
14.1447407403005
 51
180
  0
ARC
  8
0
 62
7
 10
204.1872000995
 20
597.1351763973
 30
0
 40
4.25
 50
0
 51
180
  0
ARC
  8
0
 62
7
 10
204.1872000995
 20
597.1351763973
 30
0
 40
3.25
 50
0
 51
46.3091047209002
  0
ARC
  8
0
 62
7
 10
204.1872000995
 20
597.1351763973
 30
0
 40
3.24999999999996
 50
133.6908952791008
 51
180
  0
ARC
  8
0
 62
7
 10
204.1872000995
 20
598.3851763973
 30
0
 40
2.599999999999981
 50
285.9423686055998
 51
0
  0
ARC
  8
0
 62
7
 10
204.1872000995
 20
598.3851763973
 30
0
 40
2.600000000000004
 50
159.8416808119009
 51
254.057631394399
  0
ARC
  8
0
 62
7
 10
204.1872000995
 20
598.3851763973
 30
0
 40
3.09999999999999
 50
62.75189166459852
 51
117.2481083355001
  0
ARC
  8
0
 62
7
 10
204.1872000995
 20
598.3851763973
 30
0
 40
3.100000000000026
 50
184.5144018114994
 51
233.7506791170996
  0
ARC
  8
0
 62
7
 10
204.1872000995
 20
598.3851763973
 30
0
 40
3.10000000000004
 50
306.2493208829004
 51
355.4855981885006
  0
ARC
  8
0
 62
7
 10
286.9713147172
 20
593.0129274841
 30
0
 40
5.223477788149867
 50
91.24285404509963
 51
123.1413934229998
  0
ARC
  8
0
 62
7
 10
303.4257973891
 20
593.0129274841
 30
0
 40
5.223477788149867
 50
91.24285404509963
 51
123.1413934230009
  0
ARC
  8
0
 62
7
 10
146.6751993041
 20
593.0129274841
 30
0
 40
5.22347778814964
 50
91.24285404509969
 51
123.1413934230002
  0
ARC
  8
0
 62
7
 10
154.9186261039
 20
579.2466863079
 30
0
 40
18.9889315630236
 50
90.39069747689983
 51
107.1972562970999
  0
ARC
  8
0
 62
7
 10
233.2777396825
 20
593.0129274841
 30
0
 40
5.223477788149867
 50
91.24285404509963
 51
123.1413934229996
  0
ARC
  8
0
 62
7
 10
225.0666838105
 20
579.2466863079
 30
0
 40
18.98893156302486
 50
90.39069747690006
 51
107.1972562971
  0
ARC
  8
0
 62
7
 10
299.2519363007
 20
561.4813369056
 30
0
 40
15.24665608624328
 50
270.4619632856001
 51
289.2105899279
  0
ARC
  8
0
 62
7
 10
219.6212638296
 20
559.7328104713
 30
0
 40
13.4981671965801
 50
270.5092314008999
 51
290.4299440168001
  0
ARC
  8
0
 62
7
 10
229.1038785941
 20
561.4813369056
 30
0
 40
15.24665608624351
 50
270.4619632856
 51
289.2105899279001
  0
ARC
  8
0
 62
7
 10
149.473206123
 20
559.7328104713
 30
0
 40
13.4981671965801
 50
270.5092314008998
 51
290.4299440167999
  0
ARC
  8
0
 62
7
 10
168.578669403
 20
545.7451554235
 30
0
 40
2.682341443695593
 50
333.9748660839995
 51
354.6569460799993
  0
ARC
  8
0
 62
7
 10
224.7941308415897
 20
482.2410593298872
 30
0
 40
126.008903398823
 50
271.242730868527
 51
285.9520226075269
  0
ARC
  8
0
 62
7
 10
287.7448233044936
 20
426.8599622903188
 30
0
 40
3.459075768046422
 50
142.2880614797763
 51
184.6804149400995
  0
ARC
  8
0
 62
7
 10
134.5710169148
 20
558.7696411863
 30
0
 40
39.21203607283367
 50
318.3923299261999
 51
332.2495106595
  0
ARC
  8
0
 62
7
 10
259.9358953328927
 20
399.3093935415746
 30
0
 40
35.93651554811117
 50
296.5163886040625
 51
349.0429086200626
  0
ARC
  8
0
 62
7
 10
143.9372000995
 20
581.2351763973001
 30
0
 40
2.000000000000099
 50
125.0316505289995
 51
180
  0
ARC
  8
0
 62
7
 10
305.9372000995
 20
581.2351763973001
 30
0
 40
2.000000000000114
 50
0
 51
54.9683494710005
  0
ARC
  8
0
 62
7
 10
166.9372000995
 20
612.3851763973
 30
0
 40
5
 50
270
 51
0
  0
ARC
  8
0
 62
7
 10
270.9372000995
 20
613.8851763973
 30
0
 40
7
 50
0
 51
90
  0
ARC
  8
0
 62
7
 10
178.9372000995
 20
613.8851763973
 30
0
 40
7
 50
90
 51
180
  0
CIRCLE
  8
0
 62
7
 10
224.9372000995
 20
801.5547661802
 30
0
 40
53.00000000000003
  0
CIRCLE
  8
0
 62
7
 10
224.9372000995
 20
882.5547661802
 30
0
 40
9.500000000000172
  0
CIRCLE
  8
0
 62
7
 10
295.085257806
 20
761.0547661802
 30
0
 40
9.500000000000041
  0
CIRCLE
  8
0
 62
7
 10
154.7891423929
 20
761.0547661802
 30
0
 40
9.5
  0
CIRCLE
  8
0
 62
7
 10
224.9372000995
 20
720.5547661802
 30
0
 40
9.500000000000116
  0
CIRCLE
  8
0
 62
7
 10
295.085257806
 20
842.0547661802
 30
0
 40
9.500000000000197
  0
CIRCLE
  8
0
 62
7
 10
154.7891423929
 20
842.0547661802
 30
0
 40
9.500000000000016
  0
CIRCLE
  8
0
 62
2
  6
DASHDOT
 10
554.3644796485
 20
455.2351763973
 30
0
 40
84
  0
CIRCLE
  8
0
 62
7
 10
613.7614492681
 20
514.6321460169
 30
0
 40
9.499999999999886
  0
CIRCLE
  8
0
 62
7
 10
613.7614492681
 20
395.8382067776
 30
0
 40
9.5
  0
CIRCLE
  8
0
 62
7
 10
494.9675100288
 20
514.6321460169
 30
0
 40
9.5
  0
CIRCLE
  8
0
 62
7
 10
494.9675100288
 20
395.8382067776
 30
0
 40
9.5
  0
CIRCLE
  8
0
 62
7
 10
554.3644796485
 20
455.2351763973
 30
0
 40
47
  0
CIRCLE
  8
0
 62
7
 10
554.3644796485
 20
455.2351763973
 30
0
 40
40
  0
CIRCLE
  8
0
 62
7
 10
554.3644796485
 20
455.2351763973
 30
0
 40
47.5
  0
CIRCLE
  8
0
 62
7
 10
554.3644796485
 20
455.2351763973
 30
0
 40
48
  0
CIRCLE
  8
0
 62
7
 10
554.3644796485
 20
455.2351763973
 30
0
 40
54.5
  0
CIRCLE
  8
0
 62
7
 10
554.3644796485
 20
455.2351763973
 30
0
 40
55
  0
CIRCLE
  8
0
 62
7
 10
554.3644796485
 20
455.2351763973
 30
0
 40
64.5
  0
CIRCLE
  8
0
 62
7
 10
554.3644796485
 20
455.2351763973
 30
0
 40
55.5
  0
CIRCLE
  8
0
 62
7
 10
554.3644796485
 20
455.2351763973
 30
0
 40
62.5
  0
CIRCLE
  8
0
 62
7
 10
554.3644796485
 20
455.2351763973
 30
0
 40
37.5
  0
CIRCLE
  8
0
 62
7
 10
224.9372000995
 20
720.5547661802
 30
0
 40
12.00000000000011
  0
CIRCLE
  8
0
 62
7
 10
295.085257806
 20
761.0547661802
 30
0
 40
12
  0
CIRCLE
  8
0
 62
7
 10
154.7891423929
 20
761.0547661802
 30
0
 40
12.0000000000002
  0
CIRCLE
  8
0
 62
7
 10
295.085257806
 20
842.0547661802
 30
0
 40
12.00000000000006
  0
CIRCLE
  8
0
 62
7
 10
154.7891423929
 20
842.0547661802
 30
0
 40
12.00000000000009
  0
CIRCLE
  8
0
 62
7
 10
224.9372000995
 20
882.5547661802
 30
0
 40
12.00000000000011
  0
CIRCLE
  8
0
 62
7
 10
124.8120876502
 20
497.011925054
 30
0
 40
1.249999999999901
  0
CIRCLE
  8
0
 62
7
 10
204.1872000995
 20
598.3851763973
 30
0
 40
2.500000000000114
  0
LINE
  8
1
 62
2
 10
288.1816264903
 20
346.0095346823
 30
0
 11
249.7843304159
 21
346.0095346823
 31
0
  0
LINE
  8
1
 62
2
 10
249.7843304159
 20
346.0095346823
 30
0
 11
227.8646463026
 21
395.7351763973
 31
0
  0
LINE
  8
1
 62
2
 10
229.9399929529998
 20
393.1529031347166
 30
0
 11
227.8646463026
 21
395.7351763973
 31
0
  0
LINE
  8
1
 62
2
 10
228.3708125922135
 20
392.4611888271896
 30
0
 11
227.8646463026
 21
395.7351763973
 31
0
  0
LINE
  8
1
 62
2
 10
697.1527003652
 20
545.9439079078001
 30
0
 11
680.3484679788
 21
545.9439079078001
 31
0
  0
LINE
  8
1
 62
2
 10
680.3484679788
 20
545.9439079078001
 30
0
 11
622.358385847
 21
518.6747542663312
 31
0
  0
LINE
  8
1
 62
2
 10
624.8893241082546
 20
520.8124049486683
 30
0
 11
622.358385847
 21
518.6747542663312
 31
0
  0
LINE
  8
1
 62
2
 10
625.619068017825
 20
519.2605449310249
 30
0
 11
622.358385847
 21
518.6747542663312
 31
0
  0
DIMENSION
  8
1
  6
CONTINUOUS
 62
2
  2
*D0
  3
DMST_1
 10
364.9372000995
 20
327.2206141774001
 30
0
 11
214.9372000995
 21
329.8206141774001
 31
0
 12
0
 22
0
 32
0
 70
0
 13
64.9372000995
 23
392.7351763973
 33
0
 14
364.9372000995
 24
392.7351763973
 34
0
 53
0
  0
DIMENSION
  8
1
  6
CONTINUOUS
 62
2
  2
*D1
  3
DMST_1
 10
364.9372000995
 20
335.8270114294
 30
0
 11
294.9372000995
 21
338.4270114294
 31
0
 12
0
 22
0
 32
0
 70
0
 13
224.9372000995
 23
346.2538486833
 33
0
 14
364.9372000995
 24
392.7351763973
 34
0
 53
0
  0
DIMENSION
  8
1
  6
CONTINUOUS
 62
2
  2
*D2
  3
DMST_1
 10
64.9372000995
 20
335.8270114294
 30
0
 11
144.9372000995
 21
338.4270114294
 31
0
 12
0
 22
0
 32
0
 70
0
 13
224.9372000995
 23
346.2538486833
 33
0
 14
64.9372000995
 24
392.7351763973
 34
0
 53
0
  0
DIMENSION
  8
1
  6
CONTINUOUS
 62
2
  2
*D3
  3
DMST_1
 10
380.9372000995001
 20
455.2351763973
 30
0
 11
378.3372000995
 21
405.2351763973
 31
0
 12
0
 22
0
 32
0
 70
0
 13
274.9372000995
 23
355.2351763973
 33
0
 14
371.2938984373
 24
455.2351763973
 34
0
 50
90
 53
0
  0
DIMENSION
  8
1
  6
CONTINUOUS
 62
2
  2
*D4
  3
DMST_1
 10
389.3701018918
 20
355.2351763973
 30
0
 11
386.7701018918
 21
488.5601763973
 31
0
 12
0
 22
0
 32
0
 70
0
  1
267
 13
261.9372000995
 23
621.8851763973
 33
0
 14
274.9372000995
 24
355.2351763973
 34
0
 50
90
 53
0
  0
DIMENSION
  8
1
  6
CONTINUOUS
 62
2
  2
*D5
  3
DMST_1
 10
380.9372000995001
 20
907.0547661802
 30
0
 11
378.3372000995
 21
801.5547661802
 31
0
 12
0
 22
0
 32
0
 70
1
 13
362.9372000995
 23
696.0547661802
 33
0
 14
362.9372000995
 24
907.0547661802
 34
0
 53
0
  0
DIMENSION
  8
1
  6
CONTINUOUS
 62
2
  2
*D6
  3
DMST_2
 10
492.7976456578855
 20
444.4752994290391
 30
0
 11
686.6300188199433
 21
480.9902920309406
 31
0
 12
0
 22
0
 32
0
 70
3
  1
D3
 15
615.9313136391146
 25
465.995053365561
 35
0
 40
0
 53
0
  0
DIMENSION
  8
1
  6
CONTINUOUS
 62
2
  2
*D7
  3
DMST_2
 10
475.6942186554783
 20
425.7904818787649
 30
0
 11
683.1672149059708
 21
506.2195908657322
 31
0
 12
0
 22
0
 32
0
 70
3
  1
D2
 15
633.0347406415218
 25
484.6798709158349
 35
0
 40
0
 53
0
  0
DIMENSION
  8
1
  6
CONTINUOUS
 62
2
  2
*D8
  3
DMST_2
 10
462.57144789167
 20
403.2323945400801
 30
0
 11
676.7989503742637
 21
527.5852551107849
 31
0
 12
0
 22
0
 32
0
 70
3
  1
D1
 15
646.1575114053301
 25
507.23795825452
 35
0
 40
0
 53
0
  0
ENDSEC
  0
EOF
