  0
SECTION
  2
HEADER
  9
$ACADVER
  1
AC1009
  9
$INSBASE
 10
0
 20
0
  9
$EXTMIN
 10
1020.190593160057
 20
269.436164173548
  9
$EXTMAX
 10
1170.29986649796
 20
556.718767707988
  9
$LIMMIN
 10
1020.190593160057
 20
269.436164173548
  9
$LIMMAX
 10
1170.29986649796
 20
556.718767707988
  9
$VIEWCTR
 10
10
 20
10
  9
$VIEWSIZE
 40
10
  9
$SNAPMODE
 70
0
  9
$SNAPUNIT
 10
1
 20
1
  9
$SNAPBASE
 10
0
 20
0
  9
$SNAPANG
 50
0
  9
$SNAPSTYLE
 70
0
  9
$SNAPISOPAIR
 70
0
  9
$GRIDMODE
 70
0
  9
$GRIDUNIT
 10
0
 20
0
  9
$ORTHOMODE
 70
0
  9
$REGENMODE
 70
1
  9
$FILLMODE
 70
1
  9
$QTEXTMODE
 70
0
  9
$DRAGMODE
 70
2
  9
$LTSCALE
 40
1
  9
$OSMODE
 70
0
  9
$ATTMODE
 70
1
  9
$TEXTSIZE
 40
3.5
  9
$TRACEWID
 40
0.5
  9
$TEXTSTYLE
  7
STANDARD
  9
$CLAYER
  8
0
  9
$CELTYPE
  6
BYLAYER
  9
$CECOLOR
 62
256
  9
$DIMSCALE
 40
1
  9
$DIMASZ
 40
0.18
  9
$DIMEXO
 40
0.0625
  9
$DIMDLI
 40
0.38
  9
$DIMRND
 40
0
  9
$DIMDLE
 40
0
  9
$DIMEXE
 40
0.18
  9
$DIMTP
 40
0
  9
$DIMTM
 40
0
  9
$DIMTXT
 40
0.18
  9
$DIMCEN
 40
0.09
  9
$DIMTSZ
 40
0
  9
$DIMTOL
 70
0
  9
$DIMLIM
 70
0
  9
$DIMTIH
 70
1
  9
$DIMTOH
 70
1
  9
$DIMSE1
 70
0
  9
$DIMSE2
 70
0
  9
$DIMTAD
 70
0
  9
$DIMZIN
 70
0
  9
$DIMBLK
  1

  9
$DIMASO
 70
1
  9
$DIMSHO
 70
1
  9
$DIMPOST
  1

  9
$DIMAPOST
  1

  9
$DIMALT
 70
0
  9
$DIMALTD
 70
2
  9
$DIMALTF
 40
25.4
  9
$DIMLFAC
 40
1
  9
$DIMTOFL
 70
0
  9
$DIMTVP
 40
0
  9
$DIMTIX
 70
0
  9
$DIMSOXD
 70
0
  9
$DIMSAH
 70
0
  9
$DIMBLK1
  1

  9
$DIMBLK2
  1

  9
$DIMSTYLE
  2
*UNNAMED
  9
$DIMCLRD
 70
0
  9
$DIMCLRE
 70
0
  9
$DIMCLRT
 70
0
  9
$DIMTFAC
 40
1
  9
$DIMGAP
 40
0.09
  9
$LUNITS
 70
2
  9
$LUPREC
 70
4
  9
$AXISMODE
 70
0
  9
$AXISUNIT
 10
0
 20
0
  9
$SKETCHINC
 40
0.1
  9
$FILLETRAD
 40
2
  9
$AUNITS
 70
0
  9
$AUPREC
 70
0
  9
$MENU
  1
ACAD
  9
$ELEVATION
 40
0
  9
$THICKNESS
 40
0
  9
$VIEWDIR
 10
0
 20
0
 30
1
  9
$LIMCHECK
 70
0
  9
$BLIPMODE
 70
1
  9
$CHAMFERA
 40
0
  9
$CHAMFERB
 40
0
  9
$FASTZOOM
 70
1
  9
$SKPOLY
 70
0
  9
$ANGBASE
 50
0
  9
$ANGDIR
 70
0
  9
$PDMODE
 70
0
  9
$PDSIZE
 40
0
  9
$PLINEWID
 40
0
  9
$COORDS
 70
2
  0
ENDSEC
  0
SECTION
  2
TABLES
  0
TABLE
  2
DIMSTYLE
 70
4
  0
DIMSTYLE
  2
DMST_1
 70
0
  3

  4

  5

  6

  7

 40
1
 41
2.5
 42
0.5
 43
7
 44
1
 45
0
 46
0
 47
0
 48
0
140
2.5
141
0
142
0
143
25.4
144
1
145
0
146
1
147
0.09
 71
0
 72
0
 73
0
 74
0
 75
0
 76
0
 77
1
 78
9
170
0
171
2
172
0
173
0
174
0
175
0
176
2
177
2
178
2
  0
DIMSTYLE
  2
DMST_2
 70
0
  3

  4

  5

  6

  7

 40
1
 41
3
 42
0.5
 43
7
 44
1
 45
0
 46
0
 47
0
 48
0
140
3
141
0
142
0
143
25.4
144
1
145
0
146
1
147
0.09
 71
0
 72
0
 73
0
 74
0
 75
0
 76
0
 77
1
 78
9
170
0
171
2
172
0
173
0
174
0
175
0
176
2
177
2
178
2
  0
DIMSTYLE
  2
DMST_3
 70
0
  3

  4

  5

  6

  7

 40
1
 41
3.2
 42
0.5
 43
7
 44
1.5
 45
0
 46
0
 47
0
 48
0
140
3.2
141
0
142
0
143
25.4
144
1
145
0
146
1
147
0.09
 71
0
 72
0
 73
0
 74
0
 75
0
 76
0
 77
1
 78
9
170
0
171
2
172
0
173
0
174
0
175
0
176
2
177
2
178
2
  0
DIMSTYLE
  2
DMST_4
 70
0
  3

  4

  5

  6

  7

 40
1
 41
3
 42
0.5
 43
7
 44
0.9999999999999998
 45
0
 46
0
 47
0
 48
0
140
3
141
0
142
0
143
25.4
144
1
145
0
146
1
147
0.09
 71
0
 72
0
 73
1
 74
1
 75
0
 76
0
 77
1
 78
9
170
0
171
2
172
0
173
0
174
0
175
0
176
2
177
2
178
2
  0
ENDTAB
  0
TABLE
  2
LTYPE
 70
9
  0
LTYPE
  2
CONTINUOUS
 70
64
  3
Solid line
 72
65
 73
0
 40
0
  0
LTYPE
  2
BORDER
 70
64
  3
__ __ . __ __ .
 72
65
 73
6
 40
13.23011989961237
 49
3.780034257032106
 49
-1.890017128516053
 49
3.780034257032106
 49
-1.890017128516053
 49
0
 49
-1.890017128516053
  0
LTYPE
  2
CENTER
 70
64
  3
____ _ ____ _
 72
65
 73
4
 40
15.12013702812842
 49
9.450085642580264
 49
-1.890017128516053
 49
1.890017128516053
 49
-1.890017128516053
  0
LTYPE
  2
DASHDOT
 70
64
  3
__ . __ . __ .
 72
65
 73
4
 40
7.560068514064212
 49
3.780034257032106
 49
-1.890017128516053
 49
0
 49
-1.890017128516053
  0
LTYPE
  2
DASHED
 70
64
  3
__ __ __ __ __
 72
65
 73
2
 40
5.670051385548159
 49
3.780034257032106
 49
-1.890017128516053
  0
LTYPE
  2
DIVIDE
 70
64
  3
__ . . __ . . 
 72
65
 73
6
 40
9.450085642580264
 49
3.780034257032106
 49
-1.890017128516053
 49
0
 49
-1.890017128516053
 49
0
 49
-1.890017128516053
  0
LTYPE
  2
DOT
 70
64
  3
..............
 72
65
 73
4
 40
3.780034257032106
 49
0
 49
-1.890017128516053
 49
0
 49
-1.890017128516053
  0
LTYPE
  2
HIDDEN
 70
64
  3
_ _ _ _ _ _ _
 72
65
 73
2
 40
2.835025692774079
 49
1.890017128516053
 49
-0.9450085642580265
  0
LTYPE
  2
PHANTOM
 70
64
  3
_____ _ _ _____ _ _ 
 72
65
 73
6
 40
18.90017128516053
 49
9.450085642580264
 49
-1.890017128516053
 49
1.890017128516053
 49
-1.890017128516053
 49
1.890017128516053
 49
-1.890017128516053
  0
ENDTAB
  0
TABLE
  2
LAYER
 70
3
  0
LAYER
  2
0
 70
0
 62
7
  6
CONTINUOUS
  0
LAYER
  2
1
 70
0
 62
7
  6
CONTINUOUS
  0
ENDTAB
  0
TABLE
  2
STYLE
 70
4
  0
STYLE
  2
STANDARD
 70
0
 40
0
 41
1
 50
0
 71
0
 42
3.5
  3
txt
  4

  0
STYLE
  2
SIMPLEX
 70
0
 40
0
 41
1
 50
0
 71
0
 42
3.5
  3
simplex
  4

  0
STYLE
  2
COMPLEX
 70
0
 40
0
 41
1
 50
0
 71
0
 42
3.5
  3
complex
  4

  0
STYLE
  2
ITALIC
 70
0
 40
0
 41
1
 50
0
 71
0
 42
3.5
  3
italic
  4

  0
ENDTAB
  0
TABLE
  2
VIEW
 70
0
  0
ENDTAB
  0
ENDSEC
  0
SECTION
  2
BLOCKS
  0
BLOCK
  8
1
  2
*D0
 70
1
 10
0
 20
0
 30
0
  0
LINE
  8
1
 62
2
 10
1053.685173558933
 20
331.415394295723
 30
0
 11
1153.685173558933
 21
331.415394295723
 31
0
  0
LINE
  8
1
 62
2
 10
1053.685173558933
 20
359.9583804669724
 30
0
 11
1053.685173558933
 21
330.415394295723
 31
0
  0
LINE
  8
1
 62
2
 10
1153.685173558933
 20
359.9583804669724
 30
0
 11
1153.685173558933
 21
330.415394295723
 31
0
  0
LINE
  8
1
 62
2
 10
1053.685173558933
 20
331.415394295723
 30
0
 11
1056.185173558933
 21
332.090394295723
 31
0
  0
LINE
  8
1
 62
2
 10
1053.685173558933
 20
331.415394295723
 30
0
 11
1056.185173558933
 21
330.740394295723
 31
0
  0
LINE
  8
1
 62
2
 10
1153.685173558933
 20
331.415394295723
 30
0
 11
1151.185173558933
 21
330.740394295723
 31
0
  0
LINE
  8
1
 62
2
 10
1153.685173558933
 20
331.415394295723
 30
0
 11
1151.185173558933
 21
332.090394295723
 31
0
  0
TEXT
  8
1
 62
2
 10
1100.725237068394
 20
332.215394295723
 30
0
 40
2.5
  1
100
 41
0.9
 51
15
  0
ENDBLK
  8
0
  0
BLOCK
  8
1
  2
*D1
 70
1
 10
0
 20
0
 30
0
  0
LINE
  8
1
 62
2
 10
1163.110286356428
 20
348.8583804669723
 30
0
 11
1163.110286356428
 21
371.8583804669723
 31
0
  0
LINE
  8
1
 62
2
 10
1127.924223948821
 20
348.8583804669723
 30
0
 11
1164.110286356428
 21
348.8583804669723
 31
0
  0
LINE
  8
1
 62
2
 10
1157.83634742825
 20
371.8583804669723
 30
0
 11
1164.110286356428
 21
371.8583804669723
 31
0
  0
LINE
  8
1
 62
2
 10
1163.110286356428
 20
348.8583804669723
 30
0
 11
1162.435286356428
 21
351.3583804669723
 31
0
  0
LINE
  8
1
 62
2
 10
1163.110286356428
 20
348.8583804669723
 30
0
 11
1163.785286356428
 21
351.3583804669723
 31
0
  0
LINE
  8
1
 62
2
 10
1163.110286356428
 20
371.8583804669723
 30
0
 11
1163.785286356428
 21
369.3583804669723
 31
0
  0
LINE
  8
1
 62
2
 10
1163.110286356428
 20
371.8583804669723
 30
0
 11
1162.435286356428
 21
369.3583804669723
 31
0
  0
TEXT
  8
1
 62
2
 10
1162.310286356428
 20
358.1484439764334
 30
0
 40
2.5
  1
23
 50
90
 41
0.9
 51
15
  0
ENDBLK
  8
0
  0
BLOCK
  8
1
  2
*D2
 70
1
 10
0
 20
0
 30
0
  0
LINE
  8
1
 62
2
 10
1169.29986649796
 20
348.8583804669723
 30
0
 11
1169.29986649796
 21
445.3583804520723
 31
0
  0
LINE
  8
1
 62
2
 10
1127.924223948822
 20
348.8583804669723
 30
0
 11
1170.29986649796
 21
348.8583804669723
 31
0
  0
LINE
  8
1
 62
2
 10
1088.383036005233
 20
445.3583804520723
 30
0
 11
1170.29986649796
 21
445.3583804520723
 31
0
  0
LINE
  8
1
 62
2
 10
1169.29986649796
 20
445.3583804520723
 30
0
 11
1170.10986649796
 21
442.3583804520723
 31
0
  0
LINE
  8
1
 62
2
 10
1169.29986649796
 20
445.3583804520723
 30
0
 11
1168.48986649796
 21
442.3583804520723
 31
0
  0
LINE
  8
1
 62
2
 10
1169.29986649796
 20
348.8583804669723
 30
0
 11
1168.48986649796
 21
351.8583804669723
 31
0
  0
LINE
  8
1
 62
2
 10
1169.29986649796
 20
348.8583804669723
 30
0
 11
1170.10986649796
 21
351.8583804669723
 31
0
  0
TEXT
  8
1
 62
2
 10
1168.49986649796
 20
393.1064566708756
 30
0
 40
3
  1
(97)
 50
90
 41
0.9
 51
15
  0
ENDBLK
  8
0
  0
BLOCK
  8
1
  2
*D3
 70
1
 10
0
 20
0
 30
0
  0
LINE
  8
1
 62
2
 10
1169.29986649796
 20
465.6675021241723
 30
0
 11
1169.29986649796
 21
554.6675072827723
 31
0
  0
LINE
  8
1
 62
2
 10
1107.185173585033
 20
465.6675021241723
 30
0
 11
1170.29986649796
 21
465.6675021241723
 31
0
  0
LINE
  8
1
 62
2
 10
1107.185173585033
 20
554.6675072827723
 30
0
 11
1170.29986649796
 21
554.6675072827723
 31
0
  0
LINE
  8
1
 62
2
 10
1169.29986649796
 20
554.6675072827723
 30
0
 11
1170.10986649796
 21
551.6675072827723
 31
0
  0
LINE
  8
1
 62
2
 10
1169.29986649796
 20
554.6675072827723
 30
0
 11
1168.48986649796
 21
551.6675072827723
 31
0
  0
LINE
  8
1
 62
2
 10
1169.29986649796
 20
465.6675021241723
 30
0
 11
1168.48986649796
 21
468.6675021241723
 31
0
  0
LINE
  8
1
 62
2
 10
1169.29986649796
 20
465.6675021241723
 30
0
 11
1170.10986649796
 21
468.6675021241723
 31
0
  0
TEXT
  8
1
 62
2
 10
1168.49986649796
 20
507.5155809148256
 30
0
 40
3
  1
89
 50
90
 41
0.9
 51
15
  0
ENDBLK
  8
0
  0
BLOCK
  8
1
  2
*D4
 70
1
 10
0
 20
0
 30
0
  0
LINE
  8
1
 62
2
 10
1053.685173558933
 20
348.8583804669723
 30
0
 11
1064.685173558933
 21
348.8583804669723
 31
0
  0
LINE
  8
1
 62
2
 10
1053.685173558933
 20
359.9583804669724
 30
0
 11
1053.685173558933
 21
347.3583804669723
 31
0
  0
LINE
  8
1
 62
2
 10
1064.685173558933
 20
358.4583804669724
 30
0
 11
1064.685173558933
 21
347.3583804669723
 31
0
  0
LINE
  8
1
 62
2
 10
1053.685173558933
 20
348.8583804669723
 30
0
 11
1056.885173558933
 21
349.7223804669723
 31
0
  0
LINE
  8
1
 62
2
 10
1053.685173558933
 20
348.8583804669723
 30
0
 11
1056.885173558933
 21
347.9943804669723
 31
0
  0
LINE
  8
1
 62
2
 10
1064.685173558933
 20
348.8583804669723
 30
0
 11
1061.485173558933
 21
347.9943804669723
 31
0
  0
LINE
  8
1
 62
2
 10
1064.685173558933
 20
348.8583804669723
 30
0
 11
1061.485173558933
 21
349.7223804669723
 31
0
  0
TEXT
  8
1
 62
2
 10
1057.316454851043
 20
349.8583804669723
 30
0
 40
3.2
  1
11
 41
0.9
 51
15
  0
ENDBLK
  8
0
  0
BLOCK
  8
1
  2
*D5
 70
1
 10
0
 20
0
 30
0
  0
LINE
  8
1
 62
2
 10
1059.932616223909
 20
384.7680479401466
 30
0
 11
1056.830593160057
 21
396.494600964318
 31
0
  0
LINE
  8
1
 62
2
 10
1056.830593160057
 20
396.494600964318
 30
0
 11
1020.190593160057
 21
396.494600964318
 31
0
  0
LINE
  8
1
 62
2
 10
1059.932616223909
 20
384.7680479401466
 30
0
 11
1058.382350389689
 21
387.4611457555348
 31
0
  0
LINE
  8
1
 62
2
 10
1059.932616223909
 20
384.7680479401466
 30
0
 11
1059.948481043933
 21
387.8754340293679
 31
0
  0
TEXT
  8
1
 62
2
 10
1020.190593160057
 20
397.294600964318
 30
0
 40
3
  1
                 
 41
0.7200000000000001
  0
ENDBLK
  8
0
  0
ENDSEC
  0
SECTION
  2
ENTITIES
  0
POLYLINE
  8
0
 62
7
 66
1
  0
VERTEX
  8
0
 10
1080.685173514233
 20
456.7066281878723
 30
0
  0
VERTEX
  8
0
 10
1080.718403103733
 20
456.7336151220723
 30
0
  0
VERTEX
  8
0
 10
1080.751617792033
 20
456.7609689974723
 30
0
  0
VERTEX
  8
0
 10
1080.784817579133
 20
456.7886683934723
 30
0
  0
VERTEX
  8
0
 10
1080.818000602533
 20
456.8166890957723
 30
0
  0
VERTEX
  8
0
 10
1080.851168724633
 20
456.8450087526723
 30
0
  0
VERTEX
  8
0
 10
1080.884316357733
 20
456.8736050122723
 30
0
  0
VERTEX
  8
0
 10
1080.917447227033
 20
456.9024545916723
 30
0
  0
VERTEX
  8
0
 10
1080.953865664933
 20
456.9344539039723
 30
0
  0
VERTEX
  8
0
 10
1080.990259888533
 20
456.9667028107723
 30
0
  0
VERTEX
  8
0
 10
1081.026628035033
 20
456.9991696470723
 30
0
  0
VERTEX
  8
0
 10
1081.062966379333
 20
457.0318236791723
 30
0
  0
VERTEX
  8
0
 10
1081.099276783833
 20
457.0646360361723
 30
0
  0
VERTEX
  8
0
 10
1081.153250652333
 20
457.1136887961723
 30
0
  0
VERTEX
  8
0
 10
1081.207153740333
 20
457.1629231640723
 30
0
  0
VERTEX
  8
0
 10
1081.260980459833
 20
457.2122376256723
 30
0
  0
VERTEX
  8
0
 10
1081.314725222933
 20
457.2615325295723
 30
0
  0
VERTEX
  8
0
 10
1081.368386167033
 20
457.3107082241723
 30
0
  0
VERTEX
  8
0
 10
1081.421955841533
 20
457.3596641265723
 30
0
  0
VERTEX
  8
0
 10
1081.457903030333
 20
457.3923889392723
 30
0
  0
VERTEX
  8
0
 10
1081.493805515533
 20
457.4249386632723
 30
0
  0
VERTEX
  8
0
 10
1081.529663297333
 20
457.4572834962723
 30
0
  0
VERTEX
  8
0
 10
1081.565476375633
 20
457.4893917733723
 30
0
  0
VERTEX
  8
0
 10
1081.601239162433
 20
457.5212346234723
 30
0
  0
VERTEX
  8
0
 10
1081.629305499533
 20
457.5460469194723
 30
0
  0
VERTEX
  8
0
 10
1081.657342034333
 20
457.5706617751723
 30
0
  0
VERTEX
  8
0
 10
1081.685345041533
 20
457.5950633579723
 30
0
  0
VERTEX
  8
0
 10
1081.713318246333
 20
457.6192386293723
 30
0
  0
VERTEX
  8
0
 10
1081.741256060933
 20
457.6431717568723
 30
0
  0
VERTEX
  8
0
 10
1081.769162210633
 20
457.6668469079723
 30
0
  0
VERTEX
  8
0
 10
1081.797034832633
 20
457.6902519756723
 30
0
  0
VERTEX
  8
0
 10
1081.824872064333
 20
457.7133701958723
 30
0
  0
VERTEX
  8
0
 10
1081.852673905833
 20
457.7361866676723
 30
0
  0
VERTEX
  8
0
 10
1081.880438494433
 20
457.7586883523723
 30
0
  0
VERTEX
  8
0
 10
1081.907674091833
 20
457.7804654681723
 30
0
  0
VERTEX
  8
0
 10
1081.934872436333
 20
457.8019110330723
 30
0
  0
VERTEX
  8
0
 10
1081.962035390533
 20
457.8230082833723
 30
0
  0
VERTEX
  8
0
 10
1081.989161091833
 20
457.8437460431723
 30
0
  0
VERTEX
  8
0
 10
1082.014180141433
 20
457.8625662096723
 30
0
  0
VERTEX
  8
0
 10
1082.039167526133
 20
457.8810557567723
 30
0
  0
VERTEX
  8
0
 10
1082.064121383233
 20
457.8992044397723
 30
0
  0
VERTEX
  8
0
 10
1082.089041712633
 20
457.9169992202723
 30
0
  0
VERTEX
  8
0
 10
1082.113928514533
 20
457.9344307848723
 30
0
  0
VERTEX
  8
0
 10
1082.133456486233
 20
457.9478651129723
 30
0
  0
VERTEX
  8
0
 10
1082.152965831533
 20
457.9610619538723
 30
0
  0
VERTEX
  8
0
 10
1082.172450962433
 20
457.9740175821723
 30
0
  0
VERTEX
  8
0
 10
1082.191915604233
 20
457.9867254787723
 30
0
  0
VERTEX
  8
0
 10
1082.211357894333
 20
457.9991809868723
 30
0
  0
VERTEX
  8
0
 10
1082.230777832633
 20
458.0113775872723
 30
0
  0
VERTEX
  8
0
 10
1082.250173556533
 20
458.0233115547723
 30
0
  0
VERTEX
  8
0
 10
1082.269548791433
 20
458.0349763699723
 30
0
  0
VERTEX
  8
0
 10
1082.288899811833
 20
458.0463673764723
 30
0
  0
VERTEX
  8
0
 10
1082.308226617933
 20
458.0574789860723
 30
0
  0
VERTEX
  8
0
 10
1082.327186482933
 20
458.0681156211723
 30
0
  0
VERTEX
  8
0
 10
1082.346122133533
 20
458.0784719281723
 30
0
  0
VERTEX
  8
0
 10
1082.365035432333
 20
458.0885432505723
 30
0
  0
VERTEX
  8
0
 10
1082.383926379433
 20
458.0983249315723
 30
0
  0
VERTEX
  8
0
 10
1082.403135838833
 20
458.1079818152723
 30
0
  0
VERTEX
  8
0
 10
1082.422321083933
 20
458.1173276373723
 30
0
  0
VERTEX
  8
0
 10
1082.441480251933
 20
458.1263568096723
 30
0
  0
VERTEX
  8
0
 10
1082.460613342933
 20
458.1350637444723
 30
0
  0
VERTEX
  8
0
 10
1082.479724082133
 20
458.1434447162723
 30
0
  0
VERTEX
  8
0
 10
1082.498466017633
 20
458.1513516449723
 30
0
  0
VERTEX
  8
0
 10
1082.517183738733
 20
458.1589335420723
 30
0
  0
VERTEX
  8
0
 10
1082.535877245433
 20
458.1661838882723
 30
0
  0
VERTEX
  8
0
 10
1082.554544675133
 20
458.1730989583723
 30
0
  0
VERTEX
  8
0
 10
1082.573566007433
 20
458.1798035496723
 30
0
  0
VERTEX
  8
0
 10
1082.592561262633
 20
458.1861477189723
 30
0
  0
VERTEX
  8
0
 10
1082.611530440833
 20
458.1921268099723
 30
0
  0
VERTEX
  8
0
 10
1082.630469816733
 20
458.1977343031723
 30
0
  0
VERTEX
  8
0
 10
1082.649383115533
 20
458.2029655420723
 30
0
  0
VERTEX
  8
0
 10
1082.668268474733
 20
458.2078149386723
 30
0
  0
VERTEX
  8
0
 10
1082.687125894233
 20
458.2122769051723
 30
0
  0
VERTEX
  8
0
 10
1082.702785151933
 20
458.2156892710723
 30
0
  0
VERTEX
  8
0
 10
1082.718423920633
 20
458.2188259654723
 30
0
  0
VERTEX
  8
0
 10
1082.734044062833
 20
458.2216860571723
 30
0
  0
VERTEX
  8
0
 10
1082.749641853333
 20
458.2242648893723
 30
0
  0
VERTEX
  8
0
 10
1082.765222880033
 20
458.2265596681723
 30
0
  0
VERTEX
  8
0
 10
1082.780781554933
 20
458.2285675996723
 30
0
  0
VERTEX
  8
0
 10
1082.795433121733
 20
458.2301955514723
 30
0
  0
VERTEX
  8
0
 10
1082.810066061933
 20
458.2315636643723
 30
0
  0
VERTEX
  8
0
 10
1082.824680375833
 20
458.2326682129723
 30
0
  0
VERTEX
  8
0
 10
1082.839276063233
 20
458.2335073345723
 30
0
  0
VERTEX
  8
0
 10
1082.853854986833
 20
458.2340782352723
 30
0
  0
VERTEX
  8
0
 10
1082.868413421233
 20
458.2343790524723
 30
0
  0
VERTEX
  8
0
 10
1082.882955091933
 20
458.2344051295723
 30
0
  0
VERTEX
  8
0
 10
1082.897476273533
 20
458.2341564663723
 30
0
  0
VERTEX
  8
0
 10
1082.911978828633
 20
458.2336293378723
 30
0
  0
VERTEX
  8
0
 10
1082.926462757333
 20
458.2328209498723
 30
0
  0
VERTEX
  8
0
 10
1082.940669151933
 20
458.2317508601723
 30
0
  0
VERTEX
  8
0
 10
1082.954856920033
 20
458.2304041677723
 30
0
  0
VERTEX
  8
0
 10
1082.969026061633
 20
458.2287790098723
 30
0
  0
VERTEX
  8
0
 10
1082.983176576833
 20
458.2268735238723
 30
0
  0
VERTEX
  8
0
 10
1082.997563648033
 20
458.2246420749723
 30
0
  0
VERTEX
  8
0
 10
1083.011932092633
 20
458.2221135341723
 30
0
  0
VERTEX
  8
0
 10
1083.026281910933
 20
458.2192869701723
 30
0
  0
VERTEX
  8
0
 10
1083.040609377433
 20
458.2161577263723
 30
0
  0
VERTEX
  8
0
 10
1083.054918217433
 20
458.2127248712723
 30
0
  0
VERTEX
  8
0
 10
1083.068951385933
 20
458.2090545290723
 30
0
  0
VERTEX
  8
0
 10
1083.082965928133
 20
458.2050861635723
 30
0
  0
VERTEX
  8
0
 10
1083.096959981133
 20
458.2008169808723
 30
0
  0
VERTEX
  8
0
 10
1083.110933545033
 20
458.1962441870723
 30
0
  0
VERTEX
  8
0
 10
1083.125171604533
 20
458.1912625425723
 30
0
  0
VERTEX
  8
0
 10
1083.139391037633
 20
458.1859605231723
 30
0
  0
VERTEX
  8
0
 10
1083.153588118933
 20
458.1803344034723
 30
0
  0
VERTEX
  8
0
 10
1083.167764711133
 20
458.1743823209723
 30
0
  0
VERTEX
  8
0
 10
1083.181918951633
 20
458.1681014814723
 30
0
  0
VERTEX
  8
0
 10
1083.196052703033
 20
458.1614900225723
 30
0
  0
VERTEX
  8
0
 10
1083.210165965333
 20
458.1545526006723
 30
0
  0
VERTEX
  8
0
 10
1083.224402162233
 20
458.1472221606723
 30
0
  0
VERTEX
  8
0
 10
1083.238619732633
 20
458.1395750709723
 30
0
  0
VERTEX
  8
0
 10
1083.252818676633
 20
458.1316206448723
 30
0
  0
VERTEX
  8
0
 10
1083.267000856733
 20
458.1233654015723
 30
0
  0
VERTEX
  8
0
 10
1083.281164410433
 20
458.1148195856723
 30
0
  0
VERTEX
  8
0
 10
1083.295313063033
 20
458.1059897163723
 30
0
  0
VERTEX
  8
0
 10
1083.309446814433
 20
458.0968841754723
 30
0
  0
VERTEX
  8
0
 10
1083.323567527333
 20
458.0875122764723
 30
0
  0
VERTEX
  8
0
 10
1083.338343891233
 20
458.0774167397723
 30
0
  0
VERTEX
  8
0
 10
1083.353107216733
 20
458.0670455315723
 30
0
  0
VERTEX
  8
0
 10
1083.367859366333
 20
458.0564098277723
 30
0
  0
VERTEX
  8
0
 10
1083.382598477333
 20
458.0455189415723
 30
0
  0
VERTEX
  8
0
 10
1083.397326412533
 20
458.0343803235723
 30
0
  0
VERTEX
  8
0
 10
1083.412045034533
 20
458.0230060809723
 30
0
  0
VERTEX
  8
0
 10
1083.429697322633
 20
458.0090567314723
 30
0
  0
VERTEX
  8
0
 10
1083.447336572133
 20
457.9947963201723
 30
0
  0
VERTEX
  8
0
 10
1083.464968371133
 20
457.9802406796723
 30
0
  0
VERTEX
  8
0
 10
1083.482592719533
 20
457.9654065736723
 30
0
  0
VERTEX
  8
0
 10
1083.500209617433
 20
457.9503098347723
 30
0
  0
VERTEX
  8
0
 10
1083.517509865533
 20
457.9352428981723
 30
0
  0
VERTEX
  8
0
 10
1083.534806388433
 20
457.9199533754723
 30
0
  0
VERTEX
  8
0
 10
1083.552102911233
 20
457.9044580304723
 30
0
  0
VERTEX
  8
0
 10
1083.569399434133
 20
457.8887717642723
 30
0
  0
VERTEX
  8
0
 10
1083.591868522533
 20
457.8681392439723
 30
0
  0
VERTEX
  8
0
 10
1083.614343198933
 20
457.8472450220723
 30
0
  0
VERTEX
  8
0
 10
1083.636830913833
 20
457.8261216947723
 30
0
  0
VERTEX
  8
0
 10
1083.659333529833
 20
457.8048027896723
 30
0
  0
VERTEX
  8
0
 10
1083.681852909733
 20
457.7833236971723
 30
0
  0
VERTEX
  8
0
 10
1083.704396503933
 20
457.7617160820723
 30
0
  0
VERTEX
  8
0
 10
1083.726964312533
 20
457.7400162660723
 30
0
  0
VERTEX
  8
0
 10
1083.758044409533
 20
457.7100872838723
 30
0
  0
VERTEX
  8
0
 10
1083.789187836433
 20
457.6801340871723
 30
0
  0
VERTEX
  8
0
 10
1083.820403906433
 20
457.6502432891723
 30
0
  0
VERTEX
  8
0
 10
1083.851703795533
 20
457.6205033653723
 30
0
  0
VERTEX
  8
0
 10
1083.874523061333
 20
457.5990186848723
 30
0
  0
VERTEX
  8
0
 10
1083.897396343733
 20
457.5776951232723
 30
0
  0
VERTEX
  8
0
 10
1083.920323642833
 20
457.5565643453723
 30
0
  0
VERTEX
  8
0
 10
1083.943310546633
 20
457.5356617414723
 30
0
  0
VERTEX
  8
0
 10
1083.966360780333
 20
457.5150208392723
 30
0
  0
VERTEX
  8
0
 10
1083.989476206633
 20
457.4946742349723
 30
0
  0
VERTEX
  8
0
 10
1084.012662413533
 20
457.4746573188723
 30
0
  0
VERTEX
  8
0
 10
1084.030929374433
 20
457.4591824629723
 30
0
  0
VERTEX
  8
0
 10
1084.049246626833
 20
457.4439488195723
 30
0
  0
VERTEX
  8
0
 10
1084.067610445433
 20
457.4289712899723
 30
0
  0
VERTEX
  8
0
 10
1084.086024555333
 20
457.4142666378723
 30
0
  0
VERTEX
  8
0
 10
1084.104490819333
 20
457.3998516270723
 30
0
  0
VERTEX
  8
0
 10
1084.123011100033
 20
457.3857430213723
 30
0
  0
VERTEX
  8
0
 10
1084.141587260133
 20
457.3719566532723
 30
0
  0
VERTEX
  8
0
 10
1084.157889130433
 20
457.3601716973723
 30
0
  0
VERTEX
  8
0
 10
1084.174233841633
 20
457.3486558937723
 30
0
  0
VERTEX
  8
0
 10
1084.190626981633
 20
457.3374222808723
 30
0
  0
VERTEX
  8
0
 10
1084.207066687733
 20
457.3264801719723
 30
0
  0
VERTEX
  8
0
 10
1084.223552959933
 20
457.3158426054723
 30
0
  0
VERTEX
  8
0
 10
1084.240091386233
 20
457.3055179634723
 30
0
  0
VERTEX
  8
0
 10
1084.256678241233
 20
457.2955192842723
 30
0
  0
VERTEX
  8
0
 10
1084.273319113033
 20
457.2858577438723
 30
0
  0
VERTEX
  8
0
 10
1084.288305955933
 20
457.2774767720723
 30
0
  0
VERTEX
  8
0
 10
1084.303337502233
 20
457.2693835788723
 30
0
  0
VERTEX
  8
0
 10
1084.318411889433
 20
457.2615865462723
 30
0
  0
VERTEX
  8
0
 10
1084.333532842733
 20
457.2540940561723
 30
0
  0
VERTEX
  8
0
 10
1084.348698499533
 20
457.2469126277723
 30
0
  0
VERTEX
  8
0
 10
1084.363912585133
 20
457.2400515743723
 30
0
  0
VERTEX
  8
0
 10
1084.379173236833
 20
457.2335174151723
 30
0
  0
VERTEX
  8
0
 10
1084.392241555233
 20
457.2282051512723
 30
0
  0
VERTEX
  8
0
 10
1084.405345263833
 20
457.2231424817723
 30
0
  0
VERTEX
  8
0
 10
1084.418484362733
 20
457.2183340632723
 30
0
  0
VERTEX
  8
0
 10
1084.431660714533
 20
457.2137845524723
 30
0
  0
VERTEX
  8
0
 10
1084.444876181833
 20
457.2095004686723
 30
0
  0
VERTEX
  8
0
 10
1084.457890483533
 20
457.2055544548723
 30
0
  0
VERTEX
  8
0
 10
1084.470943900733
 20
457.2018738680723
 30
0
  0
VERTEX
  8
0
 10
1084.484032708133
 20
457.1984615021723
 30
0
  0
VERTEX
  8
0
 10
1084.497160631233
 20
457.1953238764723
 30
0
  0
VERTEX
  8
0
 10
1084.510597753333
 20
457.1924088367723
 30
0
  0
VERTEX
  8
0
 10
1084.524073990933
 20
457.1897853010723
 30
0
  0
VERTEX
  8
0
 10
1084.537589344133
 20
457.1874504753723
 30
0
  0
VERTEX
  8
0
 10
1084.551145675533
 20
457.1853997030723
 30
0
  0
VERTEX
  8
0
 10
1084.564739259833
 20
457.1836292588723
 30
0
  0
VERTEX
  8
0
 10
1084.578373822333
 20
457.1821335547723
 30
0
  0
VERTEX
  8
0
 10
1084.592043775133
 20
457.1809097969723
 30
0
  0
VERTEX
  8
0
 10
1084.608040171633
 20
457.1798201495723
 30
0
  0
VERTEX
  8
0
 10
1084.624088722233
 20
457.1790871986723
 30
0
  0
VERTEX
  8
0
 10
1084.640185701633
 20
457.1787053563723
 30
0
  0
VERTEX
  8
0
 10
1084.656331109733
 20
457.1786681034723
 30
0
  0
VERTEX
  8
0
 10
1084.672523084033
 20
457.1789689206723
 30
0
  0
VERTEX
  8
0
 10
1084.688763487133
 20
457.1796003573723
 30
0
  0
VERTEX
  8
0
 10
1084.704119133733
 20
457.1804934957723
 30
0
  0
VERTEX
  8
0
 10
1084.719513895833
 20
457.1816688248723
 30
0
  0
VERTEX
  8
0
 10
1084.734949636233
 20
457.1831226193723
 30
0
  0
VERTEX
  8
0
 10
1084.750424492133
 20
457.1848483600723
 30
0
  0
VERTEX
  8
0
 10
1084.765938463533
 20
457.1868404590723
 30
0
  0
VERTEX
  8
0
 10
1084.782434049033
 20
457.1892386146723
 30
0
  0
VERTEX
  8
0
 10
1084.798970612633
 20
457.1919245490723
 30
0
  0
VERTEX
  8
0
 10
1084.815550017133
 20
457.1948898800723
 30
0
  0
VERTEX
  8
0
 10
1084.832168537133
 20
457.1981299513723
 30
0
  0
VERTEX
  8
0
 10
1084.848826172733
 20
457.2016363808723
 30
0
  0
VERTEX
  8
0
 10
1084.865524786433
 20
457.2054045119723
 30
0
  0
VERTEX
  8
0
 10
1084.885252061233
 20
457.2101710208723
 30
0
  0
VERTEX
  8
0
 10
1084.905031490133
 20
457.2152802565723
 30
0
  0
VERTEX
  8
0
 10
1084.924861210333
 20
457.2207210430723
 30
0
  0
VERTEX
  8
0
 10
1084.944741222033
 20
457.2264831357723
 30
0
  0
VERTEX
  8
0
 10
1084.965075719133
 20
457.2326820188723
 30
0
  0
VERTEX
  8
0
 10
1084.985458645033
 20
457.2391928949723
 30
0
  0
VERTEX
  8
0
 10
1085.005888137033
 20
457.2460027256723
 30
0
  0
VERTEX
  8
0
 10
1085.026364195133
 20
457.2531021976723
 30
0
  0
VERTEX
  8
0
 10
1085.046883094033
 20
457.2604792037723
 30
0
  0
VERTEX
  8
0
 10
1085.067446696533
 20
457.2681216367723
 30
0
  0
VERTEX
  8
0
 10
1085.088051277133
 20
457.2760183208723
 30
0
  0
VERTEX
  8
0
 10
1085.114335062833
 20
457.2864193313723
 30
0
  0
VERTEX
  8
0
 10
1085.140680315833
 20
457.2971900769723
 30
0
  0
VERTEX
  8
0
 10
1085.167085173533
 20
457.3083072745723
 30
0
  0
VERTEX
  8
0
 10
1085.193549635733
 20
457.3197467097723
 30
0
  0
VERTEX
  8
0
 10
1085.220066252133
 20
457.3314869620723
 30
0
  0
VERTEX
  8
0
 10
1085.246635022533
 20
457.3435019546723
 30
0
  0
VERTEX
  8
0
 10
1085.273252221733
 20
457.3557702669723
 30
0
  0
VERTEX
  8
0
 10
1085.302585157533
 20
457.3695277639723
 30
0
  0
VERTEX
  8
0
 10
1085.331968384733
 20
457.3835320615723
 30
0
  0
VERTEX
  8
0
 10
1085.361401903433
 20
457.3977496319723
 30
0
  0
VERTEX
  8
0
 10
1085.390878262933
 20
457.4121497416723
 30
0
  0
VERTEX
  8
0
 10
1085.420397463233
 20
457.4267016568723
 30
0
  0
VERTEX
  8
0
 10
1085.464391279033
 20
457.4485700422723
 30
0
  0
VERTEX
  8
0
 10
1085.508455875333
 20
457.4706004777723
 30
0
  0
VERTEX
  8
0
 10
1085.552578213533
 20
457.4926905178723
 30
0
  0
VERTEX
  8
0
 10
1085.596747118033
 20
457.5147367858723
 30
0
  0
VERTEX
  8
0
 10
1085.640949550033
 20
457.5366359048723
 30
0
  0
VERTEX
  8
0
 10
1085.685174333833
 20
457.5582844981723
 30
0
  0
SEQEND
  8
0
  0
POLYLINE
  8
0
 62
2
 66
1
  0
VERTEX
  8
0
 10
1085.295710134233
 20
516.7453111925723
 30
0
  0
VERTEX
  8
0
 10
1085.119719970033
 20
516.7257534184723
 30
0
  0
VERTEX
  8
0
 10
1084.994056615033
 20
516.6671024480722
 30
0
  0
SEQEND
  8
0
  0
POLYLINE
  8
0
 62
2
 66
1
  0
VERTEX
  8
0
 10
1084.994056615033
 20
516.6671024480722
 30
0
  0
VERTEX
  8
0
 10
1084.931058230733
 20
516.5444174626723
 30
0
  0
VERTEX
  8
0
 10
1084.918643700833
 20
516.4362089553723
 30
0
  0
SEQEND
  8
0
  0
POLYLINE
  8
0
 62
2
 66
1
  0
VERTEX
  8
0
 10
1084.918643700833
 20
516.4362089553723
 30
0
  0
VERTEX
  8
0
 10
1084.963805395133
 20
516.2634858706723
 30
0
  0
VERTEX
  8
0
 10
1085.044331270233
 20
516.1475920894723
 30
0
  0
SEQEND
  8
0
  0
POLYLINE
  8
0
 62
2
 66
1
  0
VERTEX
  8
0
 10
1085.270571875333
 20
515.3310792365724
 30
0
  0
VERTEX
  8
0
 10
1085.112070086333
 20
515.3208160617724
 30
0
  0
VERTEX
  8
0
 10
1084.994056615033
 20
515.2817340412723
 30
0
  0
SEQEND
  8
0
  0
POLYLINE
  8
0
 62
2
 66
1
  0
VERTEX
  8
0
 10
1084.994056615033
 20
515.2817340412723
 30
0
  0
VERTEX
  8
0
 10
1084.932930189133
 20
515.1752950468723
 30
0
  0
VERTEX
  8
0
 10
1084.918643700833
 20
515.0797003724723
 30
0
  0
SEQEND
  8
0
  0
POLYLINE
  8
0
 62
2
 66
1
  0
VERTEX
  8
0
 10
1084.918643700833
 20
515.0797003724723
 30
0
  0
VERTEX
  8
0
 10
1084.960402342433
 20
514.8901799538724
 30
0
  0
VERTEX
  8
0
 10
1085.044331270233
 20
514.7622199573723
 30
0
  0
SEQEND
  8
0
  0
POLYLINE
  8
0
 62
2
 66
1
  0
VERTEX
  8
0
 10
1084.868367182933
 20
514.5601862886723
 30
0
  0
VERTEX
  8
0
 10
1084.529125484633
 20
514.9271534600723
 30
0
  0
VERTEX
  8
0
 10
1084.441026094333
 20
515.3105975904723
 30
0
  0
SEQEND
  8
0
  0
POLYLINE
  8
0
 62
2
 66
1
  0
VERTEX
  8
0
 10
1084.868367182933
 20
515.9166948714723
 30
0
  0
VERTEX
  8
0
 10
1084.529125484633
 20
516.2836620428723
 30
0
  0
VERTEX
  8
0
 10
1084.441026094333
 20
516.6671024480722
 30
0
  0
SEQEND
  8
0
  0
POLYLINE
  8
0
 62
2
 66
1
  0
VERTEX
  8
0
 10
1084.441026094333
 20
516.6671024480722
 30
0
  0
VERTEX
  8
0
 10
1084.480123016033
 20
516.9729227044722
 30
0
  0
VERTEX
  8
0
 10
1084.591851922633
 20
517.1866165318722
 30
0
  0
SEQEND
  8
0
  0
POLYLINE
  8
0
 62
2
 66
1
  0
VERTEX
  8
0
 10
1085.457413810233
 20
518.0955575623723
 30
0
  0
VERTEX
  8
0
 10
1085.431929099333
 20
518.2187342860723
 30
0
  0
VERTEX
  8
0
 10
1085.381231623633
 20
518.3040397086722
 30
0
  0
SEQEND
  8
0
  0
POLYLINE
  8
0
 62
2
 66
1
  0
VERTEX
  8
0
 10
1085.127287897233
 20
517.7883179702723
 30
0
  0
VERTEX
  8
0
 10
1085.293083804633
 20
517.8093286075723
 30
0
  0
VERTEX
  8
0
 10
1085.398161205433
 20
517.8870754161723
 30
0
  0
SEQEND
  8
0
  0
POLYLINE
  8
0
 62
2
 66
1
  0
VERTEX
  8
0
 10
1085.398161205433
 20
517.8870754161723
 30
0
  0
VERTEX
  8
0
 10
1085.447836088933
 20
517.9991060712723
 30
0
  0
VERTEX
  8
0
 10
1085.457413810233
 20
518.0955575623723
 30
0
  0
SEQEND
  8
0
  0
POLYLINE
  8
0
 62
2
 66
1
  0
VERTEX
  8
0
 10
1084.424713048133
 20
517.5798358240722
 30
0
  0
VERTEX
  8
0
 10
1084.203777256333
 20
517.6443615772723
 30
0
  0
VERTEX
  8
0
 10
1084.069193693733
 20
517.7663722851723
 30
0
  0
SEQEND
  8
0
  0
POLYLINE
  8
0
 62
2
 66
1
  0
VERTEX
  8
0
 10
1084.119982439033
 20
518.1065322675723
 30
0
  0
VERTEX
  8
0
 10
1084.134784880033
 20
518.0098386326723
 30
0
  0
VERTEX
  8
0
 10
1084.170771184333
 20
517.9419377663724
 30
0
  0
SEQEND
  8
0
  0
POLYLINE
  8
0
 62
2
 66
1
  0
VERTEX
  8
0
 10
1084.170771184333
 20
517.9419377663724
 30
0
  0
VERTEX
  8
0
 10
1084.300139340533
 20
517.8470099189723
 30
0
  0
VERTEX
  8
0
 10
1084.424713048133
 20
517.8212383606723
 30
0
  0
SEQEND
  8
0
  0
POLYLINE
  8
0
 62
2
 66
1
  0
VERTEX
  8
0
 10
1085.144217479033
 20
518.6551706710723
 30
0
  0
VERTEX
  8
0
 10
1085.365332084633
 20
518.5994552293723
 30
0
  0
VERTEX
  8
0
 10
1085.499736833333
 20
518.4796051898723
 30
0
  0
SEQEND
  8
0
  0
POLYLINE
  8
0
 62
2
 66
1
  0
VERTEX
  8
0
 10
1085.499736833333
 20
518.4796051898723
 30
0
  0
VERTEX
  8
0
 10
1085.597190427533
 20
518.2740064182723
 30
0
  0
VERTEX
  8
0
 10
1085.617616194233
 20
518.0955575623723
 30
0
  0
SEQEND
  8
0
  0
POLYLINE
  8
0
 62
2
 66
1
  0
VERTEX
  8
0
 10
1084.069193693733
 20
517.7663722851723
 30
0
  0
VERTEX
  8
0
 10
1083.984761851833
 20
517.9487140693723
 30
0
  0
VERTEX
  8
0
 10
1083.967616203233
 20
518.1065322675723
 30
0
  0
SEQEND
  8
0
  0
POLYLINE
  8
0
 62
2
 66
1
  0
VERTEX
  8
0
 10
1084.898739474733
 20
518.2820940234723
 30
0
  0
VERTEX
  8
0
 10
1084.844085740833
 20
518.1396538236722
 30
0
  0
VERTEX
  8
0
 10
1084.839486869933
 20
518.0187495269723
 30
0
  0
SEQEND
  8
0
  0
POLYLINE
  8
0
 62
2
 66
1
  0
VERTEX
  8
0
 10
1084.695586356333
 20
518.0187495269723
 30
0
  0
VERTEX
  8
0
 10
1084.672357308633
 20
518.1724661805723
 30
0
  0
VERTEX
  8
0
 10
1084.619402307033
 20
518.2820940234723
 30
0
  0
SEQEND
  8
0
  0
POLYLINE
  8
0
 62
2
 66
1
  0
VERTEX
  8
0
 10
1084.416249188533
 20
518.3698767640723
 30
0
  0
VERTEX
  8
0
 10
1084.265874120333
 20
518.3433415212724
 30
0
  0
VERTEX
  8
0
 10
1084.170771184333
 20
518.2711230435723
 30
0
  0
SEQEND
  8
0
  0
POLYLINE
  8
0
 62
2
 66
1
  0
VERTEX
  8
0
 10
1084.170771184333
 20
518.2711230435723
 30
0
  0
VERTEX
  8
0
 10
1084.128839316733
 20
518.1829826750723
 30
0
  0
VERTEX
  8
0
 10
1084.119982439033
 20
518.1065322675723
 30
0
  0
SEQEND
  8
0
  0
POLYLINE
  8
0
 62
2
 66
1
  0
VERTEX
  8
0
 10
1084.069193693733
 20
518.4576595046723
 30
0
  0
VERTEX
  8
0
 10
1084.226747396333
 20
518.5818346061723
 30
0
  0
VERTEX
  8
0
 10
1084.382390025033
 20
518.6112793007723
 30
0
  0
SEQEND
  8
0
  0
POLYLINE
  8
0
 62
2
 66
1
  0
VERTEX
  8
0
 10
1085.617616194233
 20
518.0955575623723
 30
0
  0
VERTEX
  8
0
 10
1085.588640886333
 20
517.8644219258723
 30
0
  0
VERTEX
  8
0
 10
1085.508202555533
 20
517.7005352297723
 30
0
  0
SEQEND
  8
0
  0
POLYLINE
  8
0
 62
2
 66
1
  0
VERTEX
  8
0
 10
1084.653261470533
 20
518.4905798950723
 30
0
  0
VERTEX
  8
0
 10
1084.725522789133
 20
518.3792272427722
 30
0
  0
VERTEX
  8
0
 10
1084.763304683333
 20
518.2820940234723
 30
0
  0
SEQEND
  8
0
  0
POLYLINE
  8
0
 62
2
 66
1
  0
VERTEX
  8
0
 10
1084.763304683333
 20
518.2820940234723
 30
0
  0
VERTEX
  8
0
 10
1084.804221409333
 20
518.4099795141723
 30
0
  0
VERTEX
  8
0
 10
1084.856416451733
 20
518.5015508749723
 30
0
  0
SEQEND
  8
0
  0
POLYLINE
  8
0
 62
2
 66
1
  0
VERTEX
  8
0
 10
1084.856416451733
 20
518.5015508749723
 30
0
  0
VERTEX
  8
0
 10
1085.000005903633
 20
518.6228239753723
 30
0
  0
VERTEX
  8
0
 10
1085.144217479033
 20
518.6551706710723
 30
0
  0
SEQEND
  8
0
  0
POLYLINE
  8
0
 62
2
 66
1
  0
VERTEX
  8
0
 10
1083.967616203233
 20
518.1065322675723
 30
0
  0
VERTEX
  8
0
 10
1083.995490687833
 20
518.3123545565723
 30
0
  0
VERTEX
  8
0
 10
1084.069193693733
 20
518.4576595046723
 30
0
  0
SEQEND
  8
0
  0
POLYLINE
  8
0
 62
2
 66
1
  0
VERTEX
  8
0
 10
1084.382390025033
 20
518.6112793007723
 30
0
  0
VERTEX
  8
0
 10
1084.549724477333
 20
518.5762168684723
 30
0
  0
VERTEX
  8
0
 10
1084.653261470533
 20
518.4905798950723
 30
0
  0
SEQEND
  8
0
  0
LINE
  8
1
 62
2
 10
1166.260173558933
 20
297.248664173548
 30
0
 11
1166.760173558933
 21
296.404914173548
 31
0
  0
LINE
  8
1
 62
2
 10
1165.510173558933
 20
298.092414173548
 30
0
 11
1166.260173558933
 21
297.248664173548
 31
0
  0
LINE
  8
1
 62
2
 10
1164.510173558933
 20
298.936164173548
 30
0
 11
1165.510173558933
 21
298.092414173548
 31
0
  0
LINE
  8
1
 62
2
 10
1164.010173558933
 20
300.061164173548
 30
0
 11
1163.260173558933
 21
301.467414173548
 31
0
  0
LINE
  8
1
 62
2
 10
1165.260173558933
 20
300.342414173548
 30
0
 11
1164.760173558933
 21
301.748664173548
 31
0
  0
LINE
  8
1
 62
2
 10
1166.760173558933
 20
299.779914173548
 30
0
 11
1167.510173558933
 21
301.467414173548
 31
0
  0
LINE
  8
1
 62
2
 10
1165.260173558933
 20
297.529914173548
 30
0
 11
1166.760173558933
 21
299.779914173548
 31
0
  0
LINE
  8
1
 62
2
 10
1164.510173558933
 20
296.686164173548
 30
0
 11
1165.260173558933
 21
297.529914173548
 31
0
  0
LINE
  8
1
 62
2
 10
1163.260173558933
 20
295.842414173548
 30
0
 11
1164.510173558933
 21
296.686164173548
 31
0
  0
LINE
  8
1
 62
2
 10
1162.010173558933
 20
302.873664173548
 30
0
 11
1162.010173558933
 21
294.717414173548
 31
0
  0
LINE
  8
1
 62
2
 10
1168.510173558933
 20
302.873664173548
 30
0
 11
1162.010173558933
 21
302.873664173548
 31
0
  0
LINE
  8
1
 62
2
 10
1168.510173558933
 20
294.717414173548
 30
0
 11
1168.510173558933
 21
302.873664173548
 31
0
  0
LINE
  8
1
 62
2
 10
1162.010173558933
 20
294.717414173548
 30
0
 11
1168.510173558933
 21
294.717414173548
 31
0
  0
LINE
  8
1
 62
2
 10
1157.010173558933
 20
298.654914173548
 30
0
 11
1160.010173558933
 21
298.654914173548
 31
0
  0
LINE
  8
1
 62
2
 10
1158.260173558933
 20
296.967414173548
 30
0
 11
1159.760173558933
 21
294.436164173548
 31
0
  0
LINE
  8
1
 62
2
 10
1154.760173558933
 20
294.717414173548
 30
0
 11
1159.010173558933
 21
295.561164173548
 31
0
  0
LINE
  8
1
 62
2
 10
1157.010173558933
 20
298.654914173548
 30
0
 11
1155.760173558933
 21
294.998664173548
 31
0
  0
LINE
  8
1
 62
2
 10
1154.260173558933
 20
298.654914173548
 30
0
 11
1157.010173558933
 21
298.654914173548
 31
0
  0
LINE
  8
1
 62
2
 10
1157.260173558933
 20
303.154914173548
 30
0
 11
1157.260173558933
 21
298.654914173548
 31
0
  0
LINE
  8
1
 62
2
 10
1155.010173558933
 20
300.904914173548
 30
0
 11
1159.760173558933
 21
300.904914173548
 31
0
  0
LINE
  8
1
 62
2
 10
1153.010173558933
 20
302.873664173548
 30
0
 11
1153.760173558933
 21
301.748664173548
 31
0
  0
LINE
  8
1
 62
2
 10
1153.010173558933
 20
299.498664173548
 30
0
 11
1152.260173558933
 21
300.342414173548
 31
0
  0
LINE
  8
1
 62
2
 10
1152.510173558933
 20
294.436164173548
 30
0
 11
1153.760173558933
 21
298.092414173548
 31
0
  0
LINE
  8
1
 62
2
 10
1146.760173558933
 20
297.811164173548
 30
0
 11
1145.760173558933
 21
299.217414173548
 31
0
  0
LINE
  8
1
 62
2
 10
1148.760173558933
 20
294.717414173548
 30
0
 11
1147.510173558933
 21
294.717414173548
 31
0
  0
LINE
  8
1
 62
2
 10
1148.760173558933
 20
302.873664173548
 30
0
 11
1148.760173558933
 21
294.717414173548
 31
0
  0
LINE
  8
1
 62
2
 10
1144.010173558933
 20
300.623664173548
 30
0
 11
1150.760173558933
 21
300.623664173548
 31
0
  0
LINE
  8
1
 62
2
 10
1135.260173558933
 20
296.404914173548
 30
0
 11
1135.260173558933
 21
299.217414173548
 31
0
  0
LINE
  8
1
 62
2
 10
1136.760173558933
 20
294.998664173548
 30
0
 11
1135.260173558933
 21
294.998664173548
 31
0
  0
LINE
  8
1
 62
2
 10
1136.760173558933
 20
299.217414173548
 30
0
 11
1138.010173558933
 21
299.217414173548
 31
0
  0
LINE
  8
1
 62
2
 10
1136.510173558933
 20
302.029914173548
 30
0
 11
1135.510173558933
 21
302.029914173548
 31
0
  0
LINE
  8
1
 62
2
 10
1138.760173558933
 20
300.904914173548
 30
0
 11
1138.760173558933
 21
299.217414173548
 31
0
  0
LINE
  8
1
 62
2
 10
1141.260173558933
 20
299.217414173548
 30
0
 11
1141.260173558933
 21
302.592414173548
 31
0
  0
LINE
  8
1
 62
2
 10
1138.760173558933
 20
299.217414173548
 30
0
 11
1138.760173558933
 21
297.529914173548
 31
0
  0
LINE
  8
1
 62
2
 10
1139.510173558933
 20
297.529914173548
 30
0
 11
1140.260173558933
 21
297.529914173548
 31
0
  0
LINE
  8
1
 62
2
 10
1140.260173558933
 20
297.529914173548
 30
0
 11
1141.260173558933
 21
297.529914173548
 31
0
  0
LINE
  8
1
 62
2
 10
1142.010173558933
 20
294.436164173548
 30
0
 11
1142.260173558933
 21
294.998664173548
 31
0
  0
LINE
  8
1
 62
2
 10
1141.010173558933
 20
294.436164173548
 30
0
 11
1142.010173558933
 21
294.436164173548
 31
0
  0
LINE
  8
1
 62
2
 10
1140.260173558933
 20
294.998664173548
 30
0
 11
1141.010173558933
 21
294.436164173548
 31
0
  0
LINE
  8
1
 62
2
 10
1140.260173558933
 20
297.529914173548
 30
0
 11
1140.260173558933
 21
294.998664173548
 31
0
  0
LINE
  8
1
 62
2
 10
1138.760173558933
 20
295.279914173548
 30
0
 11
1138.010173558933
 21
294.436164173548
 31
0
  0
LINE
  8
1
 62
2
 10
1139.260173558933
 20
296.686164173548
 30
0
 11
1138.760173558933
 21
295.279914173548
 31
0
  0
LINE
  8
1
 62
2
 10
1139.510173558933
 20
297.529914173548
 30
0
 11
1139.260173558933
 21
296.686164173548
 31
0
  0
LINE
  8
1
 62
2
 10
1141.260173558933
 20
299.217414173548
 30
0
 11
1138.760173558933
 21
299.217414173548
 31
0
  0
LINE
  8
1
 62
2
 10
1138.760173558933
 20
300.904914173548
 30
0
 11
1141.260173558933
 21
300.904914173548
 31
0
  0
LINE
  8
1
 62
2
 10
1141.260173558933
 20
302.592414173548
 30
0
 11
1138.760173558933
 21
302.592414173548
 31
0
  0
LINE
  8
1
 62
2
 10
1141.260173558933
 20
297.529914173548
 30
0
 11
1141.260173558933
 21
299.217414173548
 31
0
  0
LINE
  8
1
 62
2
 10
1138.760173558933
 20
297.529914173548
 30
0
 11
1139.510173558933
 21
297.529914173548
 31
0
  0
LINE
  8
1
 62
2
 10
1138.760173558933
 20
302.592414173548
 30
0
 11
1138.760173558933
 21
300.904914173548
 31
0
  0
LINE
  8
1
 62
2
 10
1135.260173558933
 20
302.029914173548
 30
0
 11
1135.760173558933
 21
303.154914173548
 31
0
  0
LINE
  8
1
 62
2
 10
1134.510173558933
 20
301.186164173548
 30
0
 11
1135.260173558933
 21
302.029914173548
 31
0
  0
LINE
  8
1
 62
2
 10
1138.010173558933
 20
302.029914173548
 30
0
 11
1136.510173558933
 21
302.029914173548
 31
0
  0
LINE
  8
1
 62
2
 10
1135.510173558933
 20
299.498664173548
 30
0
 11
1136.510173558933
 21
302.029914173548
 31
0
  0
LINE
  8
1
 62
2
 10
1134.260173558933
 20
297.811164173548
 30
0
 11
1135.510173558933
 21
299.498664173548
 31
0
  0
LINE
  8
1
 62
2
 10
1138.260173558933
 20
300.623664173548
 30
0
 11
1134.510173558933
 21
300.623664173548
 31
0
  0
LINE
  8
1
 62
2
 10
1136.760173558933
 20
299.217414173548
 30
0
 11
1137.010173558933
 21
299.779914173548
 31
0
  0
LINE
  8
1
 62
2
 10
1136.760173558933
 20
294.998664173548
 30
0
 11
1136.760173558933
 21
299.217414173548
 31
0
  0
LINE
  8
1
 62
2
 10
1138.010173558933
 20
294.998664173548
 30
0
 11
1136.760173558933
 21
294.998664173548
 31
0
  0
LINE
  8
1
 62
2
 10
1135.260173558933
 20
296.404914173548
 30
0
 11
1138.010173558933
 21
296.404914173548
 31
0
  0
LINE
  8
1
 62
2
 10
1138.010173558933
 20
297.811164173548
 30
0
 11
1135.260173558933
 21
297.811164173548
 31
0
  0
LINE
  8
1
 62
2
 10
1135.260173558933
 20
299.217414173548
 30
0
 11
1136.760173558933
 21
299.217414173548
 31
0
  0
LINE
  8
1
 62
2
 10
1135.260173558933
 20
294.436164173548
 30
0
 11
1135.260173558933
 21
296.404914173548
 31
0
  0
LINE
  8
1
 62
2
 10
1132.010173558933
 20
299.217414173548
 30
0
 11
1133.260173558933
 21
297.811164173548
 31
0
  0
LINE
  8
1
 62
2
 10
1130.010173558933
 20
301.186164173548
 30
0
 11
1132.010173558933
 21
299.217414173548
 31
0
  0
LINE
  8
1
 62
2
 10
1130.510173558933
 20
303.436164173548
 30
0
 11
1130.510173558933
 21
294.436164173548
 31
0
  0
LINE
  8
1
 62
2
 10
1126.260173558933
 20
299.779914173548
 30
0
 11
1128.010173558933
 21
298.373664173548
 31
0
  0
LINE
  8
1
 62
2
 10
1126.260173558933
 20
300.061164173548
 30
0
 11
1125.260173558933
 21
298.654914173548
 31
0
  0
LINE
  8
1
 62
2
 10
1127.010173558933
 20
301.748664173548
 30
0
 11
1126.260173558933
 21
300.061164173548
 31
0
  0
LINE
  8
1
 62
2
 10
1127.510173558933
 20
303.436164173548
 30
0
 11
1127.010173558933
 21
301.748664173548
 31
0
  0
LINE
  8
1
 62
2
 10
1129.260173558933
 20
301.467414173548
 30
0
 11
1127.010173558933
 21
301.467414173548
 31
0
  0
LINE
  8
1
 62
2
 10
1128.760173558933
 20
299.779914173548
 30
0
 11
1129.260173558933
 21
301.467414173548
 31
0
  0
LINE
  8
1
 62
2
 10
1128.260173558933
 20
298.654914173548
 30
0
 11
1128.760173558933
 21
299.779914173548
 31
0
  0
LINE
  8
1
 62
2
 10
1127.260173558933
 20
296.967414173548
 30
0
 11
1128.260173558933
 21
298.654914173548
 31
0
  0
LINE
  8
1
 62
2
 10
1125.760173558933
 20
294.998664173548
 30
0
 11
1127.260173558933
 21
296.967414173548
 31
0
  0
LINE
  8
1
 62
2
 10
1110.410173558933
 20
300.736164173548
 30
0
 11
1112.210173558933
 21
300.736164173548
 31
0
  0
LINE
  8
1
 62
2
 10
1110.410173558933
 20
300.736164173548
 30
0
 11
1110.410173558933
 21
294.436164173548
 31
0
  0
LINE
  8
1
 62
2
 10
1113.560173558933
 20
299.611164173548
 30
0
 11
1113.560173558933
 21
294.436164173548
 31
0
  0
LINE
  8
1
 62
2
 10
1113.335173558933
 20
300.061164173548
 30
0
 11
1113.560173558933
 21
299.611164173548
 31
0
  0
LINE
  8
1
 62
2
 10
1112.885173558933
 20
300.511164173548
 30
0
 11
1113.335173558933
 21
300.061164173548
 31
0
  0
LINE
  8
1
 62
2
 10
1112.210173558933
 20
300.736164173548
 30
0
 11
1112.885173558933
 21
300.511164173548
 31
0
  0
LINE
  8
1
 62
2
 10
1107.260173558933
 20
300.736164173548
 30
0
 11
1110.410173558933
 21
300.736164173548
 31
0
  0
LINE
  8
1
 62
2
 10
1107.260173558933
 20
294.436164173548
 30
0
 11
1107.260173558933
 21
300.736164173548
 31
0
  0
LINE
  8
1
 62
2
 10
1101.410173558933
 20
300.736164173548
 30
0
 11
1103.210173558933
 21
300.736164173548
 31
0
  0
LINE
  8
1
 62
2
 10
1101.410173558933
 20
300.736164173548
 30
0
 11
1101.410173558933
 21
294.436164173548
 31
0
  0
LINE
  8
1
 62
2
 10
1104.560173558933
 20
299.611164173548
 30
0
 11
1104.560173558933
 21
294.436164173548
 31
0
  0
LINE
  8
1
 62
2
 10
1104.335173558933
 20
300.061164173548
 30
0
 11
1104.560173558933
 21
299.611164173548
 31
0
  0
LINE
  8
1
 62
2
 10
1103.885173558933
 20
300.511164173548
 30
0
 11
1104.335173558933
 21
300.061164173548
 31
0
  0
LINE
  8
1
 62
2
 10
1103.210173558933
 20
300.736164173548
 30
0
 11
1103.885173558933
 21
300.511164173548
 31
0
  0
LINE
  8
1
 62
2
 10
1098.260173558933
 20
300.736164173548
 30
0
 11
1101.410173558933
 21
300.736164173548
 31
0
  0
LINE
  8
1
 62
2
 10
1098.260173558933
 20
294.436164173548
 30
0
 11
1098.260173558933
 21
300.736164173548
 31
0
  0
LINE
  8
1
 62
2
 10
1093.535173558933
 20
294.436164173548
 30
0
 11
1090.160173558933
 21
294.436164173548
 31
0
  0
LINE
  8
1
 62
2
 10
1094.210173558933
 20
294.661164173548
 30
0
 11
1093.535173558933
 21
294.436164173548
 31
0
  0
LINE
  8
1
 62
2
 10
1094.885173558933
 20
295.111164173548
 30
0
 11
1094.210173558933
 21
294.661164173548
 31
0
  0
LINE
  8
1
 62
2
 10
1095.335173558933
 20
295.786164173548
 30
0
 11
1094.885173558933
 21
295.111164173548
 31
0
  0
LINE
  8
1
 62
2
 10
1095.560173558933
 20
296.686164173548
 30
0
 11
1095.335173558933
 21
295.786164173548
 31
0
  0
LINE
  8
1
 62
2
 10
1095.560173558933
 20
297.811164173548
 30
0
 11
1095.560173558933
 21
296.686164173548
 31
0
  0
LINE
  8
1
 62
2
 10
1095.335173558933
 20
298.711164173548
 30
0
 11
1095.560173558933
 21
297.811164173548
 31
0
  0
LINE
  8
1
 62
2
 10
1095.110173558933
 20
299.161164173548
 30
0
 11
1095.335173558933
 21
298.711164173548
 31
0
  0
LINE
  8
1
 62
2
 10
1094.660173558933
 20
299.611164173548
 30
0
 11
1095.110173558933
 21
299.161164173548
 31
0
  0
LINE
  8
1
 62
2
 10
1093.760173558933
 20
299.836164173548
 30
0
 11
1094.660173558933
 21
299.611164173548
 31
0
  0
LINE
  8
1
 62
2
 10
1094.435173558933
 20
300.061164173548
 30
0
 11
1093.760173558933
 21
299.836164173548
 31
0
  0
LINE
  8
1
 62
2
 10
1094.885173558933
 20
300.286164173548
 30
0
 11
1094.435173558933
 21
300.061164173548
 31
0
  0
LINE
  8
1
 62
2
 10
1095.335173558933
 20
300.736164173548
 30
0
 11
1094.885173558933
 21
300.286164173548
 31
0
  0
LINE
  8
1
 62
2
 10
1095.560173558933
 20
301.411164173548
 30
0
 11
1095.335173558933
 21
300.736164173548
 31
0
  0
LINE
  8
1
 62
2
 10
1095.560173558933
 20
302.086164173548
 30
0
 11
1095.560173558933
 21
301.411164173548
 31
0
  0
LINE
  8
1
 62
2
 10
1095.335173558933
 20
302.761164173548
 30
0
 11
1095.560173558933
 21
302.086164173548
 31
0
  0
LINE
  8
1
 62
2
 10
1094.660173558933
 20
303.211164173548
 30
0
 11
1095.335173558933
 21
302.761164173548
 31
0
  0
LINE
  8
1
 62
2
 10
1093.535173558933
 20
303.436164173548
 30
0
 11
1094.660173558933
 21
303.211164173548
 31
0
  0
LINE
  8
1
 62
2
 10
1090.160173558933
 20
303.436164173548
 30
0
 11
1093.535173558933
 21
303.436164173548
 31
0
  0
LINE
  8
1
 62
2
 10
1091.510173558933
 20
299.836164173548
 30
0
 11
1093.760173558933
 21
299.836164173548
 31
0
  0
LINE
  8
1
 62
2
 10
1087.460173558933
 20
303.436164173548
 30
0
 11
1087.460173558933
 21
294.436164173548
 31
0
  0
LINE
  8
1
 62
2
 10
1084.760173558933
 20
300.736164173548
 30
0
 11
1087.460173558933
 21
303.436164173548
 31
0
  0
LINE
  8
1
 62
2
 10
1078.760173558933
 20
302.873664173548
 30
0
 11
1076.260173558933
 21
302.873664173548
 31
0
  0
LINE
  8
1
 62
2
 10
1080.010173558933
 20
294.717414173548
 30
0
 11
1083.510173558933
 21
294.717414173548
 31
0
  0
LINE
  8
1
 62
2
 10
1080.010173558933
 20
298.092414173548
 30
0
 11
1080.010173558933
 21
294.717414173548
 31
0
  0
LINE
  8
1
 62
2
 10
1083.010173558933
 20
298.092414173548
 30
0
 11
1082.260173558933
 21
298.092414173548
 31
0
  0
LINE
  8
1
 62
2
 10
1083.010173558933
 20
303.154914173548
 30
0
 11
1083.010173558933
 21
298.092414173548
 31
0
  0
LINE
  8
1
 62
2
 10
1081.260173558933
 20
299.217414173548
 30
0
 11
1081.260173558933
 21
302.873664173548
 31
0
  0
LINE
  8
1
 62
2
 10
1078.760173558933
 20
302.873664173548
 30
0
 11
1078.760173558933
 21
298.092414173548
 31
0
  0
LINE
  8
1
 62
2
 10
1076.010173558933
 20
300.904914173548
 30
0
 11
1080.260173558933
 21
300.904914173548
 31
0
  0
LINE
  8
1
 62
2
 10
1080.010173558933
 20
302.873664173548
 30
0
 11
1078.760173558933
 21
302.873664173548
 31
0
  0
LINE
  8
1
 62
2
 10
1077.510173558933
 20
300.904914173548
 30
0
 11
1077.510173558933
 21
302.873664173548
 31
0
  0
LINE
  8
1
 62
2
 10
1077.010173558933
 20
298.936164173548
 30
0
 11
1077.510173558933
 21
300.904914173548
 31
0
  0
LINE
  8
1
 62
2
 10
1076.260173558933
 20
297.811164173548
 30
0
 11
1077.010173558933
 21
298.936164173548
 31
0
  0
LINE
  8
1
 62
2
 10
1082.510173558933
 20
296.686164173548
 30
0
 11
1077.010173558933
 21
296.686164173548
 31
0
  0
LINE
  8
1
 62
2
 10
1076.260173558933
 20
294.717414173548
 30
0
 11
1080.010173558933
 21
294.717414173548
 31
0
  0
LINE
  8
1
 62
2
 10
1069.460173558933
 20
303.436164173548
 30
0
 11
1073.060173558933
 21
294.436164173548
 31
0
  0
LINE
  8
1
 62
2
 10
1065.860173558933
 20
294.436164173548
 30
0
 11
1069.460173558933
 21
303.436164173548
 31
0
  0
LINE
  8
1
 62
2
 10
1066.985173558933
 20
297.136164173548
 30
0
 11
1071.935173558933
 21
297.136164173548
 31
0
  0
LINE
  8
1
 62
2
 10
1062.935173558933
 20
301.636164173548
 30
0
 11
1063.160173558933
 21
300.736164173548
 31
0
  0
LINE
  8
1
 62
2
 10
1062.485173558933
 20
302.311164173548
 30
0
 11
1062.935173558933
 21
301.636164173548
 31
0
  0
LINE
  8
1
 62
2
 10
1062.035173558933
 20
302.761164173548
 30
0
 11
1062.485173558933
 21
302.311164173548
 31
0
  0
LINE
  8
1
 62
2
 10
1061.360173558933
 20
303.211164173548
 30
0
 11
1062.035173558933
 21
302.761164173548
 31
0
  0
LINE
  8
1
 62
2
 10
1060.460173558933
 20
303.436164173548
 30
0
 11
1061.360173558933
 21
303.211164173548
 31
0
  0
LINE
  8
1
 62
2
 10
1056.860173558933
 20
303.436164173548
 30
0
 11
1060.460173558933
 21
303.436164173548
 31
0
  0
LINE
  8
1
 62
2
 10
1056.860173558933
 20
294.436164173548
 30
0
 11
1056.860173558933
 21
303.436164173548
 31
0
  0
LINE
  8
1
 62
2
 10
1060.460173558933
 20
294.436164173548
 30
0
 11
1056.860173558933
 21
294.436164173548
 31
0
  0
LINE
  8
1
 62
2
 10
1061.360173558933
 20
294.661164173548
 30
0
 11
1060.460173558933
 21
294.436164173548
 31
0
  0
LINE
  8
1
 62
2
 10
1062.035173558933
 20
295.111164173548
 30
0
 11
1061.360173558933
 21
294.661164173548
 31
0
  0
LINE
  8
1
 62
2
 10
1062.485173558933
 20
295.561164173548
 30
0
 11
1062.035173558933
 21
295.111164173548
 31
0
  0
LINE
  8
1
 62
2
 10
1062.935173558933
 20
296.236164173548
 30
0
 11
1062.485173558933
 21
295.561164173548
 31
0
  0
LINE
  8
1
 62
2
 10
1063.160173558933
 20
297.136164173548
 30
0
 11
1062.935173558933
 21
296.236164173548
 31
0
  0
LINE
  8
1
 62
2
 10
1063.160173558933
 20
300.736164173548
 30
0
 11
1063.160173558933
 21
297.136164173548
 31
0
  0
LINE
  8
1
 62
2
 10
1047.860173558933
 20
297.136164173548
 30
0
 11
1047.860173558933
 21
303.436164173548
 31
0
  0
LINE
  8
1
 62
2
 10
1047.860173558933
 20
294.436164173548
 30
0
 11
1047.860173558933
 21
297.136164173548
 31
0
  0
LINE
  8
1
 62
2
 10
1049.660173558933
 20
298.936164173548
 30
0
 11
1054.160173558933
 21
294.436164173548
 31
0
  0
LINE
  8
1
 62
2
 10
1054.160173558933
 20
303.436164173548
 30
0
 11
1049.660173558933
 21
298.936164173548
 31
0
  0
LINE
  8
1
 62
2
 10
1049.660173558933
 20
298.936164173548
 30
0
 11
1047.860173558933
 21
297.136164173548
 31
0
  0
LINE
  8
1
 62
2
 10
1045.160173558933
 20
299.386164173548
 30
0
 11
1042.910173558933
 21
299.386164173548
 31
0
  0
LINE
  8
1
 62
2
 10
1045.160173558933
 20
294.436164173548
 30
0
 11
1045.160173558933
 21
299.386164173548
 31
0
  0
LINE
  8
1
 62
2
 10
1041.335173558933
 20
294.436164173548
 30
0
 11
1045.160173558933
 21
294.436164173548
 31
0
  0
LINE
  8
1
 62
2
 10
1040.660173558933
 20
294.661164173548
 30
0
 11
1041.335173558933
 21
294.436164173548
 31
0
  0
LINE
  8
1
 62
2
 10
1039.760173558933
 20
295.111164173548
 30
0
 11
1040.660173558933
 21
294.661164173548
 31
0
  0
LINE
  8
1
 62
2
 10
1039.310173558933
 20
295.561164173548
 30
0
 11
1039.760173558933
 21
295.111164173548
 31
0
  0
LINE
  8
1
 62
2
 10
1039.085173558933
 20
296.236164173548
 30
0
 11
1039.310173558933
 21
295.561164173548
 31
0
  0
LINE
  8
1
 62
2
 10
1038.860173558933
 20
297.136164173548
 30
0
 11
1039.085173558933
 21
296.236164173548
 31
0
  0
LINE
  8
1
 62
2
 10
1038.860173558933
 20
300.736164173548
 30
0
 11
1038.860173558933
 21
297.136164173548
 31
0
  0
LINE
  8
1
 62
2
 10
1039.085173558933
 20
301.636164173548
 30
0
 11
1038.860173558933
 21
300.736164173548
 31
0
  0
LINE
  8
1
 62
2
 10
1039.310173558933
 20
302.311164173548
 30
0
 11
1039.085173558933
 21
301.636164173548
 31
0
  0
LINE
  8
1
 62
2
 10
1039.760173558933
 20
302.761164173548
 30
0
 11
1039.310173558933
 21
302.311164173548
 31
0
  0
LINE
  8
1
 62
2
 10
1040.435173558933
 20
303.211164173548
 30
0
 11
1039.760173558933
 21
302.761164173548
 31
0
  0
LINE
  8
1
 62
2
 10
1041.335173558933
 20
303.436164173548
 30
0
 11
1040.435173558933
 21
303.211164173548
 31
0
  0
LINE
  8
1
 62
2
 10
1045.160173558933
 20
303.436164173548
 30
0
 11
1041.335173558933
 21
303.436164173548
 31
0
  0
LINE
  8
1
 62
2
 10
1142.185173558933
 20
274.779914173548
 30
0
 11
1142.435173558933
 21
275.061164173548
 31
0
  0
LINE
  8
1
 62
2
 10
1142.185173558933
 20
276.467414173548
 30
0
 11
1140.685173558933
 21
276.467414173548
 31
0
  0
LINE
  8
1
 62
2
 10
1145.935173558933
 20
269.998664173548
 30
0
 11
1148.185173558933
 21
269.998664173548
 31
0
  0
LINE
  8
1
 62
2
 10
1143.435173558933
 20
269.998664173548
 30
0
 11
1145.935173558933
 21
269.998664173548
 31
0
  0
LINE
  8
1
 62
2
 10
1145.935173558933
 20
278.154914173548
 30
0
 11
1145.935173558933
 21
269.998664173548
 31
0
  0
LINE
  8
1
 62
2
 10
1144.185173558933
 20
274.779914173548
 30
0
 11
1147.685173558933
 21
274.779914173548
 31
0
  0
LINE
  8
1
 62
2
 10
1142.685173558933
 20
274.498664173548
 30
0
 11
1143.935173558933
 21
273.092414173548
 31
0
  0
LINE
  8
1
 62
2
 10
1142.185173558933
 20
276.467414173548
 30
0
 11
1142.185173558933
 21
278.154914173548
 31
0
  0
LINE
  8
1
 62
2
 10
1143.435173558933
 20
276.467414173548
 30
0
 11
1142.185173558933
 21
276.467414173548
 31
0
  0
LINE
  8
1
 62
2
 10
1142.435173558933
 20
275.061164173548
 30
0
 11
1143.435173558933
 21
276.467414173548
 31
0
  0
LINE
  8
1
 62
2
 10
1141.185173558933
 20
273.654914173548
 30
0
 11
1142.185173558933
 21
274.779914173548
 31
0
  0
LINE
  8
1
 62
2
 10
1140.185173558933
 20
272.811164173548
 30
0
 11
1141.185173558933
 21
273.654914173548
 31
0
  0
LINE
  8
1
 62
2
 10
1142.185173558933
 20
269.717414173548
 30
0
 11
1142.185173558933
 21
274.779914173548
 31
0
  0
LINE
  8
1
 62
2
 10
1135.185173558933
 20
272.811164173548
 30
0
 11
1132.685173558933
 21
269.717414173548
 31
0
  0
LINE
  8
1
 62
2
 10
1137.435173558933
 20
270.279914173548
 30
0
 11
1136.435173558933
 21
271.404914173548
 31
0
  0
LINE
  8
1
 62
2
 10
1138.185173558933
 20
269.436164173548
 30
0
 11
1137.435173558933
 21
270.279914173548
 31
0
  0
LINE
  8
1
 62
2
 10
1131.935173558933
 20
269.717414173548
 30
0
 11
1137.435173558933
 21
270.279914173548
 31
0
  0
LINE
  8
1
 62
2
 10
1132.435173558933
 20
273.092414173548
 30
0
 11
1138.185173558933
 21
273.092414173548
 31
0
  0
LINE
  8
1
 62
2
 10
1133.435173558933
 20
274.498664173548
 30
0
 11
1136.935173558933
 21
274.498664173548
 31
0
  0
LINE
  8
1
 62
2
 10
1135.185173558933
 20
278.154914173548
 30
0
 11
1139.185173558933
 21
273.936164173548
 31
0
  0
LINE
  8
1
 62
2
 10
1135.185173558933
 20
278.154914173548
 30
0
 11
1131.185173558933
 21
273.936164173548
 31
0
  0
LINE
  8
1
 62
2
 10
1124.435173558933
 20
274.217414173548
 30
0
 11
1122.685173558933
 21
274.217414173548
 31
0
  0
LINE
  8
1
 62
2
 10
1124.435173558933
 20
271.123664173548
 30
0
 11
1126.185173558933
 21
271.686164173548
 31
0
  0
LINE
  8
1
 62
2
 10
1129.435173558933
 20
269.717414173548
 30
0
 11
1130.185173558933
 21
270.561164173548
 31
0
  0
LINE
  8
1
 62
2
 10
1128.435173558933
 20
270.842414173548
 30
0
 11
1129.435173558933
 21
269.717414173548
 31
0
  0
LINE
  8
1
 62
2
 10
1127.435173558933
 20
272.811164173548
 30
0
 11
1128.435173558933
 21
270.842414173548
 31
0
  0
LINE
  8
1
 62
2
 10
1126.935173558933
 20
275.061164173548
 30
0
 11
1127.435173558933
 21
272.811164173548
 31
0
  0
LINE
  8
1
 62
2
 10
1126.685173558933
 20
278.436164173548
 30
0
 11
1126.935173558933
 21
275.061164173548
 31
0
  0
LINE
  8
1
 62
2
 10
1128.185173558933
 20
277.311164173548
 30
0
 11
1127.435173558933
 21
278.154914173548
 31
0
  0
LINE
  8
1
 62
2
 10
1122.185173558933
 20
276.467414173548
 30
0
 11
1129.435173558933
 21
276.467414173548
 31
0
  0
LINE
  8
1
 62
2
 10
1124.435173558933
 20
274.217414173548
 30
0
 11
1124.435173558933
 21
271.123664173548
 31
0
  0
LINE
  8
1
 62
2
 10
1126.185173558933
 20
274.217414173548
 30
0
 11
1124.435173558933
 21
274.217414173548
 31
0
  0
LINE
  8
1
 62
2
 10
1122.685173558933
 20
270.561164173548
 30
0
 11
1124.435173558933
 21
271.123664173548
 31
0
  0
LINE
  8
1
 62
2
 10
1114.935173558933
 20
275.904914173548
 30
0
 11
1114.935173558933
 21
278.436164173548
 31
0
  0
LINE
  8
1
 62
2
 10
1114.935173558933
 20
275.904914173548
 30
0
 11
1113.685173558933
 21
275.904914173548
 31
0
  0
LINE
  8
1
 62
2
 10
1119.935173558933
 20
271.686164173548
 30
0
 11
1120.935173558933
 21
269.717414173548
 31
0
  0
LINE
  8
1
 62
2
 10
1118.685173558933
 20
274.217414173548
 30
0
 11
1119.935173558933
 21
271.686164173548
 31
0
  0
LINE
  8
1
 62
2
 10
1117.935173558933
 20
272.248664173548
 30
0
 11
1118.685173558933
 21
274.217414173548
 31
0
  0
LINE
  8
1
 62
2
 10
1116.935173558933
 20
270.842414173548
 30
0
 11
1117.935173558933
 21
272.248664173548
 31
0
  0
LINE
  8
1
 62
2
 10
1116.185173558933
 20
269.717414173548
 30
0
 11
1116.935173558933
 21
270.842414173548
 31
0
  0
LINE
  8
1
 62
2
 10
1118.685173558933
 20
278.436164173548
 30
0
 11
1118.685173558933
 21
269.436164173548
 31
0
  0
LINE
  8
1
 62
2
 10
1120.935173558933
 20
274.217414173548
 30
0
 11
1116.685173558933
 21
274.217414173548
 31
0
  0
LINE
  8
1
 62
2
 10
1117.435173558933
 20
276.186164173548
 30
0
 11
1120.685173558933
 21
276.186164173548
 31
0
  0
LINE
  8
1
 62
2
 10
1117.435173558933
 20
276.186164173548
 30
0
 11
1117.685173558933
 21
277.592414173548
 31
0
  0
LINE
  8
1
 62
2
 10
1116.685173558933
 20
274.779914173548
 30
0
 11
1117.435173558933
 21
276.186164173548
 31
0
  0
LINE
  8
1
 62
2
 10
1114.935173558933
 20
275.904914173548
 30
0
 11
1116.185173558933
 21
273.654914173548
 31
0
  0
LINE
  8
1
 62
2
 10
1113.435173558933
 20
271.967414173548
 30
0
 11
1114.935173558933
 21
275.904914173548
 31
0
  0
LINE
  8
1
 62
2
 10
1116.185173558933
 20
275.904914173548
 30
0
 11
1114.935173558933
 21
275.904914173548
 31
0
  0
LINE
  8
1
 62
2
 10
1114.935173558933
 20
269.717414173548
 30
0
 11
1114.935173558933
 21
275.904914173548
 31
0
  0
LINE
  8
1
 62
2
 10
1104.935173558933
 20
275.061164173548
 30
0
 11
1104.935173558933
 21
276.467414173548
 31
0
  0
LINE
  8
1
 62
2
 10
1107.435173558933
 20
276.467414173548
 30
0
 11
1107.435173558933
 21
275.061164173548
 31
0
  0
LINE
  8
1
 62
2
 10
1104.935173558933
 20
276.467414173548
 30
0
 11
1104.935173558933
 21
277.873664173548
 31
0
  0
LINE
  8
1
 62
2
 10
1111.435173558933
 20
275.061164173548
 30
0
 11
1111.435173558933
 21
276.467414173548
 31
0
  0
LINE
  8
1
 62
2
 10
1108.935173558933
 20
276.467414173548
 30
0
 11
1108.935173558933
 21
275.061164173548
 31
0
  0
LINE
  8
1
 62
2
 10
1111.435173558933
 20
276.467414173548
 30
0
 11
1111.435173558933
 21
277.873664173548
 31
0
  0
LINE
  8
1
 62
2
 10
1104.935173558933
 20
269.998664173548
 30
0
 11
1104.935173558933
 21
269.717414173548
 31
0
  0
LINE
  8
1
 62
2
 10
1108.935173558933
 20
276.467414173548
 30
0
 11
1111.435173558933
 21
276.467414173548
 31
0
  0
LINE
  8
1
 62
2
 10
1108.935173558933
 20
275.061164173548
 30
0
 11
1111.435173558933
 21
275.061164173548
 31
0
  0
LINE
  8
1
 62
2
 10
1108.935173558933
 20
277.873664173548
 30
0
 11
1108.935173558933
 21
276.467414173548
 31
0
  0
LINE
  8
1
 62
2
 10
1111.435173558933
 20
277.873664173548
 30
0
 11
1108.935173558933
 21
277.873664173548
 31
0
  0
LINE
  8
1
 62
2
 10
1111.435173558933
 20
269.998664173548
 30
0
 11
1111.435173558933
 21
275.061164173548
 31
0
  0
LINE
  8
1
 62
2
 10
1111.185173558933
 20
269.717414173548
 30
0
 11
1111.435173558933
 21
269.998664173548
 31
0
  0
LINE
  8
1
 62
2
 10
1110.435173558933
 20
269.717414173548
 30
0
 11
1111.185173558933
 21
269.717414173548
 31
0
  0
LINE
  8
1
 62
2
 10
1107.435173558933
 20
276.467414173548
 30
0
 11
1104.935173558933
 21
276.467414173548
 31
0
  0
LINE
  8
1
 62
2
 10
1107.435173558933
 20
275.061164173548
 30
0
 11
1104.935173558933
 21
275.061164173548
 31
0
  0
LINE
  8
1
 62
2
 10
1107.435173558933
 20
277.873664173548
 30
0
 11
1107.435173558933
 21
276.467414173548
 31
0
  0
LINE
  8
1
 62
2
 10
1104.935173558933
 20
277.873664173548
 30
0
 11
1107.435173558933
 21
277.873664173548
 31
0
  0
LINE
  8
1
 62
2
 10
1104.935173558933
 20
269.998664173548
 30
0
 11
1104.935173558933
 21
275.061164173548
 31
0
  0
LINE
  8
1
 62
2
 10
1099.185173558933
 20
269.717414173548
 30
0
 11
1102.185173558933
 21
269.717414173548
 31
0
  0
LINE
  8
1
 62
2
 10
1099.185173558933
 20
275.061164173548
 30
0
 11
1100.935173558933
 21
275.061164173548
 31
0
  0
LINE
  8
1
 62
2
 10
1102.185173558933
 20
274.779914173548
 30
0
 11
1103.185173558933
 21
273.936164173548
 31
0
  0
LINE
  8
1
 62
2
 10
1100.435173558933
 20
276.748664173548
 30
0
 11
1102.185173558933
 21
274.779914173548
 31
0
  0
LINE
  8
1
 62
2
 10
1099.185173558933
 20
278.436164173548
 30
0
 11
1100.435173558933
 21
276.748664173548
 31
0
  0
LINE
  8
1
 62
2
 10
1097.935173558933
 20
276.748664173548
 30
0
 11
1099.185173558933
 21
278.436164173548
 31
0
  0
LINE
  8
1
 62
2
 10
1096.185173558933
 20
274.779914173548
 30
0
 11
1097.935173558933
 21
276.748664173548
 31
0
  0
LINE
  8
1
 62
2
 10
1095.185173558933
 20
273.936164173548
 30
0
 11
1096.185173558933
 21
274.779914173548
 31
0
  0
LINE
  8
1
 62
2
 10
1100.435173558933
 20
270.842414173548
 30
0
 11
1100.935173558933
 21
272.248664173548
 31
0
  0
LINE
  8
1
 62
2
 10
1097.435173558933
 20
272.248664173548
 30
0
 11
1097.935173558933
 21
270.842414173548
 31
0
  0
LINE
  8
1
 62
2
 10
1101.685173558933
 20
273.373664173548
 30
0
 11
1096.685173558933
 21
273.373664173548
 31
0
  0
LINE
  8
1
 62
2
 10
1097.435173558933
 20
275.061164173548
 30
0
 11
1099.185173558933
 21
275.061164173548
 31
0
  0
LINE
  8
1
 62
2
 10
1099.185173558933
 20
269.717414173548
 30
0
 11
1099.185173558933
 21
275.061164173548
 31
0
  0
LINE
  8
1
 62
2
 10
1095.935173558933
 20
269.717414173548
 30
0
 11
1099.185173558933
 21
269.717414173548
 31
0
  0
LINE
  8
1
 62
2
 10
1092.435173558933
 20
272.248664173548
 30
0
 11
1093.685173558933
 21
273.936164173548
 31
0
  0
LINE
  8
1
 62
2
 10
1090.435173558933
 20
271.123664173548
 30
0
 11
1092.435173558933
 21
272.248664173548
 31
0
  0
LINE
  8
1
 62
2
 10
1090.435173558933
 20
276.186164173548
 30
0
 11
1090.435173558933
 21
271.123664173548
 31
0
  0
LINE
  8
1
 62
2
 10
1088.435173558933
 20
273.936164173548
 30
0
 11
1088.685173558933
 21
276.186164173548
 31
0
  0
LINE
  8
1
 62
2
 10
1087.935173558933
 20
272.248664173548
 30
0
 11
1088.435173558933
 21
273.936164173548
 31
0
  0
LINE
  8
1
 62
2
 10
1087.185173558933
 20
270.842414173548
 30
0
 11
1087.935173558933
 21
272.248664173548
 31
0
  0
LINE
  8
1
 62
2
 10
1078.685173558933
 20
273.092414173548
 30
0
 11
1078.685173558933
 21
271.404914173548
 31
0
  0
LINE
  8
1
 62
2
 10
1081.435173558933
 20
270.279914173548
 30
0
 11
1082.935173558933
 21
270.561164173548
 31
0
  0
LINE
  8
1
 62
2
 10
1078.935173558933
 20
270.561164173548
 30
0
 11
1081.435173558933
 21
270.279914173548
 31
0
  0
LINE
  8
1
 62
2
 10
1078.685173558933
 20
271.404914173548
 30
0
 11
1078.935173558933
 21
270.561164173548
 31
0
  0
LINE
  8
1
 62
2
 10
1078.685173558933
 20
276.186164173548
 30
0
 11
1078.685173558933
 21
273.092414173548
 31
0
  0
LINE
  8
1
 62
2
 10
1083.435173558933
 20
276.748664173548
 30
0
 11
1084.185173558933
 21
275.904914173548
 31
0
  0
LINE
  8
1
 62
2
 10
1083.685173558933
 20
275.342414173548
 30
0
 11
1082.935173558933
 21
276.186164173548
 31
0
  0
LINE
  8
1
 62
2
 10
1080.935173558933
 20
273.936164173548
 30
0
 11
1082.435173558933
 21
274.779914173548
 31
0
  0
LINE
  8
1
 62
2
 10
1078.685173558933
 20
273.092414173548
 30
0
 11
1080.935173558933
 21
273.936164173548
 31
0
  0
LINE
  8
1
 62
2
 10
1073.185173558933
 20
272.248664173548
 30
0
 11
1074.685173558933
 21
270.561164173548
 31
0
  0
LINE
  8
1
 62
2
 10
1071.935173558933
 20
273.373664173548
 30
0
 11
1073.185173558933
 21
272.248664173548
 31
0
  0
LINE
  8
1
 62
2
 10
1074.935173558933
 20
277.311164173548
 30
0
 11
1075.685173558933
 21
276.467414173548
 31
0
  0
LINE
  8
1
 62
2
 10
1074.435173558933
 20
276.748664173548
 30
0
 11
1075.185173558933
 21
275.904914173548
 31
0
  0
LINE
  8
1
 62
2
 10
1073.435173558933
 20
276.186164173548
 30
0
 11
1070.185173558933
 21
276.186164173548
 31
0
  0
LINE
  8
1
 62
2
 10
1072.685173558933
 20
274.498664173548
 30
0
 11
1073.435173558933
 21
276.186164173548
 31
0
  0
LINE
  8
1
 62
2
 10
1070.935173558933
 20
271.967414173548
 30
0
 11
1072.685173558933
 21
274.498664173548
 31
0
  0
LINE
  8
1
 62
2
 10
1069.185173558933
 20
270.561164173548
 30
0
 11
1070.935173558933
 21
271.967414173548
 31
0
  0
LINE
  8
1
 62
2
 10
1066.185173558933
 20
275.904914173548
 30
0
 11
1063.935173558933
 21
273.373664173548
 31
0
  0
LINE
  8
1
 62
2
 10
1060.435173558933
 20
275.904914173548
 30
0
 11
1066.185173558933
 21
275.904914173548
 31
0
  0
LINE
  8
1
 62
2
 10
1063.185173558933
 20
273.373664173548
 30
0
 11
1063.435173558933
 21
274.779914173548
 31
0
  0
LINE
  8
1
 62
2
 10
1062.685173558933
 20
271.686164173548
 30
0
 11
1063.185173558933
 21
273.373664173548
 31
0
  0
LINE
  8
1
 62
2
 10
1061.685173558933
 20
269.998664173548
 30
0
 11
1062.685173558933
 21
271.686164173548
 31
0
  0
LINE
  8
1
 62
2
 10
1142.003148510774
 20
344.1633220739759
 30
0
 11
1142.003148510774
 21
341.1633220739759
 31
0
  0
LINE
  8
1
 62
2
 10
1142.003148510774
 20
341.1633220739759
 30
0
 11
1144.103148510774
 21
341.1633220739759
 31
0
  0
LINE
  8
1
 62
2
 10
1144.103148510774
 20
344.1633220739759
 30
0
 11
1142.003148510774
 21
344.1633220739759
 31
0
  0
LINE
  8
1
 62
2
 10
1143.803148510774
 20
342.8133220739759
 30
0
 11
1142.003148510774
 21
342.8133220739759
 31
0
  0
LINE
  8
1
 62
2
 10
1136.086481844107
 20
342.8508220739759
 30
0
 11
1138.503148510774
 21
342.8508220739759
 31
0
  0
LINE
  8
1
 62
2
 10
1137.419815177441
 20
341.1633220739759
 30
0
 11
1137.086481844107
 21
341.3508220739759
 31
0
  0
LINE
  8
1
 62
2
 10
1137.586481844107
 20
341.2570720739759
 30
0
 11
1137.419815177441
 21
341.1633220739759
 31
0
  0
LINE
  8
1
 62
2
 10
1137.836481844107
 20
341.7258220739759
 30
0
 11
1137.586481844107
 21
341.2570720739759
 31
0
  0
LINE
  8
1
 62
2
 10
1138.003148510774
 20
342.2883220739759
 30
0
 11
1137.836481844107
 21
341.7258220739759
 31
0
  0
LINE
  8
1
 62
2
 10
1136.836481844107
 20
342.2883220739759
 30
0
 11
1138.003148510774
 21
342.2883220739759
 31
0
  0
LINE
  8
1
 62
2
 10
1137.003148510774
 20
342.8508220739759
 30
0
 11
1136.753148510774
 21
341.9133220739759
 31
0
  0
LINE
  8
1
 62
2
 10
1138.003148510774
 20
343.9758220739759
 30
0
 11
1136.669815177441
 21
343.9758220739759
 31
0
  0
LINE
  8
1
 62
2
 10
1138.003148510774
 20
343.3195720739759
 30
0
 11
1138.003148510774
 21
343.9758220739759
 31
0
  0
LINE
  8
1
 62
2
 10
1136.669815177441
 20
343.3195720739759
 30
0
 11
1138.003148510774
 21
343.3195720739759
 31
0
  0
LINE
  8
1
 62
2
 10
1136.669815177441
 20
343.9758220739759
 30
0
 11
1136.669815177441
 21
343.3195720739759
 31
0
  0
LINE
  8
1
 62
2
 10
1135.503148510774
 20
341.3508220739759
 30
0
 11
1135.503148510774
 21
341.6320720739759
 31
0
  0
LINE
  8
1
 62
2
 10
1134.336481844107
 20
341.3508220739759
 30
0
 11
1135.503148510774
 21
341.3508220739759
 31
0
  0
LINE
  8
1
 62
2
 10
1134.336481844107
 20
342.7570720739759
 30
0
 11
1134.336481844107
 21
341.3508220739759
 31
0
  0
LINE
  8
1
 62
2
 10
1135.253148510774
 20
342.7570720739759
 30
0
 11
1134.336481844107
 21
342.7570720739759
 31
0
  0
LINE
  8
1
 62
2
 10
1135.253148510774
 20
343.6945720739759
 30
0
 11
1135.253148510774
 21
342.7570720739759
 31
0
  0
LINE
  8
1
 62
2
 10
1134.336481844107
 20
343.6945720739759
 30
0
 11
1135.253148510774
 21
343.6945720739759
 31
0
  0
LINE
  8
1
 62
2
 10
1133.086481844107
 20
343.7883220739759
 30
0
 11
1133.836481844107
 21
343.7883220739759
 31
0
  0
LINE
  8
1
 62
2
 10
1133.003148510774
 20
343.3195720739759
 30
0
 11
1134.086481844107
 21
343.3195720739759
 31
0
  0
LINE
  8
1
 62
2
 10
1133.836481844107
 20
342.9445720739759
 30
0
 11
1133.169815177441
 21
342.9445720739759
 31
0
  0
LINE
  8
1
 62
2
 10
1133.169815177441
 20
342.4758220739759
 30
0
 11
1133.836481844107
 21
342.4758220739759
 31
0
  0
LINE
  8
1
 62
2
 10
1133.836481844107
 20
341.3508220739759
 30
0
 11
1133.169815177441
 21
341.3508220739759
 31
0
  0
LINE
  8
1
 62
2
 10
1133.836481844107
 20
342.1008220739759
 30
0
 11
1133.836481844107
 21
341.3508220739759
 31
0
  0
LINE
  8
1
 62
2
 10
1133.169815177441
 20
342.1008220739759
 30
0
 11
1133.836481844107
 21
342.1008220739759
 31
0
  0
LINE
  8
1
 62
2
 10
1133.169815177441
 20
341.3508220739759
 30
0
 11
1133.169815177441
 21
342.1008220739759
 31
0
  0
LINE
  8
1
 62
2
 10
1130.669815177441
 20
344.0695720739759
 30
0
 11
1130.669815177441
 21
341.2570720739759
 31
0
  0
LINE
  8
1
 62
2
 10
1132.169815177441
 20
344.1633220739759
 30
0
 11
1132.169815177441
 21
341.1633220739759
 31
0
  0
LINE
  8
1
 62
2
 10
1131.753148510774
 20
343.6008220739759
 30
0
 11
1131.503148510774
 21
343.9758220739759
 31
0
  0
LINE
  8
1
 62
2
 10
1131.753148510774
 20
342.8508220739759
 30
0
 11
1131.503148510774
 21
343.2258220739759
 31
0
  0
LINE
  8
1
 62
2
 10
1131.253148510774
 20
342.1945720739759
 30
0
 11
1132.669815177441
 21
342.4758220739759
 31
0
  0
LINE
  8
1
 62
2
 10
1130.919815177441
 20
342.6633220739759
 30
0
 11
1131.086481844107
 21
342.2883220739759
 31
0
  0
LINE
  8
1
 62
2
 10
1130.919815177441
 20
343.5070720739759
 30
0
 11
1131.086481844107
 21
343.8820720739759
 31
0
  0
LINE
  8
1
 62
2
 10
1130.169815177441
 20
343.7883220739759
 30
0
 11
1130.419815177441
 21
343.4133220739759
 31
0
  0
LINE
  8
1
 62
2
 10
1131.253148510774
 20
343.0383220739759
 30
0
 11
1130.086481844107
 21
343.0383220739759
 31
0
  0
LINE
  8
1
 62
2
 10
1130.336481844107
 20
342.1945720739759
 30
0
 11
1130.669815177441
 21
343.0383220739759
 31
0
  0
LINE
  8
1
 62
2
 10
1130.086481844107
 20
341.7258220739759
 30
0
 11
1130.336481844107
 21
342.1945720739759
 31
0
  0
LINE
  8
1
 62
2
 10
1129.169815177441
 20
341.3508220739759
 30
0
 11
1128.919815177441
 21
341.3508220739759
 31
0
  0
LINE
  8
1
 62
2
 10
1129.086481844107
 20
344.0695720739759
 30
0
 11
1129.169815177441
 21
341.3508220739759
 31
0
  0
LINE
  8
1
 62
2
 10
1129.586481844107
 20
343.2258220739759
 30
0
 11
1128.336481844107
 21
343.2258220739759
 31
0
  0
LINE
  8
1
 62
2
 10
1128.669815177441
 20
342.2883220739759
 30
0
 11
1129.086481844107
 21
343.1320720739759
 31
0
  0
LINE
  8
1
 62
2
 10
1128.169815177441
 20
341.7258220739759
 30
0
 11
1128.669815177441
 21
342.2883220739759
 31
0
  0
LINE
  8
1
 62
2
 10
1127.669815177441
 20
343.2258220739759
 30
0
 11
1128.086481844107
 21
342.5695720739759
 31
0
  0
LINE
  8
1
 62
2
 10
1127.419815177441
 20
342.6633220739759
 30
0
 11
1127.669815177441
 21
343.2258220739759
 31
0
  0
LINE
  8
1
 62
2
 10
1127.086481844107
 20
342.1008220739759
 30
0
 11
1127.419815177441
 21
342.6633220739759
 31
0
  0
LINE
  8
1
 62
2
 10
1128.086481844107
 20
343.3195720739759
 30
0
 11
1127.169815177441
 21
343.3195720739759
 31
0
  0
LINE
  8
1
 62
2
 10
1127.669815177441
 20
341.1633220739759
 30
0
 11
1127.669815177441
 21
344.1633220739759
 31
0
  0
LINE
  8
1
 62
2
 10
1072.451327917603
 20
344.8265658587389
 30
0
 11
1074.11799458427
 21
344.8265658587389
 31
0
  0
LINE
  8
1
 62
2
 10
1071.86799458427
 20
343.3265658587389
 30
0
 11
1074.534661250937
 21
343.3265658587389
 31
0
  0
LINE
  8
1
 62
2
 10
1072.36799458427
 20
343.9828158587389
 30
0
 11
1072.36799458427
 21
343.3265658587389
 31
0
  0
LINE
  8
1
 62
2
 10
1072.36799458427
 20
344.0765658587389
 30
0
 11
1074.034661250937
 21
344.0765658587389
 31
0
  0
LINE
  8
1
 62
2
 10
1073.201327917603
 20
344.8265658587389
 30
0
 11
1073.201327917603
 21
342.2953158587389
 31
0
  0
LINE
  8
1
 62
2
 10
1072.284661250937
 20
344.6390658587389
 30
0
 11
1072.034661250937
 21
344.3578158587389
 31
0
  0
LINE
  8
1
 62
2
 10
1072.534661250937
 20
345.0140658587389
 30
0
 11
1072.284661250937
 21
344.6390658587389
 31
0
  0
LINE
  8
1
 62
2
 10
1072.701327917603
 20
345.2953158587389
 30
0
 11
1072.534661250937
 21
345.0140658587389
 31
0
  0
LINE
  8
1
 62
2
 10
1071.36799458427
 20
344.0765658587389
 30
0
 11
1069.784661250937
 21
344.0765658587389
 31
0
  0
LINE
  8
1
 62
2
 10
1069.451327917603
 20
343.9828158587389
 30
0
 11
1068.951327917603
 21
343.9828158587389
 31
0
  0
LINE
  8
1
 62
2
 10
1069.034661250937
 20
342.5765658587389
 30
0
 11
1068.951327917603
 21
342.4828158587389
 31
0
  0
LINE
  8
1
 62
2
 10
1069.451327917603
 20
344.8265658587389
 30
0
 11
1069.201327917603
 21
345.2015658587389
 31
0
  0
LINE
  8
1
 62
2
 10
1069.951327917603
 20
344.7328158587389
 30
0
 11
1069.784661250937
 21
344.4515658587389
 31
0
  0
LINE
  8
1
 62
2
 10
1070.11799458427
 20
345.2015658587389
 30
0
 11
1069.951327917603
 21
344.7328158587389
 31
0
  0
LINE
  8
1
 62
2
 10
1071.201327917603
 20
344.7328158587389
 30
0
 11
1069.951327917603
 21
344.7328158587389
 31
0
  0
LINE
  8
1
 62
2
 10
1070.534661250937
 20
344.0765658587389
 30
0
 11
1070.534661250937
 21
345.2953158587389
 31
0
  0
LINE
  8
1
 62
2
 10
1070.11799458427
 20
342.9515658587389
 30
0
 11
1071.034661250937
 21
342.9515658587389
 31
0
  0
LINE
  8
1
 62
2
 10
1070.11799458427
 20
343.7015658587389
 30
0
 11
1070.11799458427
 21
342.9515658587389
 31
0
  0
LINE
  8
1
 62
2
 10
1071.034661250937
 20
343.7015658587389
 30
0
 11
1070.11799458427
 21
343.7015658587389
 31
0
  0
LINE
  8
1
 62
2
 10
1071.034661250937
 20
342.9515658587389
 30
0
 11
1071.034661250937
 21
343.7015658587389
 31
0
  0
LINE
  8
1
 62
2
 10
1069.784661250937
 20
342.4828158587389
 30
0
 11
1071.451327917603
 21
342.4828158587389
 31
0
  0
LINE
  8
1
 62
2
 10
1069.61799458427
 20
342.5765658587389
 30
0
 11
1069.784661250937
 21
342.4828158587389
 31
0
  0
LINE
  8
1
 62
2
 10
1069.451327917603
 20
342.9515658587389
 30
0
 11
1069.61799458427
 21
342.5765658587389
 31
0
  0
LINE
  8
1
 62
2
 10
1069.451327917603
 20
342.9515658587389
 30
0
 11
1069.451327917603
 21
343.9828158587389
 31
0
  0
LINE
  8
1
 62
2
 10
1069.034661250937
 20
342.5765658587389
 30
0
 11
1069.451327917603
 21
342.9515658587389
 31
0
  0
LINE
  8
1
 62
2
 10
1066.201327917603
 20
344.0765658587389
 30
0
 11
1066.951327917603
 21
344.0765658587389
 31
0
  0
LINE
  8
1
 62
2
 10
1067.86799458427
 20
342.6703158587389
 30
0
 11
1067.701327917603
 21
343.1390658587389
 31
0
  0
LINE
  8
1
 62
2
 10
1068.201327917603
 20
342.2953158587389
 30
0
 11
1067.86799458427
 21
342.2953158587389
 31
0
  0
LINE
  8
1
 62
2
 10
1068.201327917603
 20
343.7953158587389
 30
0
 11
1068.201327917603
 21
342.2953158587389
 31
0
  0
LINE
  8
1
 62
2
 10
1068.36799458427
 20
344.3578158587389
 30
0
 11
1067.201327917603
 21
344.3578158587389
 31
0
  0
LINE
  8
1
 62
2
 10
1067.11799458427
 20
344.8265658587389
 30
0
 11
1068.36799458427
 21
344.8265658587389
 31
0
  0
LINE
  8
1
 62
2
 10
1067.61799458427
 20
343.9828158587389
 30
0
 11
1067.701327917603
 21
345.1078158587389
 31
0
  0
LINE
  8
1
 62
2
 10
1067.36799458427
 20
343.0453158587389
 30
0
 11
1067.61799458427
 21
343.9828158587389
 31
0
  0
LINE
  8
1
 62
2
 10
1067.034661250937
 20
342.4828158587389
 30
0
 11
1067.36799458427
 21
343.0453158587389
 31
0
  0
LINE
  8
1
 62
2
 10
1068.534661250937
 20
343.4203158587389
 30
0
 11
1067.11799458427
 21
343.4203158587389
 31
0
  0
LINE
  8
1
 62
2
 10
1067.034661250937
 20
343.9828158587389
 30
0
 11
1068.534661250937
 21
343.9828158587389
 31
0
  0
LINE
  8
1
 62
2
 10
1066.534661250937
 20
342.5765658587389
 30
0
 11
1066.534661250937
 21
344.0765658587389
 31
0
  0
LINE
  8
1
 62
2
 10
1066.11799458427
 20
343.3265658587389
 30
0
 11
1066.284661250937
 21
342.8578158587389
 31
0
  0
LINE
  8
1
 62
2
 10
1066.201327917603
 20
344.4515658587389
 30
0
 11
1065.86799458427
 21
343.7953158587389
 31
0
  0
LINE
  8
1
 62
2
 10
1066.534661250937
 20
345.1078158587389
 30
0
 11
1066.201327917603
 21
344.4515658587389
 31
0
  0
LINE
  8
1
 62
2
 10
1067.034661250937
 20
344.5453158587389
 30
0
 11
1066.534661250937
 21
345.1078158587389
 31
0
  0
LINE
  8
1
 62
2
 10
1066.951327917603
 20
343.6078158587389
 30
0
 11
1066.11799458427
 21
343.6078158587389
 31
0
  0
LINE
  8
1
 62
2
 10
1066.784661250937
 20
342.8578158587389
 30
0
 11
1066.86799458427
 21
343.3265658587389
 31
0
  0
LINE
  8
1
 62
2
 10
1066.034661250937
 20
342.3890658587389
 30
0
 11
1066.951327917603
 21
342.7640658587389
 31
0
  0
LINE
  8
1
 62
7
 10
1121.745173558933
 20
352.4221545162089
 30
0
 11
1121.745173558933
 21
351.5471545162089
 31
0
  0
LINE
  8
1
 62
7
 10
1118.455173558933
 20
352.4221545162089
 30
0
 11
1121.745173558933
 21
352.4221545162089
 31
0
  0
LINE
  8
1
 62
7
 10
1118.455173558933
 20
354.6971545162089
 30
0
 11
1118.455173558933
 21
352.4221545162089
 31
0
  0
LINE
  8
1
 62
7
 10
1121.395173558933
 20
354.6971545162089
 30
0
 11
1118.455173558933
 21
354.6971545162089
 31
0
  0
LINE
  8
1
 62
7
 10
1121.395173558933
 20
355.5721545162089
 30
0
 11
1121.395173558933
 21
354.6971545162089
 31
0
  0
LINE
  8
1
 62
7
 10
1118.455173558933
 20
355.5721545162089
 30
0
 11
1121.395173558933
 21
355.5721545162089
 31
0
  0
LINE
  8
1
 62
7
 10
1118.455173558933
 20
357.6721545162089
 30
0
 11
1118.455173558933
 21
355.5721545162089
 31
0
  0
LINE
  8
1
 62
7
 10
1121.675173558933
 20
357.6721545162089
 30
0
 11
1118.455173558933
 21
357.6721545162089
 31
0
  0
LINE
  8
1
 62
7
 10
1121.675173558933
 20
358.5471545162089
 30
0
 11
1121.675173558933
 21
357.6721545162089
 31
0
  0
LINE
  8
1
 62
7
 10
1117.685173558933
 20
358.5471545162089
 30
0
 11
1121.675173558933
 21
358.5471545162089
 31
0
  0
LINE
  8
1
 62
7
 10
1117.685173558933
 20
351.5471545162089
 30
0
 11
1117.685173558933
 21
358.5471545162089
 31
0
  0
LINE
  8
1
 62
7
 10
1121.745173558933
 20
351.5471545162089
 30
0
 11
1117.685173558933
 21
351.5471545162089
 31
0
  0
LINE
  8
1
 62
2
 10
1052.581996385864
 20
393.636164173548
 30
0
 11
1052.581996385864
 21
392.436164173548
 31
0
  0
LINE
  8
1
 62
2
 10
1051.231996385864
 20
393.036164173548
 30
0
 11
1053.031996385864
 21
393.036164173548
 31
0
  0
LINE
  8
1
 62
2
 10
1052.581996385864
 20
395.436164173548
 30
0
 11
1051.231996385864
 21
393.036164173548
 31
0
  0
LINE
  8
1
 62
2
 10
1050.331996385864
 20
395.436164173548
 30
0
 11
1050.331996385864
 21
392.436164173548
 31
0
  0
LINE
  8
1
 62
2
 10
1049.431996385864
 20
394.536164173548
 30
0
 11
1050.331996385864
 21
395.436164173548
 31
0
  0
LINE
  8
1
 62
2
 10
1046.681996385864
 20
392.623664173548
 30
0
 11
1048.848663052531
 21
392.623664173548
 31
0
  0
LINE
  8
1
 62
2
 10
1047.765329719197
 20
395.248664173548
 30
0
 11
1047.765329719197
 21
392.623664173548
 31
0
  0
LINE
  8
1
 62
2
 10
1048.848663052531
 20
392.623664173548
 30
0
 11
1048.848663052531
 21
394.592414173548
 31
0
  0
LINE
  8
1
 62
2
 10
1046.681996385864
 20
394.592414173548
 30
0
 11
1046.681996385864
 21
392.623664173548
 31
0
  0
LINE
  8
1
 62
2
 10
1036.831996385864
 20
395.211164173548
 30
0
 11
1037.056996385864
 21
395.361164173548
 31
0
  0
LINE
  8
1
 62
2
 10
1036.681996385864
 20
394.986164173548
 30
0
 11
1036.831996385864
 21
395.211164173548
 31
0
  0
LINE
  8
1
 62
2
 10
1036.681996385864
 20
394.686164173548
 30
0
 11
1036.681996385864
 21
394.986164173548
 31
0
  0
LINE
  8
1
 62
2
 10
1036.831996385864
 20
394.461164173548
 30
0
 11
1036.681996385864
 21
394.686164173548
 31
0
  0
LINE
  8
1
 62
2
 10
1037.056996385864
 20
394.311164173548
 30
0
 11
1036.831996385864
 21
394.461164173548
 31
0
  0
LINE
  8
1
 62
2
 10
1037.281996385864
 20
394.236164173548
 30
0
 11
1037.056996385864
 21
394.311164173548
 31
0
  0
LINE
  8
1
 62
2
 10
1037.581996385864
 20
394.236164173548
 30
0
 11
1037.281996385864
 21
394.236164173548
 31
0
  0
LINE
  8
1
 62
2
 10
1037.806996385864
 20
394.311164173548
 30
0
 11
1037.581996385864
 21
394.236164173548
 31
0
  0
LINE
  8
1
 62
2
 10
1038.031996385864
 20
394.461164173548
 30
0
 11
1037.806996385864
 21
394.311164173548
 31
0
  0
LINE
  8
1
 62
2
 10
1038.181996385864
 20
394.686164173548
 30
0
 11
1038.031996385864
 21
394.461164173548
 31
0
  0
LINE
  8
1
 62
2
 10
1038.181996385864
 20
394.986164173548
 30
0
 11
1038.181996385864
 21
394.686164173548
 31
0
  0
LINE
  8
1
 62
2
 10
1038.031996385864
 20
395.211164173548
 30
0
 11
1038.181996385864
 21
394.986164173548
 31
0
  0
LINE
  8
1
 62
2
 10
1037.806996385864
 20
395.361164173548
 30
0
 11
1038.031996385864
 21
395.211164173548
 31
0
  0
LINE
  8
1
 62
2
 10
1037.581996385864
 20
395.436164173548
 30
0
 11
1037.806996385864
 21
395.361164173548
 31
0
  0
LINE
  8
1
 62
2
 10
1037.281996385864
 20
395.436164173548
 30
0
 11
1037.581996385864
 21
395.436164173548
 31
0
  0
LINE
  8
1
 62
2
 10
1037.056996385864
 20
395.361164173548
 30
0
 11
1037.281996385864
 21
395.436164173548
 31
0
  0
LINE
  8
1
 62
2
 10
1037.956996385864
 20
394.086164173548
 30
0
 11
1037.581996385864
 21
394.236164173548
 31
0
  0
LINE
  8
1
 62
2
 10
1038.181996385864
 20
393.861164173548
 30
0
 11
1037.956996385864
 21
394.086164173548
 31
0
  0
LINE
  8
1
 62
2
 10
1038.331996385864
 20
393.561164173548
 30
0
 11
1038.181996385864
 21
393.861164173548
 31
0
  0
LINE
  8
1
 62
2
 10
1038.331996385864
 20
393.111164173548
 30
0
 11
1038.331996385864
 21
393.561164173548
 31
0
  0
LINE
  8
1
 62
2
 10
1038.181996385864
 20
392.811164173548
 30
0
 11
1038.331996385864
 21
393.111164173548
 31
0
  0
LINE
  8
1
 62
2
 10
1037.956996385864
 20
392.586164173548
 30
0
 11
1038.181996385864
 21
392.811164173548
 31
0
  0
LINE
  8
1
 62
2
 10
1037.656996385864
 20
392.436164173548
 30
0
 11
1037.956996385864
 21
392.586164173548
 31
0
  0
LINE
  8
1
 62
2
 10
1037.206996385864
 20
392.436164173548
 30
0
 11
1037.656996385864
 21
392.436164173548
 31
0
  0
LINE
  8
1
 62
2
 10
1036.906996385864
 20
392.586164173548
 30
0
 11
1037.206996385864
 21
392.436164173548
 31
0
  0
LINE
  8
1
 62
2
 10
1036.681996385864
 20
392.811164173548
 30
0
 11
1036.906996385864
 21
392.586164173548
 31
0
  0
LINE
  8
1
 62
2
 10
1036.531996385864
 20
393.111164173548
 30
0
 11
1036.681996385864
 21
392.811164173548
 31
0
  0
LINE
  8
1
 62
2
 10
1036.531996385864
 20
393.561164173548
 30
0
 11
1036.531996385864
 21
393.111164173548
 31
0
  0
LINE
  8
1
 62
2
 10
1036.681996385864
 20
393.861164173548
 30
0
 11
1036.531996385864
 21
393.561164173548
 31
0
  0
LINE
  8
1
 62
2
 10
1036.906996385864
 20
394.086164173548
 30
0
 11
1036.681996385864
 21
393.861164173548
 31
0
  0
LINE
  8
1
 62
2
 10
1037.281996385864
 20
394.236164173548
 30
0
 11
1036.906996385864
 21
394.086164173548
 31
0
  0
LINE
  8
1
 62
2
 10
1035.631996385864
 20
392.436164173548
 30
0
 11
1035.556996385864
 21
392.436164173548
 31
0
  0
LINE
  8
1
 62
2
 10
1035.631996385864
 20
392.511164173548
 30
0
 11
1035.631996385864
 21
392.436164173548
 31
0
  0
LINE
  8
1
 62
2
 10
1035.556996385864
 20
392.511164173548
 30
0
 11
1035.631996385864
 21
392.511164173548
 31
0
  0
LINE
  8
1
 62
2
 10
1035.556996385864
 20
392.436164173548
 30
0
 11
1035.556996385864
 21
392.511164173548
 31
0
  0
LINE
  8
1
 62
2
 10
1033.981996385864
 20
392.436164173548
 30
0
 11
1032.856996385864
 21
392.436164173548
 31
0
  0
LINE
  8
1
 62
2
 10
1034.206996385864
 20
392.511164173548
 30
0
 11
1033.981996385864
 21
392.436164173548
 31
0
  0
LINE
  8
1
 62
2
 10
1034.431996385864
 20
392.661164173548
 30
0
 11
1034.206996385864
 21
392.511164173548
 31
0
  0
LINE
  8
1
 62
2
 10
1034.581996385864
 20
392.886164173548
 30
0
 11
1034.431996385864
 21
392.661164173548
 31
0
  0
LINE
  8
1
 62
2
 10
1034.656996385864
 20
393.186164173548
 30
0
 11
1034.581996385864
 21
392.886164173548
 31
0
  0
LINE
  8
1
 62
2
 10
1034.656996385864
 20
393.636164173548
 30
0
 11
1034.656996385864
 21
393.186164173548
 31
0
  0
LINE
  8
1
 62
2
 10
1034.581996385864
 20
393.936164173548
 30
0
 11
1034.656996385864
 21
393.636164173548
 31
0
  0
LINE
  8
1
 62
2
 10
1034.356996385864
 20
394.161164173548
 30
0
 11
1034.581996385864
 21
393.936164173548
 31
0
  0
LINE
  8
1
 62
2
 10
1033.981996385864
 20
394.236164173548
 30
0
 11
1034.356996385864
 21
394.161164173548
 31
0
  0
LINE
  8
1
 62
2
 10
1032.856996385864
 20
394.236164173548
 30
0
 11
1033.981996385864
 21
394.236164173548
 31
0
  0
LINE
  8
1
 62
2
 10
1032.856996385864
 20
395.436164173548
 30
0
 11
1032.856996385864
 21
394.236164173548
 31
0
  0
LINE
  8
1
 62
2
 10
1034.506996385864
 20
395.436164173548
 30
0
 11
1032.856996385864
 21
395.436164173548
 31
0
  0
LINE
  8
1
 62
2
 10
1030.156996385864
 20
392.436164173548
 30
0
 11
1031.956996385864
 21
392.436164173548
 31
0
  0
LINE
  8
1
 62
2
 10
1031.806996385864
 20
394.386164173548
 30
0
 11
1030.156996385864
 21
392.436164173548
 31
0
  0
LINE
  8
1
 62
2
 10
1031.956996385864
 20
394.686164173548
 30
0
 11
1031.806996385864
 21
394.386164173548
 31
0
  0
LINE
  8
1
 62
2
 10
1031.956996385864
 20
394.986164173548
 30
0
 11
1031.956996385864
 21
394.686164173548
 31
0
  0
LINE
  8
1
 62
2
 10
1031.806996385864
 20
395.211164173548
 30
0
 11
1031.956996385864
 21
394.986164173548
 31
0
  0
LINE
  8
1
 62
2
 10
1031.581996385864
 20
395.361164173548
 30
0
 11
1031.806996385864
 21
395.211164173548
 31
0
  0
LINE
  8
1
 62
2
 10
1031.281996385864
 20
395.436164173548
 30
0
 11
1031.581996385864
 21
395.361164173548
 31
0
  0
LINE
  8
1
 62
2
 10
1030.831996385864
 20
395.436164173548
 30
0
 11
1031.281996385864
 21
395.436164173548
 31
0
  0
LINE
  8
1
 62
2
 10
1030.531996385864
 20
395.361164173548
 30
0
 11
1030.831996385864
 21
395.436164173548
 31
0
  0
LINE
  8
1
 62
2
 10
1030.306996385864
 20
395.211164173548
 30
0
 11
1030.531996385864
 21
395.361164173548
 31
0
  0
LINE
  8
1
 62
2
 10
1030.156996385864
 20
394.986164173548
 30
0
 11
1030.306996385864
 21
395.211164173548
 31
0
  0
LINE
  8
1
 62
2
 10
1025.006996385864
 20
392.529914173548
 30
0
 11
1025.006996385864
 21
395.248664173548
 31
0
  0
LINE
  8
1
 62
2
 10
1025.840329719197
 20
395.248664173548
 30
0
 11
1025.840329719197
 21
394.311164173548
 31
0
  0
LINE
  8
1
 62
2
 10
1027.173663052531
 20
392.623664173548
 30
0
 11
1027.173663052531
 21
395.248664173548
 31
0
  0
LINE
  8
1
 62
2
 10
1026.340329719197
 20
395.248664173548
 30
0
 11
1026.340329719197
 21
394.311164173548
 31
0
  0
LINE
  8
1
 62
2
 10
1026.340329719197
 20
394.779914173548
 30
0
 11
1027.173663052531
 21
394.779914173548
 31
0
  0
LINE
  8
1
 62
2
 10
1026.340329719197
 20
394.311164173548
 30
0
 11
1027.173663052531
 21
394.311164173548
 31
0
  0
LINE
  8
1
 62
2
 10
1027.173663052531
 20
395.248664173548
 30
0
 11
1026.340329719197
 21
395.248664173548
 31
0
  0
LINE
  8
1
 62
2
 10
1027.090329719197
 20
392.529914173548
 30
0
 11
1027.173663052531
 21
392.623664173548
 31
0
  0
LINE
  8
1
 62
2
 10
1026.840329719197
 20
392.529914173548
 30
0
 11
1027.090329719197
 21
392.529914173548
 31
0
  0
LINE
  8
1
 62
2
 10
1025.840329719197
 20
394.779914173548
 30
0
 11
1025.006996385864
 21
394.779914173548
 31
0
  0
LINE
  8
1
 62
2
 10
1025.840329719197
 20
394.311164173548
 30
0
 11
1025.006996385864
 21
394.311164173548
 31
0
  0
LINE
  8
1
 62
2
 10
1025.006996385864
 20
395.248664173548
 30
0
 11
1025.840329719197
 21
395.248664173548
 31
0
  0
LINE
  8
1
 62
2
 10
1022.006996385864
 20
392.529914173548
 30
0
 11
1024.090329719197
 21
392.529914173548
 31
0
  0
LINE
  8
1
 62
2
 10
1022.506996385864
 20
394.311164173548
 30
0
 11
1023.673663052531
 21
394.311164173548
 31
0
  0
LINE
  8
1
 62
2
 10
1024.090329719197
 20
394.217414173548
 30
0
 11
1024.423663052531
 21
393.936164173548
 31
0
  0
LINE
  8
1
 62
2
 10
1023.506996385864
 20
394.873664173548
 30
0
 11
1024.090329719197
 21
394.217414173548
 31
0
  0
LINE
  8
1
 62
2
 10
1023.090329719197
 20
395.436164173548
 30
0
 11
1023.506996385864
 21
394.873664173548
 31
0
  0
LINE
  8
1
 62
2
 10
1022.673663052531
 20
394.873664173548
 30
0
 11
1023.090329719197
 21
395.436164173548
 31
0
  0
LINE
  8
1
 62
2
 10
1022.090329719197
 20
394.217414173548
 30
0
 11
1022.673663052531
 21
394.873664173548
 31
0
  0
LINE
  8
1
 62
2
 10
1021.756996385864
 20
393.936164173548
 30
0
 11
1022.090329719197
 21
394.217414173548
 31
0
  0
LINE
  8
1
 62
2
 10
1023.506996385864
 20
392.904914173548
 30
0
 11
1023.673663052531
 21
393.373664173548
 31
0
  0
LINE
  8
1
 62
2
 10
1022.506996385864
 20
393.373664173548
 30
0
 11
1022.673663052531
 21
392.904914173548
 31
0
  0
LINE
  8
1
 62
2
 10
1023.923663052531
 20
393.748664173548
 30
0
 11
1022.256996385864
 21
393.748664173548
 31
0
  0
LINE
  8
1
 62
2
 10
1023.090329719197
 20
392.529914173548
 30
0
 11
1023.090329719197
 21
394.311164173548
 31
0
  0
LINE
  8
1
 62
2
 10
1052.431996385864
 20
398.636164173548
 30
0
 11
1052.431996385864
 21
397.436164173548
 31
0
  0
LINE
  8
1
 62
2
 10
1051.081996385864
 20
398.036164173548
 30
0
 11
1052.881996385864
 21
398.036164173548
 31
0
  0
LINE
  8
1
 62
2
 10
1052.431996385864
 20
400.436164173548
 30
0
 11
1051.081996385864
 21
398.036164173548
 31
0
  0
LINE
  8
1
 62
2
 10
1050.181996385864
 20
400.436164173548
 30
0
 11
1050.181996385864
 21
397.436164173548
 31
0
  0
LINE
  8
1
 62
2
 10
1049.281996385864
 20
399.536164173548
 30
0
 11
1050.181996385864
 21
400.436164173548
 31
0
  0
LINE
  8
1
 62
2
 10
1046.531996385864
 20
397.623664173548
 30
0
 11
1048.698663052531
 21
397.623664173548
 31
0
  0
LINE
  8
1
 62
2
 10
1047.615329719197
 20
400.248664173548
 30
0
 11
1047.615329719197
 21
397.623664173548
 31
0
  0
LINE
  8
1
 62
2
 10
1048.698663052531
 20
397.623664173548
 30
0
 11
1048.698663052531
 21
399.592414173548
 31
0
  0
LINE
  8
1
 62
2
 10
1046.531996385864
 20
399.592414173548
 30
0
 11
1046.531996385864
 21
397.623664173548
 31
0
  0
LINE
  8
1
 62
2
 10
1042.981996385864
 20
400.436164173548
 30
0
 11
1042.981996385864
 21
397.436164173548
 31
0
  0
LINE
  8
1
 62
2
 10
1042.081996385864
 20
399.536164173548
 30
0
 11
1042.981996385864
 21
400.436164173548
 31
0
  0
LINE
  8
1
 62
2
 10
1040.731996385864
 20
398.636164173548
 30
0
 11
1040.731996385864
 21
397.436164173548
 31
0
  0
LINE
  8
1
 62
2
 10
1039.381996385864
 20
398.036164173548
 30
0
 11
1041.181996385864
 21
398.036164173548
 31
0
  0
LINE
  8
1
 62
2
 10
1040.731996385864
 20
400.436164173548
 30
0
 11
1039.381996385864
 21
398.036164173548
 31
0
  0
LINE
  8
1
 62
2
 10
1038.031996385864
 20
398.636164173548
 30
0
 11
1038.031996385864
 21
397.436164173548
 31
0
  0
LINE
  8
1
 62
2
 10
1036.681996385864
 20
398.036164173548
 30
0
 11
1038.481996385864
 21
398.036164173548
 31
0
  0
LINE
  8
1
 62
2
 10
1038.031996385864
 20
400.436164173548
 30
0
 11
1036.681996385864
 21
398.036164173548
 31
0
  0
LINE
  8
1
 62
2
 10
1035.781996385864
 20
397.436164173548
 30
0
 11
1035.706996385864
 21
397.436164173548
 31
0
  0
LINE
  8
1
 62
2
 10
1035.781996385864
 20
397.511164173548
 30
0
 11
1035.781996385864
 21
397.436164173548
 31
0
  0
LINE
  8
1
 62
2
 10
1035.706996385864
 20
397.511164173548
 30
0
 11
1035.781996385864
 21
397.511164173548
 31
0
  0
LINE
  8
1
 62
2
 10
1035.706996385864
 20
397.436164173548
 30
0
 11
1035.706996385864
 21
397.511164173548
 31
0
  0
LINE
  8
1
 62
2
 10
1033.531996385864
 20
399.761164173548
 30
0
 11
1034.356996385864
 21
400.436164173548
 31
0
  0
LINE
  8
1
 62
2
 10
1033.231996385864
 20
399.386164173548
 30
0
 11
1033.531996385864
 21
399.761164173548
 31
0
  0
LINE
  8
1
 62
2
 10
1033.081996385864
 20
399.086164173548
 30
0
 11
1033.231996385864
 21
399.386164173548
 31
0
  0
LINE
  8
1
 62
2
 10
1033.006996385864
 20
398.486164173548
 30
0
 11
1033.081996385864
 21
399.086164173548
 31
0
  0
LINE
  8
1
 62
2
 10
1033.006996385864
 20
398.186164173548
 30
0
 11
1033.006996385864
 21
398.486164173548
 31
0
  0
LINE
  8
1
 62
2
 10
1033.081996385864
 20
397.886164173548
 30
0
 11
1033.006996385864
 21
398.186164173548
 31
0
  0
LINE
  8
1
 62
2
 10
1033.231996385864
 20
397.661164173548
 30
0
 11
1033.081996385864
 21
397.886164173548
 31
0
  0
LINE
  8
1
 62
2
 10
1033.456996385864
 20
397.511164173548
 30
0
 11
1033.231996385864
 21
397.661164173548
 31
0
  0
LINE
  8
1
 62
2
 10
1033.681996385864
 20
397.436164173548
 30
0
 11
1033.456996385864
 21
397.511164173548
 31
0
  0
LINE
  8
1
 62
2
 10
1034.131996385864
 20
397.436164173548
 30
0
 11
1033.681996385864
 21
397.436164173548
 31
0
  0
LINE
  8
1
 62
2
 10
1034.356996385864
 20
397.511164173548
 30
0
 11
1034.131996385864
 21
397.436164173548
 31
0
  0
LINE
  8
1
 62
2
 10
1034.581996385864
 20
397.661164173548
 30
0
 11
1034.356996385864
 21
397.511164173548
 31
0
  0
LINE
  8
1
 62
2
 10
1034.731996385864
 20
397.886164173548
 30
0
 11
1034.581996385864
 21
397.661164173548
 31
0
  0
LINE
  8
1
 62
2
 10
1034.806996385864
 20
398.186164173548
 30
0
 11
1034.731996385864
 21
397.886164173548
 31
0
  0
LINE
  8
1
 62
2
 10
1034.806996385864
 20
398.486164173548
 30
0
 11
1034.806996385864
 21
398.186164173548
 31
0
  0
LINE
  8
1
 62
2
 10
1034.731996385864
 20
398.786164173548
 30
0
 11
1034.806996385864
 21
398.486164173548
 31
0
  0
LINE
  8
1
 62
2
 10
1034.581996385864
 20
399.011164173548
 30
0
 11
1034.731996385864
 21
398.786164173548
 31
0
  0
LINE
  8
1
 62
2
 10
1034.356996385864
 20
399.161164173548
 30
0
 11
1034.581996385864
 21
399.011164173548
 31
0
  0
LINE
  8
1
 62
2
 10
1034.131996385864
 20
399.236164173548
 30
0
 11
1034.356996385864
 21
399.161164173548
 31
0
  0
LINE
  8
1
 62
2
 10
1033.681996385864
 20
399.236164173548
 30
0
 11
1034.131996385864
 21
399.236164173548
 31
0
  0
LINE
  8
1
 62
2
 10
1033.456996385864
 20
399.161164173548
 30
0
 11
1033.681996385864
 21
399.236164173548
 31
0
  0
LINE
  8
1
 62
2
 10
1033.231996385864
 20
399.011164173548
 30
0
 11
1033.456996385864
 21
399.161164173548
 31
0
  0
LINE
  8
1
 62
2
 10
1033.081996385864
 20
398.786164173548
 30
0
 11
1033.231996385864
 21
399.011164173548
 31
0
  0
LINE
  8
1
 62
2
 10
1033.006996385864
 20
398.486164173548
 30
0
 11
1033.081996385864
 21
398.786164173548
 31
0
  0
LINE
  8
1
 62
2
 10
1030.306996385864
 20
397.436164173548
 30
0
 11
1032.106996385864
 21
397.436164173548
 31
0
  0
LINE
  8
1
 62
2
 10
1031.956996385864
 20
399.386164173548
 30
0
 11
1030.306996385864
 21
397.436164173548
 31
0
  0
LINE
  8
1
 62
2
 10
1032.106996385864
 20
399.686164173548
 30
0
 11
1031.956996385864
 21
399.386164173548
 31
0
  0
LINE
  8
1
 62
2
 10
1032.106996385864
 20
399.986164173548
 30
0
 11
1032.106996385864
 21
399.686164173548
 31
0
  0
LINE
  8
1
 62
2
 10
1031.956996385864
 20
400.211164173548
 30
0
 11
1032.106996385864
 21
399.986164173548
 31
0
  0
LINE
  8
1
 62
2
 10
1031.731996385864
 20
400.361164173548
 30
0
 11
1031.956996385864
 21
400.211164173548
 31
0
  0
LINE
  8
1
 62
2
 10
1031.431996385864
 20
400.436164173548
 30
0
 11
1031.731996385864
 21
400.361164173548
 31
0
  0
LINE
  8
1
 62
2
 10
1030.981996385864
 20
400.436164173548
 30
0
 11
1031.431996385864
 21
400.436164173548
 31
0
  0
LINE
  8
1
 62
2
 10
1030.681996385864
 20
400.361164173548
 30
0
 11
1030.981996385864
 21
400.436164173548
 31
0
  0
LINE
  8
1
 62
2
 10
1030.456996385864
 20
400.211164173548
 30
0
 11
1030.681996385864
 21
400.361164173548
 31
0
  0
LINE
  8
1
 62
2
 10
1030.306996385864
 20
399.986164173548
 30
0
 11
1030.456996385864
 21
400.211164173548
 31
0
  0
LINE
  8
1
 62
2
 10
1027.156996385864
 20
398.373664173548
 30
0
 11
1027.573663052531
 21
397.904914173548
 31
0
  0
LINE
  8
1
 62
2
 10
1026.823663052531
 20
398.936164173548
 30
0
 11
1027.156996385864
 21
398.373664173548
 31
0
  0
LINE
  8
1
 62
2
 10
1026.573663052531
 20
399.592414173548
 30
0
 11
1026.823663052531
 21
398.936164173548
 31
0
  0
LINE
  8
1
 62
2
 10
1027.323663052531
 20
399.686164173548
 30
0
 11
1026.740329719197
 21
399.217414173548
 31
0
  0
LINE
  8
1
 62
2
 10
1026.323663052531
 20
397.436164173548
 30
0
 11
1026.073663052531
 21
397.529914173548
 31
0
  0
LINE
  8
1
 62
2
 10
1026.323663052531
 20
400.342414173548
 30
0
 11
1026.323663052531
 21
397.436164173548
 31
0
  0
LINE
  8
1
 62
2
 10
1025.906996385864
 20
399.404914173548
 30
0
 11
1025.073663052531
 21
399.404914173548
 31
0
  0
LINE
  8
1
 62
2
 10
1025.740329719197
 20
398.842414173548
 30
0
 11
1025.906996385864
 21
399.404914173548
 31
0
  0
LINE
  8
1
 62
2
 10
1025.406996385864
 20
398.279914173548
 30
0
 11
1025.740329719197
 21
398.842414173548
 31
0
  0
LINE
  8
1
 62
2
 10
1025.073663052531
 20
397.904914173548
 30
0
 11
1025.406996385864
 21
398.279914173548
 31
0
  0
LINE
  8
1
 62
2
 10
1023.156996385864
 20
400.436164173548
 30
0
 11
1023.156996385864
 21
397.529914173548
 31
0
  0
LINE
  8
1
 62
2
 10
1021.906996385864
 20
397.529914173548
 30
0
 11
1024.573663052531
 21
397.529914173548
 31
0
  0
LINE
  8
1
 62
2
 10
1024.156996385864
 20
399.311164173548
 30
0
 11
1023.156996385864
 21
399.311164173548
 31
0
  0
LINE
  8
1
 62
2
 10
1079.784661250936
 20
336.9334634249568
 30
0
 11
1079.61799458427
 21
336.6522134249568
 31
0
  0
LINE
  8
1
 62
2
 10
1079.951327917603
 20
337.4022134249568
 30
0
 11
1079.784661250936
 21
336.9334634249568
 31
0
  0
LINE
  8
1
 62
2
 10
1079.951327917603
 20
338.9022134249568
 30
0
 11
1079.951327917603
 21
337.4022134249568
 31
0
  0
LINE
  8
1
 62
2
 10
1079.784661250936
 20
339.3709634249568
 30
0
 11
1079.951327917603
 21
338.9022134249568
 31
0
  0
LINE
  8
1
 62
2
 10
1079.61799458427
 20
339.6522134249568
 30
0
 11
1079.784661250936
 21
339.3709634249568
 31
0
  0
LINE
  8
1
 62
2
 10
1075.61799458427
 20
338.8084634249568
 30
0
 11
1076.451327917603
 21
338.8084634249568
 31
0
  0
LINE
  8
1
 62
2
 10
1076.034661250936
 20
339.5584634249568
 30
0
 11
1076.034661250936
 21
336.7459634249568
 31
0
  0
LINE
  8
1
 62
2
 10
1077.11799458427
 20
338.5272134249568
 30
0
 11
1078.11799458427
 21
338.5272134249568
 31
0
  0
LINE
  8
1
 62
2
 10
1077.61799458427
 20
336.7459634249568
 30
0
 11
1077.36799458427
 21
336.7459634249568
 31
0
  0
LINE
  8
1
 62
2
 10
1077.701327917603
 20
336.9334634249568
 30
0
 11
1077.61799458427
 21
336.7459634249568
 31
0
  0
LINE
  8
1
 62
2
 10
1077.701327917603
 20
338.5272134249568
 30
0
 11
1077.701327917603
 21
336.9334634249568
 31
0
  0
LINE
  8
1
 62
2
 10
1077.201327917603
 20
339.2772134249568
 30
0
 11
1077.951327917603
 21
339.2772134249568
 31
0
  0
LINE
  8
1
 62
2
 10
1076.784661250936
 20
338.2459634249568
 30
0
 11
1076.784661250936
 21
336.7459634249568
 31
0
  0
LINE
  8
1
 62
2
 10
1076.61799458427
 20
337.9647134249568
 30
0
 11
1076.36799458427
 21
337.6834634249568
 31
0
  0
LINE
  8
1
 62
2
 10
1077.11799458427
 20
338.9022134249568
 30
0
 11
1076.61799458427
 21
337.9647134249568
 31
0
  0
LINE
  8
1
 62
2
 10
1076.951327917603
 20
339.4647134249568
 30
0
 11
1076.534661250936
 21
338.8084634249568
 31
0
  0
LINE
  8
1
 62
2
 10
1076.034661250936
 20
338.8084634249568
 30
0
 11
1076.36799458427
 21
338.0584634249568
 31
0
  0
LINE
  8
1
 62
2
 10
1075.61799458427
 20
337.7772134249568
 30
0
 11
1075.534661250936
 21
337.5897134249568
 31
0
  0
LINE
  8
1
 62
2
 10
1075.784661250936
 20
338.0584634249568
 30
0
 11
1075.61799458427
 21
337.7772134249568
 31
0
  0
LINE
  8
1
 62
2
 10
1076.034661250936
 20
338.8084634249568
 30
0
 11
1075.784661250936
 21
338.0584634249568
 31
0
  0
LINE
  8
1
 62
2
 10
1072.701327917603
 20
336.6522134249568
 30
0
 11
1074.86799458427
 21
336.6522134249568
 31
0
  0
LINE
  8
1
 62
2
 10
1072.784661250936
 20
337.2147134249568
 30
0
 11
1072.701327917603
 21
336.6522134249568
 31
0
  0
LINE
  8
1
 62
2
 10
1072.86799458427
 20
337.4022134249568
 30
0
 11
1072.784661250936
 21
337.2147134249568
 31
0
  0
LINE
  8
1
 62
2
 10
1073.11799458427
 20
337.5897134249568
 30
0
 11
1072.86799458427
 21
337.4022134249568
 31
0
  0
LINE
  8
1
 62
2
 10
1074.451327917603
 20
337.7772134249568
 30
0
 11
1073.11799458427
 21
337.5897134249568
 31
0
  0
LINE
  8
1
 62
2
 10
1074.784661250936
 20
337.9647134249568
 30
0
 11
1074.451327917603
 21
337.7772134249568
 31
0
  0
LINE
  8
1
 62
2
 10
1074.86799458427
 20
338.1522134249568
 30
0
 11
1074.784661250936
 21
337.9647134249568
 31
0
  0
LINE
  8
1
 62
2
 10
1074.86799458427
 20
338.6209634249568
 30
0
 11
1074.86799458427
 21
338.1522134249568
 31
0
  0
LINE
  8
1
 62
2
 10
1074.784661250936
 20
338.8084634249568
 30
0
 11
1074.86799458427
 21
338.6209634249568
 31
0
  0
LINE
  8
1
 62
2
 10
1074.451327917603
 20
338.9959634249568
 30
0
 11
1074.784661250936
 21
338.8084634249568
 31
0
  0
LINE
  8
1
 62
2
 10
1074.11799458427
 20
339.0897134249568
 30
0
 11
1074.451327917603
 21
338.9959634249568
 31
0
  0
LINE
  8
1
 62
2
 10
1073.534661250936
 20
339.0897134249568
 30
0
 11
1074.11799458427
 21
339.0897134249568
 31
0
  0
LINE
  8
1
 62
2
 10
1073.201327917603
 20
338.9959634249568
 30
0
 11
1073.534661250936
 21
339.0897134249568
 31
0
  0
LINE
  8
1
 62
2
 10
1072.86799458427
 20
338.8084634249568
 30
0
 11
1073.201327917603
 21
338.9959634249568
 31
0
  0
LINE
  8
1
 62
2
 10
1072.784661250936
 20
338.6209634249568
 30
0
 11
1072.86799458427
 21
338.8084634249568
 31
0
  0
LINE
  8
1
 62
2
 10
1072.034661250936
 20
339.2772134249568
 30
0
 11
1069.534661250936
 21
339.2772134249568
 31
0
  0
LINE
  8
1
 62
2
 10
1071.201327917603
 20
338.6209634249568
 30
0
 11
1071.701327917603
 21
338.0584634249568
 31
0
  0
LINE
  8
1
 62
2
 10
1070.784661250936
 20
336.6522134249568
 30
0
 11
1070.784661250936
 21
339.2772134249568
 31
0
  0
LINE
  8
1
 62
2
 10
1067.36799458427
 20
339.3709634249568
 30
0
 11
1067.36799458427
 21
337.9647134249568
 31
0
  0
LINE
  8
1
 62
2
 10
1068.951327917603
 20
338.9022134249568
 30
0
 11
1067.951327917603
 21
338.9022134249568
 31
0
  0
LINE
  8
1
 62
2
 10
1068.451327917603
 20
339.3709634249568
 30
0
 11
1068.451327917603
 21
337.9647134249568
 31
0
  0
LINE
  8
1
 62
2
 10
1067.284661250936
 20
337.6834634249568
 30
0
 11
1067.284661250936
 21
336.7459634249568
 31
0
  0
LINE
  8
1
 62
2
 10
1068.61799458427
 20
336.7459634249568
 30
0
 11
1068.61799458427
 21
337.6834634249568
 31
0
  0
LINE
  8
1
 62
2
 10
1067.284661250936
 20
337.2147134249568
 30
0
 11
1068.61799458427
 21
337.2147134249568
 31
0
  0
LINE
  8
1
 62
2
 10
1067.284661250936
 20
336.7459634249568
 30
0
 11
1068.61799458427
 21
336.7459634249568
 31
0
  0
LINE
  8
1
 62
2
 10
1068.61799458427
 20
337.6834634249568
 30
0
 11
1067.284661250936
 21
337.6834634249568
 31
0
  0
LINE
  8
1
 62
2
 10
1068.701327917603
 20
338.5272134249568
 30
0
 11
1069.11799458427
 21
338.0584634249568
 31
0
  0
LINE
  8
1
 62
2
 10
1068.451327917603
 20
338.9022134249568
 30
0
 11
1068.701327917603
 21
338.5272134249568
 31
0
  0
LINE
  8
1
 62
2
 10
1068.034661250936
 20
338.2459634249568
 30
0
 11
1068.451327917603
 21
338.9022134249568
 31
0
  0
LINE
  8
1
 62
2
 10
1067.784661250936
 20
338.0584634249568
 30
0
 11
1068.034661250936
 21
338.2459634249568
 31
0
  0
LINE
  8
1
 62
2
 10
1067.534661250936
 20
338.6209634249568
 30
0
 11
1067.784661250936
 21
338.3397134249568
 31
0
  0
LINE
  8
1
 62
2
 10
1067.11799458427
 20
338.4334634249568
 30
0
 11
1067.36799458427
 21
338.9022134249568
 31
0
  0
LINE
  8
1
 62
2
 10
1066.86799458427
 20
338.1522134249568
 30
0
 11
1067.11799458427
 21
338.4334634249568
 31
0
  0
LINE
  8
1
 62
2
 10
1067.784661250936
 20
338.9022134249568
 30
0
 11
1066.951327917603
 21
338.9022134249568
 31
0
  0
LINE
  8
1
 62
2
 10
1066.61799458427
 20
339.5584634249568
 30
0
 11
1068.951327917603
 21
339.5584634249568
 31
0
  0
LINE
  8
1
 62
2
 10
1066.61799458427
 20
337.9647134249568
 30
0
 11
1066.61799458427
 21
339.5584634249568
 31
0
  0
LINE
  8
1
 62
2
 10
1066.534661250936
 20
337.1209634249568
 30
0
 11
1066.61799458427
 21
337.9647134249568
 31
0
  0
LINE
  8
1
 62
2
 10
1066.451327917603
 20
336.8397134249568
 30
0
 11
1066.534661250936
 21
337.1209634249568
 31
0
  0
LINE
  8
1
 62
2
 10
1063.534661250936
 20
339.3709634249568
 30
0
 11
1066.034661250936
 21
339.3709634249568
 31
0
  0
LINE
  8
1
 62
2
 10
1065.534661250936
 20
337.6834634249568
 30
0
 11
1065.61799458427
 21
337.8709634249568
 31
0
  0
LINE
  8
1
 62
2
 10
1065.11799458427
 20
337.6834634249568
 30
0
 11
1065.534661250936
 21
337.6834634249568
 31
0
  0
LINE
  8
1
 62
2
 10
1065.034661250936
 20
337.8709634249568
 30
0
 11
1065.11799458427
 21
337.6834634249568
 31
0
  0
LINE
  8
1
 62
2
 10
1065.034661250936
 20
339.3709634249568
 30
0
 11
1065.034661250936
 21
337.8709634249568
 31
0
  0
LINE
  8
1
 62
2
 10
1064.451327917603
 20
338.3397134249568
 30
0
 11
1064.451327917603
 21
339.3709634249568
 31
0
  0
LINE
  8
1
 62
2
 10
1064.201327917603
 20
337.7772134249568
 30
0
 11
1064.451327917603
 21
338.3397134249568
 31
0
  0
LINE
  8
1
 62
2
 10
1063.951327917603
 20
337.4959634249568
 30
0
 11
1064.201327917603
 21
337.7772134249568
 31
0
  0
LINE
  8
1
 62
2
 10
1065.784661250936
 20
336.8397134249568
 30
0
 11
1063.784661250936
 21
336.8397134249568
 31
0
  0
LINE
  8
1
 62
2
 10
1065.784661250936
 20
338.6209634249568
 30
0
 11
1065.784661250936
 21
336.8397134249568
 31
0
  0
LINE
  8
1
 62
2
 10
1063.784661250936
 20
338.6209634249568
 30
0
 11
1065.784661250936
 21
338.6209634249568
 31
0
  0
LINE
  8
1
 62
2
 10
1063.784661250936
 20
336.8397134249568
 30
0
 11
1063.784661250936
 21
338.6209634249568
 31
0
  0
LINE
  8
1
 62
2
 10
1061.784661250936
 20
336.9334634249568
 30
0
 11
1061.951327917603
 21
336.6522134249568
 31
0
  0
LINE
  8
1
 62
2
 10
1061.61799458427
 20
337.4022134249568
 30
0
 11
1061.784661250936
 21
336.9334634249568
 31
0
  0
LINE
  8
1
 62
2
 10
1061.61799458427
 20
338.9022134249568
 30
0
 11
1061.61799458427
 21
337.4022134249568
 31
0
  0
LINE
  8
1
 62
2
 10
1061.784661250936
 20
339.3709634249568
 30
0
 11
1061.61799458427
 21
338.9022134249568
 31
0
  0
LINE
  8
1
 62
2
 10
1061.951327917603
 20
339.6522134249568
 30
0
 11
1061.784661250936
 21
339.3709634249568
 31
0
  0
LINE
  8
0
 62
7
 10
1062.685172426433
 20
431.8583791705723
 30
0
 11
1066.806997525433
 21
431.8583791705723
 31
0
  0
LINE
  8
0
 62
7
 10
1059.185172784133
 20
414.5736207815723
 30
0
 11
1059.185172784133
 21
428.3583795282723
 31
0
  0
LINE
  8
0
 62
7
 10
1066.806997525433
 20
431.8583791705723
 30
0
 11
1144.685174691433
 21
431.8583791705723
 31
0
  0
LINE
  8
0
 62
7
 10
1148.185174333833
 20
428.3583795282723
 30
0
 11
1148.185174333833
 21
410.3583803030723
 31
0
  0
LINE
  8
0
 62
7
 10
1142.068113553333
 20
410.3583803030723
 30
0
 11
1148.185174333833
 21
410.3583803030723
 31
0
  0
LINE
  8
0
 62
7
 10
1059.185172784133
 20
410.3583803030723
 30
0
 11
1059.185172784133
 21
414.5736207815723
 31
0
  0
LINE
  8
0
 62
7
 10
1065.302233564633
 20
410.3583803030723
 30
0
 11
1059.185172784133
 21
410.3583803030723
 31
0
  0
LINE
  8
0
 62
7
 10
1068.185172396633
 20
433.3583822104723
 30
0
 11
1139.185174721233
 21
433.3583822104723
 31
0
  0
LINE
  8
0
 62
7
 10
1066.806997525433
 20
424.3583788725723
 30
0
 11
1066.806997525433
 21
431.8583791705723
 31
0
  0
LINE
  8
0
 62
7
 10
1140.563349592433
 20
431.8583791705723
 30
0
 11
1140.563349592433
 21
424.3583788725723
 31
0
  0
LINE
  8
0
 62
7
 10
1065.185173767533
 20
408.3583799752723
 30
0
 11
1103.685173558933
 21
408.3583799752723
 31
0
  0
LINE
  8
0
 62
7
 10
1103.685173558933
 20
408.3583799752723
 30
0
 11
1142.185173350333
 21
408.3583799752723
 31
0
  0
LINE
  8
0
 62
7
 10
1065.302233564633
 20
424.3583788725723
 30
0
 11
1142.068113553333
 21
424.3583788725723
 31
0
  0
LINE
  8
0
 62
7
 10
1065.302233564633
 20
410.3583803030723
 30
0
 11
1065.302233564633
 21
424.3583788725723
 31
0
  0
LINE
  8
0
 62
7
 10
1142.068113553333
 20
424.3583788725723
 30
0
 11
1142.068113553333
 21
410.3583803030723
 31
0
  0
LINE
  8
0
 62
7
 10
1100.685173532833
 20
410.3583803030723
 30
0
 11
1106.685173585033
 21
410.3583803030723
 31
0
  0
LINE
  8
0
 62
7
 10
1100.685173532833
 20
422.3583822700723
 30
0
 11
1100.685173532833
 21
410.3583803030723
 31
0
  0
LINE
  8
0
 62
7
 10
1106.685173585033
 20
422.3583822700723
 30
0
 11
1100.685173532833
 21
422.3583822700723
 31
0
  0
LINE
  8
0
 62
7
 10
1106.685173585033
 20
410.3583803030723
 30
0
 11
1106.685173585033
 21
422.3583822700723
 31
0
  0
LINE
  8
0
 62
7
 10
1082.185172828833
 20
433.3583822104723
 30
0
 11
1082.185172828833
 21
434.8583815249723
 31
0
  0
LINE
  8
0
 62
7
 10
1089.685173126833
 20
435.8583835515723
 30
0
 11
1089.685173126833
 21
433.3583822104723
 31
0
  0
LINE
  8
0
 62
7
 10
1088.685173894233
 20
434.8583815249723
 30
0
 11
1079.18374997228
 21
434.8583815249723
 31
0
  0
LINE
  8
0
 62
7
 10
1078.185174035833
 20
435.8583835515723
 30
0
 11
1089.685173126833
 21
435.8583835515723
 31
0
  0
LINE
  8
0
 62
7
 10
1079.185174199733
 20
444.8583794388723
 30
0
 11
1079.185174199733
 21
434.8583815249723
 31
0
  0
LINE
  8
0
 62
7
 10
1083.967616203233
 20
445.3583804520723
 30
0
 11
1083.967616203233
 21
444.8583794388723
 31
0
  0
LINE
  8
0
 62
7
 10
1084.424713048133
 20
445.3583804520723
 30
0
 11
1083.967616203233
 21
445.3583804520723
 31
0
  0
LINE
  8
0
 62
7
 10
1084.424713048133
 20
445.3583804520723
 30
0
 11
1084.424713048133
 21
444.8583794388723
 31
0
  0
LINE
  8
0
 62
7
 10
1084.069193693733
 20
445.3583804520723
 30
0
 11
1084.069193693733
 21
444.8583794388723
 31
0
  0
LINE
  8
0
 62
7
 10
1087.883036005233
 20
445.3583804520723
 30
0
 11
1084.441026094333
 21
445.3583804520723
 31
0
  0
LINE
  8
0
 62
7
 10
1087.883036005233
 20
445.3583804520723
 30
0
 11
1087.883036005233
 21
444.8583794388723
 31
0
  0
LINE
  8
0
 62
7
 10
1084.441026094333
 20
445.3583804520723
 30
0
 11
1084.441026094333
 21
444.8583794388723
 31
0
  0
LINE
  8
0
 62
7
 10
1078.185174035833
 20
435.8574038850296
 30
0
 11
1078.185174035833
 21
444.8583794388723
 31
0
  0
LINE
  8
0
 62
7
 10
1078.185174035833
 20
443.8583774122723
 30
0
 11
1089.685173126833
 21
443.8583774122723
 31
0
  0
LINE
  8
0
 62
7
 10
1078.185174035833
 20
444.8583794388723
 30
0
 11
1089.685173126833
 21
444.8583794388723
 31
0
  0
LINE
  8
0
 62
7
 10
1089.685173126833
 20
444.8583794388723
 30
0
 11
1089.685173126833
 21
435.8583835515723
 31
0
  0
LINE
  8
0
 62
7
 10
1088.685173894233
 20
434.8583815249723
 30
0
 11
1088.685173894233
 21
444.8583794388723
 31
0
  0
LINE
  8
0
 62
7
 10
1068.185172396633
 20
433.3583822104723
 30
0
 11
1068.185172396633
 21
431.8583791705723
 31
0
  0
LINE
  8
0
 62
7
 10
1139.185174721233
 20
431.8583791705723
 30
0
 11
1139.185174721233
 21
433.3583822104723
 31
0
  0
LINE
  8
0
 62
7
 10
1065.185173767533
 20
410.3583803030723
 30
0
 11
1065.185173767533
 21
408.3583799752723
 31
0
  0
LINE
  8
0
 62
7
 10
1142.185173350333
 20
408.3583799752723
 30
0
 11
1142.185173350333
 21
410.3583803030723
 31
0
  0
LINE
  8
1
 62
2
 10
1111.970502865097
 20
496.5124678139411
 30
0
 11
1114.000798969238
 21
498.5427639180821
 31
0
  0
LINE
  8
1
 62
2
 10
1113.882482684354
 20
494.5630016633414
 30
0
 11
1115.912778788495
 21
496.5932977674824
 31
0
  0
LINE
  8
1
 62
2
 10
1112.361236656047
 20
494.2791584112497
 30
0
 11
1116.153182800915
 21
498.0711045561176
 31
0
  0
LINE
  8
1
 62
2
 10
1111.742712188971
 20
494.8976828783175
 30
0
 11
1115.534658333839
 21
498.6896290231854
 31
0
  0
LINE
  8
1
 62
2
 10
1095.603829145197
 20
524.7403826004971
 30
0
 11
1097.634125249338
 21
526.7706787046382
 31
0
  0
LINE
  8
1
 62
2
 10
1097.515808964454
 20
522.7909164498974
 30
0
 11
1099.546105068595
 21
524.8212125540384
 31
0
  0
LINE
  8
1
 62
2
 10
1095.994562936148
 20
522.5070731978058
 30
0
 11
1099.786509081016
 21
526.2990193426737
 31
0
  0
LINE
  8
1
 62
2
 10
1095.376038469071
 20
523.1255976648736
 30
0
 11
1099.167984613939
 21
526.9175438097415
 31
0
  0
LINE
  8
1
 62
2
 10
1142.685174363633
 20
492.2675010130722
 30
0
 11
1153.285172609033
 21
492.2675010130722
 31
0
  0
LINE
  8
1
 62
2
 10
1142.685174363633
 20
516.0675010130724
 30
0
 11
1153.285176043833
 21
516.0675010130724
 31
0
  0
LINE
  8
0
 62
7
 10
1064.685172754333
 20
507.1675041535723
 30
0
 11
1064.685172754333
 21
490.9470034607723
 31
0
  0
LINE
  8
1
 62
2
 10
1054.085174508933
 20
492.2675010130722
 30
0
 11
1064.685172754333
 21
492.2675010130722
 31
0
  0
LINE
  8
1
 62
2
 10
1054.085171074133
 20
516.0675010130724
 30
0
 11
1064.685172754333
 21
516.0675010130724
 31
0
  0
LINE
  8
1
 62
2
  6
DASHDOT
 10
1156.59191485943
 20
504.1675010130722
 30
0
 11
1136.35102975903
 21
504.1675010130722
 31
0
  0
LINE
  8
1
 62
2
  6
DASHDOT
 10
1050.09575469062
 20
504.1675010130722
 30
0
 11
1070.8658132577
 21
504.1675010130722
 31
0
  0
LINE
  8
1
 62
2
  6
DASHDOT
 10
1049.56658122394
 20
510.1675010130723
 30
0
 11
1156.45962149277
 21
510.1675010130723
 31
0
  0
LINE
  8
1
 62
2
  6
DASHDOT
 10
1103.685173558933
 20
556.718767707988
 30
0
 11
1103.685173558933
 21
460.806076872717
 31
0
  0
LINE
  8
0
 62
7
 10
1064.685172754333
 20
517.3880020001723
 30
0
 11
1064.685172754333
 21
513.1675014116723
 31
0
  0
LINE
  8
0
 62
7
 10
1053.685172813933
 20
492.6675027080723
 30
0
 11
1053.685172813933
 21
515.6675027528722
 31
0
  0
LINE
  8
0
 62
2
 10
1055.405672061233
 20
517.3880020001723
 30
0
 11
1055.405672061233
 21
490.9470034607723
 31
0
  0
LINE
  8
0
 62
7
 10
1142.685174363633
 20
507.1675041535723
 30
0
 11
1142.685174363633
 21
490.9470034607723
 31
0
  0
LINE
  8
0
 62
7
 10
1142.685174363633
 20
517.3880020001723
 30
0
 11
1142.685174363633
 21
513.1675014116723
 31
0
  0
LINE
  8
0
 62
7
 10
1153.685174304033
 20
515.6675027528722
 30
0
 11
1153.685174304033
 21
492.6675027080723
 31
0
  0
LINE
  8
0
 62
2
 10
1151.964675056733
 20
490.9470034607723
 30
0
 11
1151.964675056733
 21
517.3880020001723
 31
0
  0
LINE
  8
0
 62
7
 10
1106.685173585033
 20
471.7845627882723
 30
0
 11
1106.685173585033
 21
465.6675021241723
 31
0
  0
LINE
  8
0
 62
7
 10
1100.685173532833
 20
471.7845627882723
 30
0
 11
1100.685173532833
 21
465.6675021241723
 31
0
  0
LINE
  8
0
 62
7
 10
1106.685173585033
 20
465.6675021241723
 30
0
 11
1100.685173532833
 21
465.6675021241723
 31
0
  0
LINE
  8
0
 62
7
 10
1100.685173532833
 20
554.6675072827723
 30
0
 11
1106.685173585033
 21
554.6675072827723
 31
0
  0
LINE
  8
0
 62
7
 10
1100.685173532833
 20
548.5504465022723
 30
0
 11
1100.685173532833
 21
554.6675072827723
 31
0
  0
LINE
  8
0
 62
7
 10
1106.685173585033
 20
548.5504465022723
 30
0
 11
1106.685173585033
 21
554.6675072827723
 31
0
  0
LINE
  8
0
 62
7
 10
1059.185172784133
 20
507.1675041535723
 30
0
 11
1066.806997525433
 21
507.1675041535723
 31
0
  0
LINE
  8
0
 62
7
 10
1059.185172784133
 20
513.1675014116723
 30
0
 11
1066.806997525433
 21
513.1675014116723
 31
0
  0
LINE
  8
0
 62
7
 10
1148.185174333833
 20
513.1675014116723
 30
0
 11
1148.185174333833
 21
507.1675041535723
 31
0
  0
LINE
  8
0
 62
7
 10
1059.185172784133
 20
507.1675041535723
 30
0
 11
1059.185172784133
 21
513.1675014116723
 31
0
  0
LINE
  8
0
 62
7
 10
1066.806997525433
 20
513.1675014116723
 30
0
 11
1066.806997525433
 21
512.9175046303723
 31
0
  0
LINE
  8
0
 62
7
 10
1066.806997525433
 20
512.9175046303723
 30
0
 11
1059.185172784133
 21
512.9175046303723
 31
0
  0
LINE
  8
0
 62
7
 10
1062.685172426433
 20
512.9175046303723
 30
0
 11
1062.685172426433
 21
507.4175046601723
 31
0
  0
LINE
  8
0
 62
7
 10
1059.185172784133
 20
507.4175046601723
 30
0
 11
1066.806997525433
 21
507.4175046601723
 31
0
  0
LINE
  8
0
 62
7
 10
1066.806997525433
 20
507.1675041535723
 30
0
 11
1066.806997525433
 21
507.4175046601723
 31
0
  0
LINE
  8
0
 62
7
 10
1140.563349592433
 20
507.1675041535723
 30
0
 11
1148.185174333833
 21
507.1675041535723
 31
0
  0
LINE
  8
0
 62
7
 10
1144.685174691433
 20
507.1675041535723
 30
0
 11
1144.685174691433
 21
513.1675014116723
 31
0
  0
LINE
  8
0
 62
7
 10
1140.563349592433
 20
513.1675014116723
 30
0
 11
1148.185174333833
 21
513.1675014116723
 31
0
  0
LINE
  8
0
 62
7
 10
1089.685173126833
 20
528.1675020077723
 30
0
 11
1089.685173126833
 21
530.1675089201723
 31
0
  0
LINE
  8
0
 62
7
 10
1081.838871705333
 20
515.1675017395723
 30
0
 11
1082.135173845033
 21
515.1675017395723
 31
0
  0
LINE
  8
0
 62
7
 10
1079.685173350333
 20
513.1675014116723
 30
0
 11
1079.685173350333
 21
507.1675041535723
 31
0
  0
LINE
  8
0
 62
7
 10
1077.685173022533
 20
513.1675014116723
 30
0
 11
1079.785173180433
 21
513.1675014116723
 31
0
  0
LINE
  8
0
 62
7
 10
1077.685173022533
 20
507.1675041535723
 30
0
 11
1079.785173180433
 21
507.1675041535723
 31
0
  0
LINE
  8
0
 62
7
 10
1079.185174199733
 20
513.1675014116723
 30
0
 11
1079.185174199733
 21
507.1675041535723
 31
0
  0
LINE
  8
0
 62
7
 10
1077.685173022533
 20
513.1675014116723
 30
0
 11
1077.685173022533
 21
507.1675041535723
 31
0
  0
LINE
  8
0
 62
7
 10
1079.185174992833
 20
489.1675030657723
 30
0
 11
1088.685173759633
 21
489.1675030657723
 31
0
  0
LINE
  8
0
 62
7
 10
1089.685173126833
 20
490.1675024329723
 30
0
 11
1089.685173126833
 21
528.1675020077723
 31
0
  0
LINE
  8
0
 62
7
 10
1088.685173759633
 20
529.1675040343723
 30
0
 11
1085.622774894533
 21
529.1675040343723
 31
0
  0
LINE
  8
0
 62
7
 10
1082.185172828833
 20
525.3332534070723
 30
0
 11
1082.185172828833
 21
507.0957066335723
 31
0
  0
LINE
  8
0
 62
7
 10
1082.185172828833
 20
507.0957066335723
 30
0
 11
1078.185174035833
 21
500.1675048687723
 31
0
  0
LINE
  8
0
 62
7
 10
1078.185174035833
 20
500.1675048687723
 30
0
 11
1078.185174035833
 21
490.1675040228723
 31
0
  0
LINE
  8
0
 62
2
 10
1084.839486869933
 20
518.0187495269723
 30
0
 11
1084.695586356333
 21
518.0187495269723
 31
0
  0
LINE
  8
0
 62
2
 10
1085.127287897233
 20
517.5359444537723
 30
0
 11
1085.127287897233
 21
517.7883179702723
 31
0
  0
LINE
  8
0
 62
2
 10
1084.424713048133
 20
517.8212383606723
 30
0
 11
1084.424713048133
 21
517.5798358240722
 31
0
  0
LINE
  8
0
 62
2
 10
1085.069469529133
 20
517.3597903766723
 30
0
 11
1087.883036005233
 21
517.3597903766723
 31
0
  0
LINE
  8
0
 62
2
 10
1084.441026094333
 20
514.5601862886723
 30
0
 11
1084.868367182933
 21
514.5601862886723
 31
0
  0
LINE
  8
0
 62
2
 10
1084.441026094333
 20
513.9457108297722
 30
0
 11
1084.441026094333
 21
514.5601862886723
 31
0
  0
LINE
  8
0
 62
2
 10
1087.883036005233
 20
513.9457108297722
 30
0
 11
1084.441026094333
 21
513.9457108297722
 31
0
  0
LINE
  8
0
 62
2
 10
1087.883036005233
 20
514.5601862886723
 30
0
 11
1087.883036005233
 21
513.9457108297722
 31
0
  0
LINE
  8
0
 62
2
 10
1085.597361790933
 20
514.5601862886723
 30
0
 11
1087.883036005233
 21
514.5601862886723
 31
0
  0
LINE
  8
0
 62
2
 10
1087.883036005233
 20
515.3310792365724
 30
0
 11
1085.270571875333
 21
515.3310792365724
 31
0
  0
LINE
  8
0
 62
2
 10
1087.883036005233
 20
515.9455584206723
 30
0
 11
1087.883036005233
 21
515.3310792365724
 31
0
  0
LINE
  8
0
 62
2
 10
1085.597361790933
 20
515.9455584206723
 30
0
 11
1087.883036005233
 21
515.9455584206723
 31
0
  0
LINE
  8
0
 62
2
 10
1087.883036005233
 20
516.7453111925723
 30
0
 11
1085.295710134233
 21
516.7453111925723
 31
0
  0
LINE
  8
0
 62
2
 10
1087.883036005233
 20
517.3597903766723
 30
0
 11
1087.883036005233
 21
516.7453111925723
 31
0
  0
LINE
  8
0
 62
7
 10
1082.135173845033
 20
523.0948710658723
 30
0
 11
1082.185172828833
 21
523.0948710658723
 31
0
  0
LINE
  8
0
 62
7
 10
1082.135173845033
 20
508.5948714831723
 30
0
 11
1082.185172828833
 21
508.5948714831723
 31
0
  0
LINE
  8
0
 62
7
 10
1082.135173845033
 20
508.5948714831723
 30
0
 11
1082.135173845033
 21
523.0948710658723
 31
0
  0
LINE
  8
0
 62
7
 10
1082.135173845033
 20
521.5948717513722
 30
0
 11
1082.185172828833
 21
521.5948717513722
 31
0
  0
LINE
  8
0
 62
7
 10
1082.135173845033
 20
510.0948707976723
 30
0
 11
1082.185172828833
 21
510.0948707976723
 31
0
  0
LINE
  8
0
 62
7
 10
1089.985173548533
 20
531.1675040982723
 30
0
 11
1089.985173548533
 21
531.3986064460723
 31
0
  0
LINE
  8
0
 62
7
 10
1079.285175881633
 20
513.6675024249723
 30
0
 11
1077.785171000833
 21
513.6675024249723
 31
0
  0
LINE
  8
0
 62
7
 10
1079.785173180433
 20
507.1675004390723
 30
0
 11
1079.785173180433
 21
513.1675051261723
 31
0
  0
LINE
  8
0
 62
7
 10
1077.785171000833
 20
506.6675031402723
 30
0
 11
1079.285175881633
 21
506.6675031402723
 31
0
  0
LINE
  8
0
 62
7
 10
1077.285173702033
 20
513.1675051261723
 30
0
 11
1077.285173702033
 21
507.1675004390723
 31
0
  0
LINE
  8
0
 62
7
 10
1093.601483271985
 20
488.2755723555061
 30
0
 11
1090.43475215426
 21
487.5444756847656
 31
0
  0
LINE
  8
0
 62
7
 10
1082.135173845033
 20
513.8840759017724
 30
0
 11
1080.171660873036
 21
522.3889881589571
 31
0
  0
LINE
  8
0
 62
7
 10
1112.691364507552
 20
487.3793800605504
 30
0
 11
1113.060915539643
 21
487.5324534840357
 31
0
  0
LINE
  8
0
 62
7
 10
1112.886571678348
 20
486.3854879358361
 30
0
 11
1112.583126060461
 21
487.118068700287
 31
0
  0
LINE
  8
0
 62
7
 10
1100.276142600252
 20
485.9109876040446
 30
0
 11
1100.136259458036
 21
484.915667197991
 31
0
  0
LINE
  8
0
 62
7
 10
1093.161378810092
 20
484.7608164129858
 30
0
 11
1094.500771145333
 21
487.9943942495723
 31
0
  0
LINE
  8
0
 62
7
 10
1095.307428853777
 20
533.185170652205
 30
0
 11
1094.279621245645
 21
536.0090488092144
 31
0
  0
LINE
  8
0
 62
7
 10
1101.462702154136
 20
535.5704696693397
 30
0
 11
1101.550302376082
 21
534.5691960196049
 31
0
  0
LINE
  8
0
 62
7
 10
1128.04588856546
 20
512.7279174075455
 30
0
 11
1129.045482146487
 21
512.8329777934675
 31
0
  0
LINE
  8
0
 62
7
 10
1128.87122610487
 20
506.1784246781665
 30
0
 11
1127.878496262557
 21
506.3356582346507
 31
0
  0
LINE
  8
0
 62
7
 10
1115.821643154139
 20
487.4002868154569
 30
0
 11
1115.706289540033
 21
487.6787764796723
 31
0
  0
LINE
  8
0
 62
7
 10
1111.086891385633
 20
485.7653593489723
 30
0
 11
1111.202245931144
 21
485.4868696847462
 31
0
  0
LINE
  8
0
 62
7
 10
1067.208933996933
 20
493.0868958898723
 30
0
 11
1069.517138767033
 21
492.4250291505723
 31
0
  0
LINE
  8
0
 62
7
 10
1137.853208350933
 20
492.4250291505723
 30
0
 11
1140.140726583933
 21
493.0809633650723
 31
0
  0
LINE
  8
0
 62
7
 10
1064.685172754333
 20
517.3880020001723
 30
0
 11
1055.405672061233
 21
517.3880020001723
 31
0
  0
LINE
  8
0
 62
7
 10
1055.405672061233
 20
490.9470034607723
 30
0
 11
1064.685172754333
 21
490.9470034607723
 31
0
  0
LINE
  8
0
 62
7
 10
1053.685172813933
 20
492.6675027080723
 30
0
 11
1055.405672061233
 21
490.9470034607723
 31
0
  0
LINE
  8
0
 62
7
 10
1055.405672061233
 20
517.3880020001723
 30
0
 11
1053.685172813933
 21
515.6675027528722
 31
0
  0
LINE
  8
0
 62
7
 10
1142.685174363633
 20
490.9470034607723
 30
0
 11
1151.964675056733
 21
490.9470034607723
 31
0
  0
LINE
  8
0
 62
7
 10
1151.964675056733
 20
517.3880020001723
 30
0
 11
1142.685174363633
 21
517.3880020001723
 31
0
  0
LINE
  8
0
 62
7
 10
1153.685174304033
 20
515.6675027528722
 30
0
 11
1151.964675056733
 21
517.3880020001723
 31
0
  0
LINE
  8
0
 62
7
 10
1151.964675056733
 20
490.9470034607723
 30
0
 11
1153.685174304033
 21
492.6675027080723
 31
0
  0
LINE
  8
0
 62
7
 10
1080.685173514233
 20
489.1675030657723
 30
0
 11
1080.685173514233
 21
456.7066281878723
 31
0
  0
LINE
  8
0
 62
7
 10
1085.685174333833
 20
457.5582844981723
 30
0
 11
1085.685174333833
 21
489.1675030657723
 31
0
  0
LINE
  8
1
 62
7
 10
1059.945173558933
 20
384.7583804669723
 30
0
 11
1064.685173558933
 21
384.7583804669723
 31
0
  0
LINE
  8
1
 62
2
  6
DASHDOT
 10
1103.685173558933
 20
440.055213503781
 30
0
 11
1103.685173558933
 21
344.8452226814649
 31
0
  0
LINE
  8
1
 62
2
 10
1055.185173558933
 20
384.7583804669723
 30
0
 11
1055.185173558933
 21
358.9583804669724
 31
0
  0
LINE
  8
1
 62
2
 10
1152.185173558933
 20
384.7583804669723
 30
0
 11
1152.185173558933
 21
358.9583804669724
 31
0
  0
LINE
  8
1
 62
7
 10
1111.03993279272
 20
352.0168569394705
 30
0
 11
1104.967312409613
 21
349.1461636674564
 31
0
  0
LINE
  8
1
 62
7
 10
1105.185173558933
 20
360.3583804669723
 30
0
 11
1105.185173558933
 21
349.2491525744076
 31
0
  0
LINE
  8
1
 62
7
 10
1102.403034708253
 20
349.1461636674564
 30
0
 11
1096.330414325146
 21
352.0168569394705
 31
0
  0
LINE
  8
1
 62
7
 10
1102.185173558933
 20
360.3583804669723
 30
0
 11
1102.185173558933
 21
349.2491525744076
 31
0
  0
LINE
  8
1
 62
7
 10
1139.685173558933
 20
408.3583799752723
 30
0
 11
1139.685173558933
 21
403.8583804669723
 31
0
  0
LINE
  8
1
 62
2
 10
1138.685173558933
 20
408.3583799752725
 30
0
 11
1138.685173558933
 21
403.8583804669723
 31
0
  0
LINE
  8
1
 62
2
 10
1068.685173558934
 20
408.3583799752725
 30
0
 11
1068.685173558933
 21
403.8583804669723
 31
0
  0
LINE
  8
1
 62
7
 10
1067.685173558933
 20
408.3583799752725
 30
0
 11
1067.685173558933
 21
403.8583804669723
 31
0
  0
LINE
  8
1
 62
7
 10
1071.685173558933
 20
401.8583804669723
 30
0
 11
1071.685173558933
 21
382.2083804669724
 31
0
  0
LINE
  8
1
 62
7
 10
1142.685173558933
 20
384.7583804669723
 30
0
 11
1152.185173558933
 21
384.7583804669723
 31
0
  0
LINE
  8
1
 62
7
 10
1142.685173558933
 20
358.9583804669724
 30
0
 11
1152.185173558933
 21
358.9583804669724
 31
0
  0
LINE
  8
1
 62
7
 10
1055.185173558933
 20
384.7583804669723
 30
0
 11
1059.945173558933
 21
384.7583804669723
 31
0
  0
LINE
  8
1
 62
7
 10
1055.185173558933
 20
358.9583804669724
 30
0
 11
1064.685173558933
 21
358.9583804669724
 31
0
  0
LINE
  8
1
 62
7
 10
1066.685173558933
 20
380.2083804669724
 30
0
 11
1069.685173558933
 21
380.2083804669724
 31
0
  0
LINE
  8
1
 62
7
 10
1066.685173558933
 20
363.5083804669723
 30
0
 11
1070.424223948822
 21
363.5083804669723
 31
0
  0
LINE
  8
1
 62
7
 10
1136.946123169045
 20
363.5083804669723
 30
0
 11
1140.685173558933
 21
363.5083804669723
 31
0
  0
LINE
  8
1
 62
7
 10
1137.685173558933
 20
380.2083804669724
 30
0
 11
1140.685173558933
 21
380.2083804669724
 31
0
  0
LINE
  8
1
 62
7
 10
1135.685173558933
 20
401.8583804669723
 30
0
 11
1135.685173558933
 21
382.2083804669724
 31
0
  0
LINE
  8
1
 62
7
 10
1067.685173558933
 20
403.8583804669723
 30
0
 11
1139.685173558933
 21
403.8583804669723
 31
0
  0
LINE
  8
1
 62
2
 10
1142.685173558933
 20
383.7583804669723
 30
0
 11
1153.185173558933
 21
383.7583804669723
 31
0
  0
LINE
  8
1
 62
7
 10
1153.685173558933
 20
383.2583804669723
 30
0
 11
1153.685173558933
 21
360.4583804669724
 31
0
  0
LINE
  8
1
 62
2
 10
1142.685173558933
 20
359.9583804669724
 30
0
 11
1153.185173558933
 21
359.9583804669724
 31
0
  0
LINE
  8
1
 62
7
 10
1142.685173558933
 20
384.7583804669723
 30
0
 11
1142.685173558933
 21
358.9583804669724
 31
0
  0
LINE
  8
1
 62
7
 10
1064.685173558933
 20
384.7583804669723
 30
0
 11
1064.685173558933
 21
358.9583804669724
 31
0
  0
LINE
  8
1
 62
7
 10
1072.228804960291
 20
362.3706376055586
 30
0
 11
1072.304753762181
 21
362.2116876130326
 31
0
  0
LINE
  8
1
 62
7
 10
1129.228804960291
 20
349.9961233283861
 30
0
 11
1135.065593355686
 21
362.2116876130326
 31
0
  0
LINE
  8
1
 62
7
 10
1053.685173558933
 20
360.4583804669724
 30
0
 11
1053.685173558933
 21
383.2583804669723
 31
0
  0
LINE
  8
1
 62
2
 10
1054.185173558933
 20
383.7583804669723
 30
0
 11
1064.685173558933
 21
383.7583804669723
 31
0
  0
LINE
  8
1
 62
2
 10
1054.185173558933
 20
359.9583804669724
 30
0
 11
1064.685173558933
 21
359.9583804669724
 31
0
  0
LINE
  8
1
 62
7
 10
1055.185173558933
 20
384.7583804669723
 30
0
 11
1053.685173558933
 21
383.2583804669723
 31
0
  0
LINE
  8
1
 62
7
 10
1055.185173558933
 20
358.9583804669724
 30
0
 11
1053.685173558933
 21
360.4583804669724
 31
0
  0
LINE
  8
1
 62
7
 10
1153.685173558933
 20
360.4583804669724
 30
0
 11
1152.185173558933
 21
358.9583804669724
 31
0
  0
LINE
  8
1
 62
7
 10
1152.185173558933
 20
384.7583804669723
 30
0
 11
1153.685173558933
 21
383.2583804669723
 31
0
  0
LINE
  8
1
 62
7
 10
1127.424223948822
 20
348.8583804669723
 30
0
 11
1079.946123169045
 21
348.8583804669723
 31
0
  0
LINE
  8
1
 62
7
 10
1133.712157597083
 20
361.3583804669723
 30
0
 11
1073.658189520783
 21
361.3583804669723
 31
0
  0
LINE
  8
1
 62
7
 10
1135.065593355686
 20
362.2116876130326
 30
0
 11
1135.141542157575
 21
362.3706376055586
 31
0
  0
LINE
  8
1
 62
7
 10
1112.185173558933
 20
356.3583804669723
 30
0
 11
1112.185173558933
 21
353.8250014724811
 31
0
  0
LINE
  8
1
 62
7
 10
1095.185173558933
 20
353.8250014724811
 30
0
 11
1095.185173558933
 21
356.3583804669723
 31
0
  0
LINE
  8
1
 62
7
 10
1072.304753762181
 20
362.2116876130326
 30
0
 11
1078.141542157575
 21
349.9961233283861
 31
0
  0
LINE
  8
1
 62
2
  6
DASHDOT
 10
1049.749559824264
 20
371.8583804669723
 30
0
 11
1157.336347428251
 21
371.8583804669723
 31
0
  0
LINE
  8
1
 62
7
 10
1087.685173558933
 20
391.5785652940499
 30
0
 11
1087.685173558933
 21
383.8583804669723
 31
0
  0
LINE
  8
1
 62
7
 10
1088.685173558933
 20
393.8583804669723
 30
0
 11
1087.685173558933
 21
393.8583804669723
 31
0
  0
LINE
  8
1
 62
7
 10
1088.685173558933
 20
383.8583804669723
 30
0
 11
1088.685173558933
 21
393.8583804669723
 31
0
  0
LINE
  8
1
 62
7
 10
1087.685173558933
 20
383.8583804669723
 30
0
 11
1088.685173558933
 21
383.8583804669723
 31
0
  0
LINE
  8
1
 62
7
 10
1087.685173558933
 20
393.8583804669723
 30
0
 11
1088.685173558933
 21
393.8583804669723
 31
0
  0
LINE
  8
1
 62
7
 10
1087.685173558933
 20
383.8583804669723
 30
0
 11
1087.685173558933
 21
391.5785652940499
 31
0
  0
LINE
  8
1
 62
7
  6
DASHDOT
 10
1087.685173558933
 20
383.8583804669723
 30
0
 11
1088.685173558933
 21
383.8583804669723
 31
0
  0
LINE
  8
1
 62
7
 10
1087.685173558933
 20
393.8583804669723
 30
0
 11
1086.685173558933
 21
391.5785652940499
 31
0
  0
LINE
  8
1
 62
7
 10
1086.685173558933
 20
391.5785652940499
 30
0
 11
1087.685173558933
 21
391.5785652940499
 31
0
  0
LINE
  8
1
 62
7
 10
1120.685173558933
 20
383.8583804669723
 30
0
 11
1119.685173558933
 21
383.8583804669723
 31
0
  0
LINE
  8
1
 62
7
 10
1119.685173558933
 20
383.8583804669723
 30
0
 11
1119.685173558933
 21
388.9833804669723
 31
0
  0
LINE
  8
1
 62
7
 10
1117.935173558933
 20
388.9833804669723
 30
0
 11
1117.935173558933
 21
383.8583804669723
 31
0
  0
LINE
  8
1
 62
7
 10
1117.935173558933
 20
383.8583804669723
 30
0
 11
1116.935173558933
 21
383.8583804669723
 31
0
  0
LINE
  8
1
 62
7
 10
1116.935173558933
 20
383.8583804669723
 30
0
 11
1116.935173558933
 21
388.9833804669723
 31
0
  0
LINE
  8
1
 62
7
 10
1115.185173558933
 20
388.9833804669723
 30
0
 11
1115.185173558933
 21
383.8583804669723
 31
0
  0
LINE
  8
1
 62
7
 10
1115.185173558933
 20
383.8583804669723
 30
0
 11
1114.185173558933
 21
383.8583804669723
 31
0
  0
LINE
  8
1
 62
7
 10
1114.185173558933
 20
383.8583804669723
 30
0
 11
1114.185173558933
 21
388.9833804669723
 31
0
  0
LINE
  8
1
 62
7
 10
1113.685173558933
 20
389.7739498820144
 30
0
 11
1113.685173558933
 21
390.8204977740597
 31
0
  0
LINE
  8
1
 62
7
 10
1120.685173558933
 20
388.9833804669723
 30
0
 11
1120.685173558933
 21
383.8583804669723
 31
0
  0
LINE
  8
1
 62
7
 10
1111.685173558933
 20
383.8583804669723
 30
0
 11
1110.685173558933
 21
383.8583804669723
 31
0
  0
LINE
  8
1
 62
7
 10
1110.685173558933
 20
383.8583804669723
 30
0
 11
1110.685173558933
 21
388.9833804669723
 31
0
  0
LINE
  8
1
 62
7
 10
1108.935173558933
 20
388.9833804669723
 30
0
 11
1108.935173558933
 21
383.8583804669723
 31
0
  0
LINE
  8
1
 62
7
 10
1108.935173558933
 20
383.8583804669723
 30
0
 11
1107.935173558933
 21
383.8583804669723
 31
0
  0
LINE
  8
1
 62
7
 10
1107.935173558933
 20
383.8583804669723
 30
0
 11
1107.935173558933
 21
388.9833804669723
 31
0
  0
LINE
  8
1
 62
7
 10
1106.185173558933
 20
388.9833804669723
 30
0
 11
1106.185173558933
 21
383.8583804669723
 31
0
  0
LINE
  8
1
 62
7
 10
1106.185173558933
 20
383.8583804669723
 30
0
 11
1105.185173558933
 21
383.8583804669723
 31
0
  0
LINE
  8
1
 62
7
 10
1105.185173558933
 20
383.8583804669723
 30
0
 11
1105.185173558933
 21
388.9833804669723
 31
0
  0
LINE
  8
1
 62
7
 10
1104.685173558933
 20
389.7739498820144
 30
0
 11
1104.685173558933
 21
390.8204977740597
 31
0
  0
LINE
  8
1
 62
7
 10
1111.685173558933
 20
388.9833804669723
 30
0
 11
1111.685173558933
 21
383.8583804669723
 31
0
  0
LINE
  8
1
 62
7
 10
1095.435173558933
 20
393.8583804669723
 30
0
 11
1097.935173558933
 21
393.8583804669723
 31
0
  0
LINE
  8
1
 62
7
 10
1097.935173558933
 20
383.8583804669723
 30
0
 11
1095.435173558933
 21
383.8583804669723
 31
0
  0
LINE
  8
1
 62
7
 10
1095.435173558933
 20
384.8583804669723
 30
0
 11
1097.935173558933
 21
384.8583804669723
 31
0
  0
LINE
  8
1
 62
7
 10
1097.935173558933
 20
388.3583804669723
 30
0
 11
1096.685173558933
 21
388.3583804669723
 31
0
  0
LINE
  8
1
 62
7
 10
1096.685173558933
 20
388.3583804669723
 30
0
 11
1096.685173558933
 21
389.3583804669723
 31
0
  0
LINE
  8
1
 62
7
 10
1096.685173558933
 20
389.3583804669723
 30
0
 11
1097.935173558933
 21
389.3583804669723
 31
0
  0
LINE
  8
1
 62
7
 10
1097.935173558933
 20
392.8583804669723
 30
0
 11
1095.435173558933
 21
392.8583804669723
 31
0
  0
LINE
  8
1
 62
7
 10
1092.685173558933
 20
391.1083804669723
 30
0
 11
1093.685173558933
 21
391.1083804669723
 31
0
  0
LINE
  8
1
 62
7
 10
1092.685173558933
 20
386.6083804669723
 30
0
 11
1093.685173558933
 21
386.6083804669723
 31
0
  0
LINE
  8
1
 62
7
 10
1086.685173558933
 20
372.8583804669723
 30
0
 11
1086.685173558933
 21
370.8583804669723
 31
0
  0
LINE
  8
1
 62
7
 10
1086.685173558933
 20
372.8583804669723
 30
0
 11
1113.685173558933
 21
372.8583804669723
 31
0
  0
LINE
  8
1
 62
7
 10
1086.685173558933
 20
370.8583804669723
 30
0
 11
1113.685173558933
 21
370.8583804669723
 31
0
  0
LINE
  8
1
 62
7
 10
1120.685173558933
 20
371.8583804669723
 30
0
 11
1113.685173558933
 21
375.3583804669723
 31
0
  0
LINE
  8
1
 62
7
 10
1120.685173558933
 20
371.8583804669723
 30
0
 11
1113.685173558933
 21
368.3583804669723
 31
0
  0
LINE
  8
1
 62
7
 10
1113.685173558933
 20
375.3583804669723
 30
0
 11
1113.685173558933
 21
372.8583804669723
 31
0
  0
LINE
  8
1
 62
7
 10
1113.685173558933
 20
368.3583804669723
 30
0
 11
1113.685173558933
 21
370.8583804669723
 31
0
  0
LINE
  8
1
 62
7
 10
1086.685173558933
 20
375.3583804669723
 30
0
 11
1104.685173558933
 21
375.3583804669723
 31
0
  0
LINE
  8
1
 62
7
 10
1086.685173558933
 20
368.3583804669723
 30
0
 11
1104.685173558933
 21
368.3583804669723
 31
0
  0
LINE
  8
1
 62
7
 10
1088.113744987505
 20
370.8583804669723
 30
0
 11
1086.685173558933
 21
368.3583804669723
 31
0
  0
LINE
  8
1
 62
7
 10
1088.113744987505
 20
372.8583804669723
 30
0
 11
1086.685173558933
 21
375.3583804669723
 31
0
  0
LINE
  8
1
 62
7
 10
1106.113744987505
 20
370.8583804669723
 30
0
 11
1104.685173558933
 21
368.3583804669723
 31
0
  0
LINE
  8
1
 62
7
 10
1106.113744987505
 20
372.8583804669723
 30
0
 11
1104.685173558933
 21
375.3583804669723
 31
0
  0
LINE
  8
1
 62
2
  6
DIVIDE
 10
1080.593551274523
 20
358.5471545162089
 30
0
 11
1090.593551274523
 21
358.5471545162089
 31
0
  0
LINE
  8
1
 62
2
  6
DIVIDE
 10
1090.593551274523
 20
358.5471545162089
 30
0
 11
1090.593551274523
 21
351.5471545162089
 31
0
  0
LINE
  8
1
 62
2
  6
DIVIDE
 10
1090.593551274523
 20
351.5471545162089
 30
0
 11
1080.593551274523
 21
351.5471545162089
 31
0
  0
LINE
  8
1
 62
2
  6
DIVIDE
 10
1080.593551274523
 20
351.5471545162089
 30
0
 11
1080.593551274523
 21
358.5471545162089
 31
0
  0
ARC
  8
0
 62
7
 10
1062.685173558933
 20
428.3583805116723
 30
0
 40
3.5
 50
90
 51
180
  0
ARC
  8
0
 62
7
 10
1144.685173558933
 20
428.3583805116723
 30
0
 40
3.5
 50
0
 51
90.00000000009679
  0
ARC
  8
0
 62
7
 10
1029.790107692033
 20
437.8583805116723
 30
0
 40
37.50000000000043
 50
321.6161420260006
 51
350.7931037787002
  0
ARC
  8
0
 62
7
 10
1079.185173558933
 20
435.8583805116723
 30
0
 40
0.9999999999999999
 50
179.9440434063191
 51
270.0815655345319
  0
ARC
  8
0
 62
7
 10
1088.685173558933
 20
435.8583805116723
 30
0
 40
1
 50
270
 51
0
  0
ARC
  8
0
 62
7
 10
1103.685158294233
 20
510.1674737899723
 30
0
 40
26.99996705014677
 50
231.0575464142996
 51
247.5000052016991
  0
ARC
  8
0
 62
7
 10
1103.685174779033
 20
510.1675050429723
 30
0
 40
27.00000157899951
 50
110.0000015808002
 51
200.7483515069998
  0
ARC
  8
0
 62
7
 10
1065.685176718533
 20
515.6049885350723
 30
0
 40
1.000003964195585
 50
180.000206494296
 51
256.1126339635018
  0
ARC
  8
0
 62
7
 10
1103.685175710733
 20
510.1675015087723
 30
0
 40
38.49999872149667
 50
242.1257541630001
 51
355.5308671435999
  0
ARC
  8
0
 62
7
 10
1103.685193618033
 20
510.1675142410723
 30
0
 40
38.50002185696739
 50
184.4691491712
 51
233.3158889190997
  0
ARC
  8
0
 62
7
 10
1103.685173558933
 20
510.1675010130723
 30
0
 40
38.50000110390096
 50
4.469137122100013
 51
175.5308628778999
  0
ARC
  8
0
 62
7
 10
1103.685173558933
 20
510.1675094241723
 30
0
 40
36.99999756057962
 50
4.650696863600071
 51
175.3493031363999
  0
ARC
  8
0
 62
7
 10
1103.685174188833
 20
510.1674995333723
 30
0
 40
36.99999720785504
 50
240.8900889096008
 51
355.3492978215
  0
ARC
  8
0
 62
7
 10
1103.685142441533
 20
510.1674840380723
 30
0
 40
36.99996556427761
 50
184.6506820904
 51
231.5653682924007
  0
ARC
  8
0
 62
7
 10
1103.727729331133
 20
510.1618278271723
 30
0
 40
27.99435825448544
 50
269.9129014833993
 51
204.1583358231999
  0
ARC
  8
0
 62
7
 10
1103.311004114333
 20
508.9212658350723
 30
0
 40
26.75638029487883
 50
228.7952068733
 51
270.8012679059993
  0
ARC
  8
0
 62
7
 10
1103.685177532933
 20
510.1675145519723
 30
0
 40
29.50001194811637
 50
232.3982507150001
 51
269.9999922815995
  0
ARC
  8
0
 62
7
 10
1103.685175641933
 20
510.1675042911723
 30
0
 40
29.50000168731789
 50
269.9999959543006
 51
210.1849633045002
  0
ARC
  8
0
 62
7
 10
1103.685171362433
 20
510.1674844442723
 30
0
 40
35.4999828239624
 50
239.5329734694996
 51
270.0000035450999
  0
ARC
  8
0
 62
7
 10
1103.685175495533
 20
510.1675032239723
 30
0
 40
35.50000160367824
 50
269.999996874399
 51
229.6174941112001
  0
ARC
  8
0
 62
7
 10
1088.685178890033
 20
530.1675089201723
 30
0
 40
0.9999942367999211
 50
0
 51
65.88253962632369
  0
ARC
  8
0
 62
7
 10
1088.685173759633
 20
490.1675024329723
 30
0
 40
0.9999993672000187
 50
270
 51
0
  0
ARC
  8
0
 62
7
 10
1088.685173759633
 20
528.1675046670723
 30
0
 40
0.9999993672194141
 50
359.999847631004
 51
90
  0
ARC
  8
0
 62
7
 10
1085.622774894533
 20
528.1675243004722
 30
0
 40
0.9999797339000907
 50
90
 51
135.0990667974367
  0
ARC
  8
0
 62
7
 10
1103.685139063133
 20
510.1675135474723
 30
0
 40
26.49996770376599
 50
135.0990667974494
 51
143.5062037248996
  0
ARC
  8
0
 62
7
 10
1083.185180008233
 20
525.3332534070723
 30
0
 40
1.000007179475103
 50
143.5063342558861
 51
180
  0
ARC
  8
0
 62
7
 10
1079.185174992833
 20
490.1675040228723
 30
0
 40
1.000000957000111
 50
180
 51
270
  0
ARC
  8
0
 62
2
 10
1084.434078058233
 20
518.1321704799723
 30
0
 40
0.2383739626954519
 50
38.97215361861814
 51
94.28936865902324
  0
ARC
  8
0
 62
2
 10
1085.128102835233
 20
518.1245271034723
 30
0
 40
0.2782712443247118
 50
90.16779518504556
 51
145.5119035596234
  0
ARC
  8
0
 62
2
 10
1085.160241380433
 20
517.9827531220723
 30
0
 40
0.4480222295248535
 50
265.7819009890047
 51
320.9558240064599
  0
ARC
  8
0
 62
2
 10
1085.158074252933
 20
518.1060881569723
 30
0
 40
0.2983019089976608
 50
41.57460110271069
 51
95.92377946899113
  0
ARC
  8
0
 62
2
 10
1085.014943828933
 20
516.7649462478723
 30
0
 40
0.5973379190511047
 50
84.76268423387214
 51
135.0964210780759
  0
ARC
  8
0
 62
2
 10
1085.030627811733
 20
515.3485883899723
 30
0
 40
0.5908244121687378
 50
105.9402199952563
 51
183.6867387602999
  0
ARC
  8
0
 62
2
 10
1085.535948776533
 20
515.2500065031722
 30
0
 40
0.6925485446720328
 50
224.7758874410893
 51
275.0874910658208
  0
ARC
  8
0
 62
2
 10
1085.535935127233
 20
516.6353412727723
 30
0
 40
0.6925125399837504
 50
224.7744884808832
 51
275.0888900260158
  0
ARC
  8
0
 62
7
 10
1090.485189419333
 20
531.3986064460723
 30
0
 40
0.500015870867257
 50
121.8714418362662
 51
180
  0
ARC
  8
0
 62
7
 10
1089.226908562233
 20
530.9674927723722
 30
0
 40
0.2000115898397115
 50
23.57902173789523
 51
92.12240702494401
  0
ARC
  8
0
 62
7
 10
1089.685173685133
 20
531.1675040982723
 30
0
 40
0.2999998633839622
 50
203.5790217377954
 51
0
  0
ARC
  8
0
 62
7
 10
1103.685169567733
 20
510.1675039078723
 30
0
 40
27.49999603867657
 50
109.9999948879998
 51
201.9864074206001
  0
ARC
  8
0
 62
7
 10
1103.685136971833
 20
510.1674461114723
 30
0
 40
27.49993306324229
 50
229.7858101407009
 51
247.5000251284996
  0
ARC
  8
0
 62
7
 10
1103.686719104134
 20
510.1710547944718
 30
0
 40
24.00387287135587
 50
245.9842851403079
 51
247.4998359452984
  0
ARC
  8
0
 62
7
 10
1103.685251259033
 20
510.1673906642723
 30
0
 40
25.50013600742075
 50
110.0000746055997
 51
131.832439023301
  0
ARC
  8
0
 62
7
 10
1079.285175881633
 20
513.1675051261723
 30
0
 40
0.4999972988000536
 50
0
 51
90
  0
ARC
  8
0
 62
7
 10
1079.285175881633
 20
507.1675004390723
 30
0
 40
0.4999972987999968
 50
270
 51
0
  0
ARC
  8
0
 62
7
 10
1077.785171000833
 20
507.1675004390723
 30
0
 40
0.4999972988000536
 50
180
 51
270
  0
ARC
  8
0
 62
7
 10
1077.785171000833
 20
513.1675051261723
 30
0
 40
0.4999972988000536
 50
90
 51
180
  0
ARC
  8
0
 62
7
 10
1093.713957977333
 20
487.7883903402723
 30
0
 40
0.4999968753090179
 50
65.98428514033152
 51
102.9999860142851
  0
ARC
  8
0
 62
7
 10
1090.209801665633
 20
488.5188443842723
 30
0
 40
0.9999985424161917
 50
238.0995041483278
 51
282.9999860142652
  0
ARC
  8
0
 62
7
 10
1103.685101353233
 20
510.1674010525723
 30
0
 40
26.49987515959389
 50
232.4153158190008
 51
238.0995041483494
  0
ARC
  8
0
 62
7
 10
1103.685324102633
 20
510.1674248645723
 30
0
 40
26.50016920386549
 50
143.5062875178997
 51
152.5361984833889
  0
ARC
  8
0
 62
7
 10
1103.684476440432
 20
510.1689078408716
 30
0
 40
25.50156855653749
 50
294.7471369975565
 51
298.1261639856026
  0
ARC
  8
0
 62
7
 10
1103.684930319433
 20
510.1681494917723
 30
0
 40
25.50069007659019
 50
286.8738295059999
 51
291.1517256487451
  0
ARC
  8
0
 62
7
 10
1113.443600094433
 20
486.6085734990723
 30
0
 40
1.000000847559517
 50
23.62351790435871
 51
112.5000494943067
  0
ARC
  8
0
 62
7
 10
1112.767900965933
 20
487.1946051561723
 30
0
 40
0.1999989868710191
 50
112.5000494942988
 51
202.5000487138133
  0
ARC
  8
0
 62
7
 10
1103.685173875733
 20
510.1675022601723
 30
0
 40
27.49999906039172
 50
247.4999988606991
 51
110.0000021482993
  0
ARC
  8
0
 62
7
 10
1099.781008234133
 20
485.9805741919723
 30
0
 40
0.5000003337312976
 50
352.0000010413091
 51
80.83061974380219
  0
ARC
  8
0
 62
7
 10
1103.685168180433
 20
510.1674787672723
 30
0
 40
23.99997554015484
 50
247.4999896156008
 51
260.8306197438083
  0
ARC
  8
0
 62
7
 10
1103.685172399533
 20
510.1675047441723
 30
0
 40
27.0000010459845
 50
247.5000026848998
 51
109.9999966189997
  0
ARC
  8
0
 62
7
 10
1095.777268483433
 20
533.3561782945723
 30
0
 40
0.4999928912927735
 50
200.0000002470049
 51
288.8306500179658
  0
ARC
  8
0
 62
7
 10
1103.685127239733
 20
510.1676642072723
 30
0
 40
23.99983191790907
 50
96.1693356421353
 51
108.830650018011
  0
ARC
  8
0
 62
7
 10
1101.052196057533
 20
534.5256172995723
 30
0
 40
0.5000090092661436
 50
276.169335642148
 51
5.000007297699457
  0
ARC
  8
0
 62
7
 10
1103.685171642133
 20
510.1675025926723
 30
0
 40
25.50000209653543
 50
5.999998121016167
 51
94.99999518502479
  0
ARC
  8
0
 62
7
 10
1128.098152470533
 20
512.2306542043723
 30
0
 40
0.5000022089987186
 50
95.99993576773883
 51
184.8306398158615
  0
ARC
  8
0
 62
7
 10
1103.685324765133
 20
510.1675039950723
 30
0
 40
23.99984973673335
 50
352.1693321824564
 51
4.830639815870793
  0
ARC
  8
0
 62
7
 10
1127.956713597633
 20
506.8295011804723
 30
0
 40
0.4999988066493688
 50
172.1693321824475
 51
260.9999664425235
  0
ARC
  8
0
 62
7
 10
1103.685172805733
 20
510.1675018809723
 30
0
 40
25.50000034739046
 50
298.1262733135
 51
351.0000038902263
  0
ARC
  8
0
 62
7
 10
1103.685087033133
 20
510.1677090533723
 30
0
 40
25.80022305790923
 50
286.9394085053066
 51
298.0605946910256
  0
ARC
  8
0
 62
7
 10
1103.685173211033
 20
510.1675303658723
 30
0
 40
25.50002710342898
 50
262.0000092881583
 51
286.8737110420003
  0
ARC
  8
0
 62
7
 10
1066.685174060633
 20
491.1564815031723
 30
0
 40
2.000001375471339
 50
74.5304397100162
 51
179.984934515199
  0
ARC
  8
0
 62
7
 10
1140.685175115033
 20
491.1564845274723
 30
0
 40
1.999999248845141
 50
0.000891591700860977
 51
105.847476012998
  0
ARC
  8
1
 62
2
 10
1138.147518215008
 20
368.6492398712261
 30
0
 40
11.83543912573886
 50
109.0147901852289
 51
124.0918220534328
  0
ARC
  8
1
 62
2
 10
1138.195672670888
 20
375.3494953916758
 30
0
 40
12.18798916073348
 50
249.667204362851
 51
252.7597218320949
  0
ARC
  8
1
 62
2
 10
1137.572525766874
 20
373.6678692096484
 30
0
 40
10.3946184015033
 50
243.9214509500316
 51
249.6672043628517
  0
ARC
  8
1
 62
2
 10
1138.021958879432
 20
374.5861463666591
 30
0
 40
11.41697991278523
 50
239.6607532064124
 51
243.9214509500285
  0
ARC
  8
1
 62
2
 10
1137.09539398715
 20
373.0030110454374
 30
0
 40
9.58262990667709
 50
234.5841157564288
 51
239.6607532064127
  0
ARC
  8
1
 62
2
 10
1137.624107014734
 20
373.7465459168025
 30
0
 40
10.49497938493251
 50
230.0738078235191
 51
234.5841157564328
  0
ARC
  8
1
 62
2
 10
1136.566955942058
 20
372.4833812992397
 30
0
 40
8.847814171142023
 50
224.7234831680801
 51
230.073807823515
  0
ARC
  8
1
 62
2
 10
1137.077897836115
 20
372.9894150991456
 30
0
 40
9.566932955314785
 50
219.9162957430004
 51
224.723483168082
  0
ARC
  8
1
 62
2
 10
1135.779217735355
 20
371.9029222496347
 30
0
 40
7.87370033214986
 50
168.5446513134855
 51
219.9162957429986
  0
ARC
  8
1
 62
2
 10
1133.620963518357
 20
372.3402727349277
 30
0
 40
5.671579374487594
 50
157.7130770954841
 51
168.5446513134843
  0
ARC
  8
1
 62
2
 10
1142.714494058548
 20
368.6131684367958
 30
0
 40
15.49927514381984
 50
154.8489958593779
 51
157.7130770954853
  0
ARC
  8
1
 62
2
 10
1133.880322392786
 20
372.7609905543361
 30
0
 40
5.739817303400576
 50
145.4826396249716
 51
154.848995859378
  0
ARC
  8
1
 62
2
 10
1143.946862831596
 20
365.8379571986445
 30
0
 40
17.95716673976452
 50
142.9357743080945
 51
145.4826396249753
  0
ARC
  8
1
 62
2
 10
1134.522773890029
 20
372.9560941901799
 30
0
 40
6.146945462886038
 50
133.9524546417724
 51
142.9357743080912
  0
ARC
  8
1
 62
2
 10
1145.14352832754
 20
361.939701201119
 30
0
 40
21.44927663533615
 50
131.7461142954141
 51
133.9524546417767
  0
ARC
  8
1
 62
2
 10
1134.981558308296
 20
373.3267810899035
 30
0
 40
6.187192142529478
 50
124.0918220534275
 51
131.7461142954098
  0
ARC
  8
1
 62
2
 10
1069.222828902859
 20
368.6492398712261
 30
0
 40
11.83543912573836
 50
55.90817794657082
 51
70.98520981477525
  0
ARC
  8
1
 62
2
 10
1069.174674446978
 20
375.3494953916758
 30
0
 40
12.18798916073357
 50
287.2402781679052
 51
290.332795637149
  0
ARC
  8
1
 62
2
 10
1069.797821350992
 20
373.6678692096484
 30
0
 40
10.39461840150318
 50
290.3327956371483
 51
296.0785490499683
  0
ARC
  8
1
 62
2
 10
1069.348388238434
 20
374.5861463666591
 30
0
 40
11.41697991278554
 50
296.0785490499716
 51
300.3392467935876
  0
ARC
  8
1
 62
2
 10
1070.274953130717
 20
373.0030110454374
 30
0
 40
9.582629906676472
 50
300.3392467935826
 51
305.4158842435668
  0
ARC
  8
1
 62
2
 10
1069.746240103132
 20
373.7465459168025
 30
0
 40
10.49497938493253
 50
305.4158842435672
 51
309.9261921764809
  0
ARC
  8
1
 62
2
 10
1070.803391175808
 20
372.4833812992397
 30
0
 40
8.847814171141733
 50
309.926192176485
 51
315.2765168319199
  0
ARC
  8
1
 62
2
 10
1070.292449281751
 20
372.9894150991456
 30
0
 40
9.566932955314522
 50
315.276516831918
 51
320.0837042569996
  0
ARC
  8
1
 62
2
 10
1071.591129382512
 20
371.9029222496347
 30
0
 40
7.873700332149578
 50
320.0837042569971
 51
11.45534868651579
  0
ARC
  8
1
 62
2
 10
1073.749383599509
 20
372.3402727349277
 30
0
 40
5.67157937448765
 50
11.45534868651576
 51
22.28692290451593
  0
ARC
  8
1
 62
2
 10
1064.655853059318
 20
368.6131684367958
 30
0
 40
15.49927514381933
 50
22.28692290451473
 51
25.15100414062205
  0
ARC
  8
1
 62
2
 10
1073.49002472508
 20
372.7609905543361
 30
0
 40
5.739817303401065
 50
25.151004140622
 51
34.51736037502842
  0
ARC
  8
1
 62
2
 10
1063.42348428627
 20
365.8379571986445
 30
0
 40
17.9571667397643
 50
34.51736037502469
 51
37.06422569190552
  0
ARC
  8
1
 62
2
 10
1072.847573227837
 20
372.9560941901799
 30
0
 40
6.146945462886102
 50
37.06422569190878
 51
46.04754535822763
  0
ARC
  8
1
 62
2
 10
1062.226818790326
 20
361.939701201119
 30
0
 40
21.44927663533624
 50
46.04754535822332
 51
48.25388570458416
  0
ARC
  8
1
 62
2
 10
1072.38878880957
 20
373.3267810899035
 30
0
 40
6.187192142529896
 50
48.25388570458396
 51
55.90817794657254
  0
ARC
  8
1
 62
7
 10
1106.185173558933
 20
360.3583804669723
 30
0
 40
1
 50
90
 51
180
  0
ARC
  8
1
 62
7
 10
1101.185173558933
 20
360.3583804669723
 30
0
 40
1
 50
0
 51
90
  0
ARC
  8
1
 62
7
 10
1118.810173558933
 20
388.9833804669723
 30
0
 40
0.875
 50
0
 51
180
  0
ARC
  8
1
 62
7
 10
1116.060173558933
 20
388.9833804669723
 30
0
 40
0.875
 50
0
 51
180
  0
ARC
  8
1
 62
7
 10
1113.310173558933
 20
388.9833804669723
 30
0
 40
0.875
 50
0
 51
64.62306647484824
  0
ARC
  8
1
 62
7
 10
1113.310173558933
 20
388.9833804669723
 30
0
 40
1.875000000000001
 50
42.83342806606731
 51
78.4630409671846
  0
ARC
  8
1
 62
7
 10
1116.060173558933
 20
388.9833804669723
 30
0
 40
1.875000000000001
 50
42.83342806606731
 51
137.1665719339327
  0
ARC
  8
1
 62
7
 10
1118.810173558933
 20
388.9833804669723
 30
0
 40
1.875
 50
0
 51
137.1665719339327
  0
ARC
  8
1
 62
7
 10
1109.810173558933
 20
388.9833804669723
 30
0
 40
0.875
 50
0
 51
180
  0
ARC
  8
1
 62
7
 10
1107.060173558933
 20
388.9833804669723
 30
0
 40
0.875
 50
0
 51
180
  0
ARC
  8
1
 62
7
 10
1104.310173558933
 20
388.9833804669723
 30
0
 40
0.875
 50
0
 51
64.62306647484824
  0
ARC
  8
1
 62
7
 10
1104.310173558933
 20
388.9833804669723
 30
0
 40
1.875000000000001
 50
42.83342806606731
 51
78.4630409671846
  0
ARC
  8
1
 62
7
 10
1107.060173558933
 20
388.9833804669723
 30
0
 40
1.875000000000001
 50
42.83342806606731
 51
137.1665719339327
  0
ARC
  8
1
 62
7
 10
1109.810173558933
 20
388.9833804669723
 30
0
 40
1.875
 50
0
 51
137.1665719339327
  0
ARC
  8
1
 62
7
 10
1095.435173558933
 20
391.1083804669723
 30
0
 40
2.75
 50
90
 51
180
  0
ARC
  8
1
 62
7
 10
1097.935173558933
 20
391.1083804669723
 30
0
 40
2.749999999999891
 50
305.0968012275814
 51
90
  0
ARC
  8
1
 62
7
 10
1097.935173558933
 20
386.6083804669723
 30
0
 40
2.75
 50
270
 51
54.90319877241863
  0
ARC
  8
1
 62
7
 10
1095.435173558933
 20
386.6083804669723
 30
0
 40
2.75
 50
180
 51
270
  0
ARC
  8
1
 62
7
 10
1095.435173558933
 20
386.6083804669723
 30
0
 40
1.75
 50
180
 51
270
  0
ARC
  8
1
 62
7
 10
1097.935173558933
 20
386.6083804669723
 30
0
 40
1.75
 50
270
 51
90
  0
ARC
  8
1
 62
7
 10
1097.935173558933
 20
391.1083804669723
 30
0
 40
1.75
 50
270
 51
90
  0
ARC
  8
1
 62
7
 10
1095.435173558933
 20
391.1083804669723
 30
0
 40
1.75
 50
90
 51
180
  0
CIRCLE
  8
0
 62
7
 10
1062.685173558933
 20
428.3583805116723
 30
0
 40
1.349999999999909
  0
CIRCLE
  8
0
 62
7
 10
1083.185173558933
 20
439.8583805116723
 30
0
 40
2.599999999999909
  0
CIRCLE
  8
0
 62
7
 10
1083.185173558933
 20
439.8583805116723
 30
0
 40
3.099999999999909
  0
CIRCLE
  8
0
 62
7
 10
1083.185173558933
 20
439.8583805116723
 30
0
 40
2.5
  0
CIRCLE
  8
1
 62
1
 10
1059.935173558933
 20
384.7583804669723
 30
0
 40
0.009999999999990905
  0
ARC
  8
1
 62
7
 10
1069.685173558933
 20
382.2083804669724
 30
0
 40
2
 50
270
 51
0
  0
ARC
  8
1
 62
7
 10
1066.685173558933
 20
382.2083804669724
 30
0
 40
2
 50
180
 51
270
  0
ARC
  8
1
 62
7
 10
1066.685173558933
 20
361.5083804669723
 30
0
 40
2
 50
90
 51
180
  0
ARC
  8
1
 62
7
 10
1070.424223948822
 20
361.5083804669723
 30
0
 40
1.999999999999427
 50
25.53920332487016
 51
90
  0
ARC
  8
1
 62
7
 10
1136.946123169045
 20
361.5083804669723
 30
0
 40
2
 50
90
 51
154.4607966751411
  0
ARC
  8
1
 62
7
 10
1140.685173558933
 20
361.5083804669723
 30
0
 40
2
 50
0
 51
90
  0
ARC
  8
1
 62
7
 10
1137.685173558933
 20
382.2083804669724
 30
0
 40
2
 50
180
 51
270
  0
ARC
  8
1
 62
7
 10
1140.685173558933
 20
382.2083804669724
 30
0
 40
2
 50
270
 51
0
  0
ARC
  8
1
 62
7
 10
1137.685173558933
 20
401.8583804669723
 30
0
 40
2
 50
90
 51
180
  0
ARC
  8
1
 62
7
 10
1069.685173558933
 20
401.8583804669723
 30
0
 40
2
 50
0
 51
90
  0
ARC
  8
1
 62
7
 10
1127.424223948822
 20
350.8583804669723
 30
0
 40
2
 50
270
 51
334.4607966751328
  0
ARC
  8
1
 62
7
 10
1079.946123169045
 20
350.8583804669723
 30
0
 40
2.000000000000199
 50
205.539203324856
 51
270
  0
ARC
  8
1
 62
7
 10
1117.185173558933
 20
356.3583804669723
 30
0
 40
5
 50
90
 51
180
  0
ARC
  8
1
 62
7
 10
1090.185173558933
 20
356.3583804669723
 30
0
 40
5
 50
0
 51
90
  0
ARC
  8
1
 62
7
 10
1097.185173558933
 20
353.8250014724811
 30
0
 40
2
 50
180
 51
244.6986213745755
  0
ARC
  8
1
 62
7
 10
1110.185173558933
 20
353.8250014724811
 30
0
 40
2.000000000000123
 50
295.3013786254245
 51
0
  0
ARC
  8
1
 62
7
 10
1103.685173558933
 20
351.8583804669723
 30
0
 40
2.999999999999865
 50
244.6986213745846
 51
295.3013786254154
  0
ARC
  8
1
 62
7
 10
1073.658189520783
 20
362.8583804669723
 30
0
 40
1.499999999999751
 50
205.5392033248645
 51
270
  0
ARC
  8
1
 62
7
 10
1133.712157597083
 20
362.8583804669723
 30
0
 40
1.5
 50
270
 51
334.4607966751505
  0
LINE
  8
1
 62
2
 10
1145.953889013334
 20
340.1785505524589
 30
0
 11
1125.877638297923
 21
340.1785505524589
 31
0
  0
LINE
  8
1
 62
2
 10
1125.877638297923
 20
340.1785505524589
 30
0
 11
1120.542627354854
 21
350.7471545162089
 31
0
  0
LINE
  8
1
 62
2
 10
1122.612138774316
 20
348.4312759761648
 30
0
 11
1120.542627354854
 21
350.7471545162089
 31
0
  0
LINE
  8
1
 62
2
 10
1121.176937547508
 20
347.7067891587205
 30
0
 11
1120.542627354854
 21
350.7471545162089
 31
0
  0
LINE
  8
1
 62
2
 10
1063.533876993424
 20
340.9737646418478
 30
0
 11
1077.764269062463
 21
340.9737646418478
 31
0
  0
LINE
  8
1
 62
2
 10
1077.764269062463
 20
340.9737646418478
 30
0
 11
1084.873053343864
 21
350.7471545162089
 31
0
  0
LINE
  8
1
 62
2
 10
1083.758471107222
 20
347.8482103350834
 30
0
 11
1084.873053343864
 21
350.7471545162089
 31
0
  0
LINE
  8
1
 62
2
 10
1082.458324721762
 20
348.7938863295223
 30
0
 11
1084.873053343864
 21
350.7471545162089
 31
0
  0
DIMENSION
  8
1
  6
CONTINUOUS
 62
2
  2
*D0
  3
DMST_1
 10
1053.685173558933
 20
331.415394295723
 30
0
 11
1103.685173558933
 21
333.465394295723
 31
0
 12
0
 22
0
 32
0
 70
0
 13
1153.685173558933
 23
360.4583804669724
 33
0
 14
1053.685173558933
 24
360.4583804669724
 34
0
 53
0
  0
DIMENSION
  8
1
  6
CONTINUOUS
 62
2
  2
*D1
  3
DMST_1
 10
1163.110286356428
 20
348.8583804669723
 30
0
 11
1161.060286356428
 21
360.3583804669723
 31
0
 12
0
 22
0
 32
0
 70
0
 13
1157.336347428251
 23
371.8583804669723
 33
0
 14
1127.424223948822
 24
348.8583804669723
 34
0
 50
90
 53
0
  0
DIMENSION
  8
1
  6
CONTINUOUS
 62
2
  2
*D2
  3
DMST_2
 10
1169.29986649796
 20
445.3583804520723
 30
0
 11
1166.99986649796
 21
397.1083804595223
 31
0
 12
0
 22
0
 32
0
 70
0
  1
(97)
 13
1127.424223948822
 23
348.8583804669723
 33
0
 14
1087.883036005233
 24
445.3583804520723
 34
0
 50
90
 53
0
  0
DIMENSION
  8
1
  6
CONTINUOUS
 62
2
  2
*D3
  3
DMST_2
 10
1169.29986649796
 20
465.6675021241723
 30
0
 11
1166.99986649796
 21
510.1675047034723
 31
0
 12
0
 22
0
 32
0
 70
0
 13
1106.685173585033
 23
554.6675072827723
 33
0
 14
1106.685173585033
 24
465.6675021241723
 34
0
 50
90
 53
0
  0
DIMENSION
  8
1
  6
CONTINUOUS
 62
2
  2
*D4
  3
DMST_3
 10
1053.685173558933
 20
348.8583804669723
 30
0
 11
1059.185173558933
 21
351.4583804669723
 31
0
 12
0
 22
0
 32
0
 70
0
 13
1064.685173558933
 23
358.9583804669724
 33
0
 14
1053.685173558933
 24
360.4583804669724
 34
0
 53
0
  0
DIMENSION
  8
1
  6
CONTINUOUS
 62
2
  2
*D5
  3
DMST_4
 10
1059.935173558933
 20
384.7583804669723
 30
0
 11
1036.510593160057
 21
398.794600964318
 31
0
 12
0
 22
0
 32
0
 70
4
  1
                 
 15
1059.932616223909
 25
384.7680479401466
 35
0
 40
0
 53
0
  0
ENDSEC
  0
EOF
