  0
SECTION
  2
HEADER
  9
$ACADVER
  1
AC1009
  9
$INSBASE
 10
0
 20
0
  9
$EXTMIN
 10
50.15011274316822
 20
-193.9244613549226
  9
$EXTMAX
 10
323.231205003035
 20
170.456518348863
  9
$LIMMIN
 10
50.15011274316822
 20
-193.9244613549226
  9
$LIMMAX
 10
323.231205003035
 20
170.456518348863
  9
$VIEWCTR
 10
10
 20
10
  9
$VIEWSIZE
 40
10
  9
$SNAPMODE
 70
0
  9
$SNAPUNIT
 10
1
 20
1
  9
$SNAPBASE
 10
0
 20
0
  9
$SNAPANG
 50
0
  9
$SNAPSTYLE
 70
0
  9
$SNAPISOPAIR
 70
0
  9
$GRIDMODE
 70
0
  9
$GRIDUNIT
 10
0
 20
0
  9
$ORTHOMODE
 70
0
  9
$REGENMODE
 70
1
  9
$FILLMODE
 70
1
  9
$QTEXTMODE
 70
0
  9
$DRAGMODE
 70
2
  9
$LTSCALE
 40
1
  9
$OSMODE
 70
0
  9
$ATTMODE
 70
1
  9
$TEXTSIZE
 40
3.5
  9
$TRACEWID
 40
0.5
  9
$TEXTSTYLE
  7
STANDARD
  9
$CLAYER
  8
0
  9
$CELTYPE
  6
BYLAYER
  9
$CECOLOR
 62
256
  9
$DIMSCALE
 40
1
  9
$DIMASZ
 40
0.18
  9
$DIMEXO
 40
0.0625
  9
$DIMDLI
 40
0.38
  9
$DIMRND
 40
0
  9
$DIMDLE
 40
0
  9
$DIMEXE
 40
0.18
  9
$DIMTP
 40
0
  9
$DIMTM
 40
0
  9
$DIMTXT
 40
0.18
  9
$DIMCEN
 40
0.09
  9
$DIMTSZ
 40
0
  9
$DIMTOL
 70
0
  9
$DIMLIM
 70
0
  9
$DIMTIH
 70
1
  9
$DIMTOH
 70
1
  9
$DIMSE1
 70
0
  9
$DIMSE2
 70
0
  9
$DIMTAD
 70
0
  9
$DIMZIN
 70
0
  9
$DIMBLK
  1

  9
$DIMASO
 70
1
  9
$DIMSHO
 70
1
  9
$DIMPOST
  1

  9
$DIMAPOST
  1

  9
$DIMALT
 70
0
  9
$DIMALTD
 70
2
  9
$DIMALTF
 40
25.4
  9
$DIMLFAC
 40
1
  9
$DIMTOFL
 70
0
  9
$DIMTVP
 40
0
  9
$DIMTIX
 70
0
  9
$DIMSOXD
 70
0
  9
$DIMSAH
 70
0
  9
$DIMBLK1
  1

  9
$DIMBLK2
  1

  9
$DIMSTYLE
  2
*UNNAMED
  9
$DIMCLRD
 70
0
  9
$DIMCLRE
 70
0
  9
$DIMCLRT
 70
0
  9
$DIMTFAC
 40
1
  9
$DIMGAP
 40
0.09
  9
$LUNITS
 70
2
  9
$LUPREC
 70
4
  9
$AXISMODE
 70
0
  9
$AXISUNIT
 10
0
 20
0
  9
$SKETCHINC
 40
0.1
  9
$FILLETRAD
 40
2
  9
$AUNITS
 70
0
  9
$AUPREC
 70
0
  9
$MENU
  1
ACAD
  9
$ELEVATION
 40
0
  9
$THICKNESS
 40
0
  9
$VIEWDIR
 10
0
 20
0
 30
1
  9
$LIMCHECK
 70
0
  9
$BLIPMODE
 70
1
  9
$CHAMFERA
 40
0
  9
$CHAMFERB
 40
0
  9
$FASTZOOM
 70
1
  9
$SKPOLY
 70
0
  9
$ANGBASE
 50
0
  9
$ANGDIR
 70
0
  9
$PDMODE
 70
0
  9
$PDSIZE
 40
0
  9
$PLINEWID
 40
0
  9
$COORDS
 70
2
  0
ENDSEC
  0
SECTION
  2
TABLES
  0
TABLE
  2
DIMSTYLE
 70
2
  0
DIMSTYLE
  2
DMST_1
 70
0
  3

  4

  5

  6

  7

 40
1
 41
3.000000000000001
 42
0.5000000000000001
 43
7
 44
1.000000000000001
 45
0
 46
0
 47
0
 48
0
140
3.000000000000001
141
0
142
0
143
25.4
144
1
145
0
146
1
147
0.09
 71
0
 72
0
 73
0
 74
0
 75
0
 76
0
 77
1
 78
9
170
0
171
2
172
0
173
0
174
0
175
0
176
2
177
2
178
2
  0
DIMSTYLE
  2
DMST_2
 70
0
  3

  4

  5

  6

  7

 40
1
 41
3.200000000000001
 42
0.5
 43
7
 44
1.5
 45
0
 46
0
 47
0
 48
0
140
3.200000000000001
141
0
142
0
143
25.4
144
1
145
0
146
1
147
0.09
 71
0
 72
0
 73
0
 74
0
 75
0
 76
0
 77
1
 78
9
170
0
171
2
172
0
173
0
174
0
175
0
176
2
177
2
178
2
  0
ENDTAB
  0
TABLE
  2
LTYPE
 70
9
  0
LTYPE
  2
CONTINUOUS
 70
64
  3
Solid line
 72
65
 73
0
 40
0
  0
LTYPE
  2
BORDER
 70
64
  3
__ __ . __ __ .
 72
65
 73
6
 40
16.78070301267434
 49
4.794486575049811
 49
-2.397243287524905
 49
4.794486575049811
 49
-2.397243287524905
 49
0
 49
-2.397243287524905
  0
LTYPE
  2
CENTER
 70
64
  3
____ _ ____ _
 72
65
 73
4
 40
19.17794630019924
 49
11.98621643762453
 49
-2.397243287524905
 49
2.397243287524905
 49
-2.397243287524905
  0
LTYPE
  2
DASHDOT
 70
64
  3
__ . __ . __ .
 72
65
 73
4
 40
9.588973150099621
 49
4.794486575049811
 49
-2.397243287524905
 49
0
 49
-2.397243287524905
  0
LTYPE
  2
DASHED
 70
64
  3
__ __ __ __ __
 72
65
 73
2
 40
7.191729862574716
 49
4.794486575049811
 49
-2.397243287524905
  0
LTYPE
  2
DIVIDE
 70
64
  3
__ . . __ . . 
 72
65
 73
6
 40
11.98621643762453
 49
4.794486575049811
 49
-2.397243287524905
 49
0
 49
-2.397243287524905
 49
0
 49
-2.397243287524905
  0
LTYPE
  2
DOT
 70
64
  3
..............
 72
65
 73
4
 40
4.794486575049811
 49
0
 49
-2.397243287524905
 49
0
 49
-2.397243287524905
  0
LTYPE
  2
HIDDEN
 70
64
  3
_ _ _ _ _ _ _
 72
65
 73
2
 40
3.595864931287358
 49
2.397243287524905
 49
-1.198621643762453
  0
LTYPE
  2
PHANTOM
 70
64
  3
_____ _ _ _____ _ _ 
 72
65
 73
6
 40
23.97243287524905
 49
11.98621643762453
 49
-2.397243287524905
 49
2.397243287524905
 49
-2.397243287524905
 49
2.397243287524905
 49
-2.397243287524905
  0
ENDTAB
  0
TABLE
  2
LAYER
 70
3
  0
LAYER
  2
0
 70
0
 62
7
  6
CONTINUOUS
  0
LAYER
  2
1
 70
0
 62
7
  6
CONTINUOUS
  0
ENDTAB
  0
TABLE
  2
STYLE
 70
4
  0
STYLE
  2
STANDARD
 70
0
 40
0
 41
1
 50
0
 71
0
 42
3.5
  3
txt
  4

  0
STYLE
  2
SIMPLEX
 70
0
 40
0
 41
1
 50
0
 71
0
 42
3.5
  3
simplex
  4

  0
STYLE
  2
COMPLEX
 70
0
 40
0
 41
1
 50
0
 71
0
 42
3.5
  3
complex
  4

  0
STYLE
  2
ITALIC
 70
0
 40
0
 41
1
 50
0
 71
0
 42
3.5
  3
italic
  4

  0
ENDTAB
  0
TABLE
  2
VIEW
 70
0
  0
ENDTAB
  0
ENDSEC
  0
SECTION
  2
BLOCKS
  0
BLOCK
  8
1
  2
*D0
 70
1
 10
0
 20
0
 30
0
  0
LINE
  8
1
 62
2
 10
254.664567427737
 20
-114.5022450614981
 30
0
 11
254.664567427737
 21
-69.50124916074461
 31
0
  0
LINE
  8
1
 62
2
 10
217.4493152395617
 20
-114.5022450614981
 30
0
 11
255.664567427737
 21
-114.5022450614981
 31
0
  0
LINE
  8
1
 62
2
 10
259.3189341558783
 20
-69.50124916074461
 30
0
 11
253.664567427737
 21
-69.50124916074461
 31
0
  0
LINE
  8
1
 62
2
 10
254.664567427737
 20
-114.5022450614981
 30
0
 11
253.854567427737
 21
-111.5022450614981
 31
0
  0
LINE
  8
1
 62
2
 10
254.664567427737
 20
-114.5022450614981
 30
0
 11
255.474567427737
 21
-111.5022450614981
 31
0
  0
LINE
  8
1
 62
2
 10
254.664567427737
 20
-69.50124916074461
 30
0
 11
255.474567427737
 21
-72.50124916074461
 31
0
  0
LINE
  8
1
 62
2
 10
254.664567427737
 20
-69.50124916074461
 30
0
 11
253.854567427737
 21
-72.50124916074461
 31
0
  0
TEXT
  8
1
 62
2
 10
253.864567427737
 20
-104.6627236217201
 30
0
 40
3.000000000000001
  1
45
 50
90
 41
0.9
 51
15
  0
ENDBLK
  8
0
  0
BLOCK
  8
1
  2
*D1
 70
1
 10
0
 20
0
 30
0
  0
LINE
  8
1
 62
2
 10
58.94931523956171
 20
-137.4474346003073
 30
0
 11
303.9493152395614
 21
-137.4474346003073
 31
0
  0
LINE
  8
1
 62
2
 10
58.94931523956171
 20
-96.50224506149803
 30
0
 11
58.94931523956171
 21
-138.4474346003073
 31
0
  0
LINE
  8
1
 62
2
 10
303.9493152395614
 20
-96.50224506149803
 30
0
 11
303.9493152395614
 21
-138.4474346003073
 31
0
  0
LINE
  8
1
 62
2
 10
58.94931523956171
 20
-137.4474346003073
 30
0
 11
61.94931523956171
 21
-136.6374346003073
 31
0
  0
LINE
  8
1
 62
2
 10
58.94931523956171
 20
-137.4474346003073
 30
0
 11
61.94931523956171
 21
-138.2574346003073
 31
0
  0
LINE
  8
1
 62
2
 10
303.9493152395614
 20
-137.4474346003073
 30
0
 11
300.9493152395614
 21
-138.2574346003073
 31
0
  0
LINE
  8
1
 62
2
 10
303.9493152395614
 20
-137.4474346003073
 30
0
 11
300.9493152395614
 21
-136.6374346003073
 31
0
  0
TEXT
  8
1
 62
2
 10
178.6320608057542
 20
-136.6474346003073
 30
0
 40
3
  1
245
 41
0.9
 51
15
  0
ENDBLK
  8
0
  0
BLOCK
  8
1
  2
*D2
 70
1
 10
0
 20
0
 30
0
  0
LINE
  8
1
 62
2
 10
322.231205003035
 20
57.2668545256893
 30
0
 11
322.231205003035
 21
165.2668545256893
 31
0
  0
LINE
  8
1
 62
2
 10
184.9493152395617
 20
57.2668545256893
 30
0
 11
323.231205003035
 21
57.2668545256893
 31
0
  0
LINE
  8
1
 62
2
 10
184.9493152395617
 20
165.2668545256893
 30
0
 11
323.231205003035
 21
165.2668545256893
 31
0
  0
LINE
  8
1
 62
2
 10
322.231205003035
 20
165.2668545256893
 30
0
 11
323.041205003035
 21
162.2668545256893
 31
0
  0
LINE
  8
1
 62
2
 10
322.231205003035
 20
165.2668545256893
 30
0
 11
321.421205003035
 21
162.2668545256893
 31
0
  0
LINE
  8
1
 62
2
 10
322.231205003035
 20
57.2668545256893
 30
0
 11
321.421205003035
 21
60.2668545256893
 31
0
  0
LINE
  8
1
 62
2
 10
322.231205003035
 20
57.2668545256893
 30
0
 11
323.041205003035
 21
60.2668545256893
 31
0
  0
TEXT
  8
1
 62
2
 10
321.431205003035
 20
107.7149307370426
 30
0
 40
3.000000000000001
  1
108
 50
90
 41
0.9
 51
15
  0
ENDBLK
  8
0
  0
BLOCK
  8
1
  2
*D3
 70
1
 10
0
 20
0
 30
0
  0
LINE
  8
1
 62
2
 10
322.231205003035
 20
-114.5022450614981
 30
0
 11
322.231205003035
 21
10.54775493850188
 31
0
  0
LINE
  8
1
 62
2
 10
217.4493152395617
 20
-114.5022450614981
 30
0
 11
323.231205003035
 21
-114.5022450614981
 31
0
  0
LINE
  8
1
 62
2
 10
166.7471773995615
 20
10.54775493850188
 30
0
 11
323.231205003035
 21
10.54775493850188
 31
0
  0
LINE
  8
1
 62
2
 10
322.231205003035
 20
10.54775493850188
 30
0
 11
323.041205003035
 21
7.547754938501882
 31
0
  0
LINE
  8
1
 62
2
 10
322.231205003035
 20
10.54775493850188
 30
0
 11
321.421205003035
 21
7.547754938501882
 31
0
  0
LINE
  8
1
 62
2
 10
322.231205003035
 20
-114.5022450614981
 30
0
 11
321.421205003035
 21
-111.5022450614981
 31
0
  0
LINE
  8
1
 62
2
 10
322.231205003035
 20
-114.5022450614981
 30
0
 11
323.041205003035
 21
-111.5022450614981
 31
0
  0
TEXT
  8
1
 62
2
 10
321.431205003035
 20
-56.87916885014479
 30
0
 40
3
  1
(126)
 50
90
 41
0.9
 51
15
  0
ENDBLK
  8
0
  0
BLOCK
  8
1
  2
*D4
 70
1
 10
0
 20
0
 30
0
  0
LINE
  8
1
 62
2
 10
58.94931523956173
 20
-108.254907671836
 30
0
 11
78.94931523956174
 21
-108.254907671836
 31
0
  0
LINE
  8
1
 62
2
 10
58.94931523956173
 20
-96.50224506149804
 30
0
 11
58.94931523956173
 21
-109.754907671836
 31
0
  0
LINE
  8
1
 62
2
 10
78.94931523956174
 20
-98.00224506149804
 30
0
 11
78.94931523956174
 21
-109.754907671836
 31
0
  0
LINE
  8
1
 62
2
 10
58.94931523956173
 20
-108.254907671836
 30
0
 11
62.14931523956173
 21
-107.390907671836
 31
0
  0
LINE
  8
1
 62
2
 10
58.94931523956173
 20
-108.254907671836
 30
0
 11
62.14931523956173
 21
-109.118907671836
 31
0
  0
LINE
  8
1
 62
2
 10
78.94931523956174
 20
-108.254907671836
 30
0
 11
75.74931523956174
 21
-109.118907671836
 31
0
  0
LINE
  8
1
 62
2
 10
78.94931523956174
 20
-108.254907671836
 30
0
 11
75.74931523956174
 21
-107.390907671836
 31
0
  0
TEXT
  8
1
 62
2
 10
66.12059653167195
 20
-107.254907671836
 30
0
 40
3.200000000000001
  1
20
 41
0.9
 51
15
  0
ENDBLK
  8
0
  0
ENDSEC
  0
SECTION
  2
ENTITIES
  0
POLYLINE
  8
0
 62
2
 66
1
  0
VERTEX
  8
0
 10
162.7051677749617
 20
119.9664555761893
 30
0
  0
VERTEX
  8
0
 10
162.7442646966616
 20
120.2722739699892
 30
0
  0
VERTEX
  8
0
 10
162.8559936033617
 20
120.4859691943892
 30
0
  0
SEQEND
  8
0
  0
POLYLINE
  8
0
 62
2
 66
1
  0
VERTEX
  8
0
 10
163.1325088636617
 20
119.2160470682892
 30
0
  0
VERTEX
  8
0
 10
162.7932671652617
 20
119.5830137740892
 30
0
  0
VERTEX
  8
0
 10
162.7051677749617
 20
119.9664555761893
 30
0
  0
SEQEND
  8
0
  0
POLYLINE
  8
0
 62
2
 66
1
  0
VERTEX
  8
0
 10
163.1325088636617
 20
117.8595394167892
 30
0
  0
VERTEX
  8
0
 10
162.7932671652617
 20
118.2265061225892
 30
0
  0
VERTEX
  8
0
 10
162.7051677749617
 20
118.6099479246892
 30
0
  0
SEQEND
  8
0
  0
POLYLINE
  8
0
 62
2
 66
1
  0
VERTEX
  8
0
 10
163.1827853815616
 20
118.3790530349892
 30
0
  0
VERTEX
  8
0
 10
163.2245440231617
 20
118.1895302880892
 30
0
  0
VERTEX
  8
0
 10
163.3084729508617
 20
118.0615721541893
 30
0
  0
SEQEND
  8
0
  0
POLYLINE
  8
0
 62
2
 66
1
  0
VERTEX
  8
0
 10
163.2581982956617
 20
118.5810857723891
 30
0
  0
VERTEX
  8
0
 10
163.1970718698617
 20
118.4746481749892
 30
0
  0
VERTEX
  8
0
 10
163.1827853815616
 20
118.3790530349892
 30
0
  0
SEQEND
  8
0
  0
POLYLINE
  8
0
 62
2
 66
1
  0
VERTEX
  8
0
 10
163.5347135560616
 20
118.6304305020893
 30
0
  0
VERTEX
  8
0
 10
163.3762117670617
 20
118.6201691899892
 30
0
  0
VERTEX
  8
0
 10
163.2581982956617
 20
118.5810857723891
 30
0
  0
SEQEND
  8
0
  0
POLYLINE
  8
0
 62
2
 66
1
  0
VERTEX
  8
0
 10
163.1827853815616
 20
119.7355606864892
 30
0
  0
VERTEX
  8
0
 10
163.2279470758617
 20
119.5628376017892
 30
0
  0
VERTEX
  8
0
 10
163.3084729508617
 20
119.4469419579892
 30
0
  0
SEQEND
  8
0
  0
POLYLINE
  8
0
 62
2
 66
1
  0
VERTEX
  8
0
 10
163.2581982956617
 20
119.9664555761893
 30
0
  0
VERTEX
  8
0
 10
163.1951999114617
 20
119.8437677967892
 30
0
  0
VERTEX
  8
0
 10
163.1827853815616
 20
119.7355606864892
 30
0
  0
SEQEND
  8
0
  0
POLYLINE
  8
0
 62
2
 66
1
  0
VERTEX
  8
0
 10
163.5598518149616
 20
120.0446619923892
 30
0
  0
VERTEX
  8
0
 10
163.3838616506617
 20
120.0251042183892
 30
0
  0
VERTEX
  8
0
 10
163.2581982956617
 20
119.9664555761893
 30
0
  0
SEQEND
  8
0
  0
POLYLINE
  8
0
 62
2
 66
1
  0
VERTEX
  8
0
 10
163.6623028860616
 20
121.1864252846892
 30
0
  0
VERTEX
  8
0
 10
163.7119777695617
 20
121.2984559397892
 30
0
  0
VERTEX
  8
0
 10
163.7215554909616
 20
121.3949092935891
 30
0
  0
SEQEND
  8
0
  0
POLYLINE
  8
0
 62
2
 66
1
  0
VERTEX
  8
0
 10
163.3914295779616
 20
121.0876697014892
 30
0
  0
VERTEX
  8
0
 10
163.5572254852618
 20
121.1086808044892
 30
0
  0
VERTEX
  8
0
 10
163.6623028860616
 20
121.1864252846892
 30
0
  0
SEQEND
  8
0
  0
POLYLINE
  8
0
 62
2
 66
1
  0
VERTEX
  8
0
 10
163.8817578749616
 20
121.3949092935891
 30
0
  0
VERTEX
  8
0
 10
163.8527825669616
 20
121.1637731913892
 30
0
  0
VERTEX
  8
0
 10
163.7723442362616
 20
120.9998869608892
 30
0
  0
SEQEND
  8
0
  0
POLYLINE
  8
0
 62
2
 66
1
  0
VERTEX
  8
0
 10
163.7638785140616
 20
121.7789578523892
 30
0
  0
VERTEX
  8
0
 10
163.8613321082616
 20
121.5733590807892
 30
0
  0
VERTEX
  8
0
 10
163.8817578749616
 20
121.3949092935891
 30
0
  0
SEQEND
  8
0
  0
POLYLINE
  8
0
 62
2
 66
1
  0
VERTEX
  8
0
 10
163.4083591596615
 20
121.9545233334892
 30
0
  0
VERTEX
  8
0
 10
163.6294737653616
 20
121.8988069604891
 30
0
  0
VERTEX
  8
0
 10
163.7638785140616
 20
121.7789578523892
 30
0
  0
SEQEND
  8
0
  0
POLYLINE
  8
0
 62
2
 66
1
  0
VERTEX
  8
0
 10
163.1205581323616
 20
121.8009035374892
 30
0
  0
VERTEX
  8
0
 10
163.2641475842616
 20
121.9221766378892
 30
0
  0
VERTEX
  8
0
 10
163.4083591596615
 20
121.9545233334892
 30
0
  0
SEQEND
  8
0
  0
POLYLINE
  8
0
 62
2
 66
1
  0
VERTEX
  8
0
 10
163.0274463640616
 20
121.5814466859892
 30
0
  0
VERTEX
  8
0
 10
163.0683630900617
 20
121.7093293826892
 30
0
  0
VERTEX
  8
0
 10
163.1205581323616
 20
121.8009035374892
 30
0
  0
SEQEND
  8
0
  0
POLYLINE
  8
0
 62
2
 66
1
  0
VERTEX
  8
0
 10
162.9174031512616
 20
121.7899306948892
 30
0
  0
VERTEX
  8
0
 10
162.9896644698616
 20
121.6785789738893
 30
0
  0
VERTEX
  8
0
 10
163.0274463640616
 20
121.5814466859892
 30
0
  0
SEQEND
  8
0
  0
POLYLINE
  8
0
 62
2
 66
1
  0
VERTEX
  8
0
 10
162.6465317056617
 20
121.9106319631892
 30
0
  0
VERTEX
  8
0
 10
162.8138661579616
 20
121.8755676682892
 30
0
  0
VERTEX
  8
0
 10
162.9174031512616
 20
121.7899306948892
 30
0
  0
SEQEND
  8
0
  0
POLYLINE
  8
0
 62
2
 66
1
  0
VERTEX
  8
0
 10
162.3333353744617
 20
121.7570121671892
 30
0
  0
VERTEX
  8
0
 10
162.4908890770617
 20
121.8811844747892
 30
0
  0
VERTEX
  8
0
 10
162.6465317056617
 20
121.9106319631892
 30
0
  0
SEQEND
  8
0
  0
POLYLINE
  8
0
 62
2
 66
1
  0
VERTEX
  8
0
 10
162.2317578838617
 20
121.4058821361892
 30
0
  0
VERTEX
  8
0
 10
162.2596323685618
 20
121.6117044250892
 30
0
  0
VERTEX
  8
0
 10
162.3333353744617
 20
121.7570121671892
 30
0
  0
SEQEND
  8
0
  0
POLYLINE
  8
0
 62
2
 66
1
  0
VERTEX
  8
0
 10
162.3333353744617
 20
121.0657240163892
 30
0
  0
VERTEX
  8
0
 10
162.2489035324617
 20
121.2480658005892
 30
0
  0
VERTEX
  8
0
 10
162.2317578838617
 20
121.4058821361892
 30
0
  0
SEQEND
  8
0
  0
POLYLINE
  8
0
 62
2
 66
1
  0
VERTEX
  8
0
 10
162.6888547287617
 20
120.8791856925891
 30
0
  0
VERTEX
  8
0
 10
162.4679189370617
 20
120.9437142397892
 30
0
  0
VERTEX
  8
0
 10
162.3333353744617
 20
121.0657240163892
 30
0
  0
SEQEND
  8
0
  0
POLYLINE
  8
0
 62
2
 66
1
  0
VERTEX
  8
0
 10
162.4349128650616
 20
121.2412890318893
 30
0
  0
VERTEX
  8
0
 10
162.5642810211617
 20
121.1463616501892
 30
0
  0
VERTEX
  8
0
 10
162.6888547287617
 20
121.1205882291892
 30
0
  0
SEQEND
  8
0
  0
POLYLINE
  8
0
 62
2
 66
1
  0
VERTEX
  8
0
 10
162.3841241197616
 20
121.4058821361892
 30
0
  0
VERTEX
  8
0
 10
162.3989265607616
 20
121.3091894324892
 30
0
  0
VERTEX
  8
0
 10
162.4349128650616
 20
121.2412890318893
 30
0
  0
SEQEND
  8
0
  0
POLYLINE
  8
0
 62
2
 66
1
  0
VERTEX
  8
0
 10
162.4349128650616
 20
121.5704738433893
 30
0
  0
VERTEX
  8
0
 10
162.3929809974616
 20
121.4823334749893
 30
0
  0
VERTEX
  8
0
 10
162.3841241197616
 20
121.4058821361892
 30
0
  0
SEQEND
  8
0
  0
POLYLINE
  8
0
 62
2
 66
1
  0
VERTEX
  8
0
 10
162.6803908692617
 20
121.6692294265892
 30
0
  0
VERTEX
  8
0
 10
162.5300158010617
 20
121.6426932524892
 30
0
  0
VERTEX
  8
0
 10
162.4349128650616
 20
121.5704738433893
 30
0
  0
SEQEND
  8
0
  0
POLYLINE
  8
0
 62
2
 66
1
  0
VERTEX
  8
0
 10
162.9597280369616
 20
121.3180993955892
 30
0
  0
VERTEX
  8
0
 10
162.9364989893617
 20
121.4718169804892
 30
0
  0
VERTEX
  8
0
 10
162.8835439877617
 20
121.5814466859892
 30
0
  0
SEQEND
  8
0
  0
POLYLINE
  8
0
 62
2
 66
1
  0
VERTEX
  8
0
 10
163.1628811554617
 20
121.5814466859892
 30
0
  0
VERTEX
  8
0
 10
163.1082274214617
 20
121.4390064861892
 30
0
  0
VERTEX
  8
0
 10
163.1036285506618
 20
121.3180993955892
 30
0
  0
SEQEND
  8
0
  0
POLYLINE
  8
0
 62
2
 66
1
  0
VERTEX
  8
0
 10
163.7215554909616
 20
121.3949092935891
 30
0
  0
VERTEX
  8
0
 10
163.6960707800616
 20
121.5180860172891
 30
0
  0
VERTEX
  8
0
 10
163.6453733043616
 20
121.6033923711892
 30
0
  0
SEQEND
  8
0
  0
LINE
  8
1
 62
2
 10
220.4493152395617
 20
-188.5807113549226
 30
0
 11
220.6993152395617
 21
-188.2994613549226
 31
0
  0
LINE
  8
1
 62
2
 10
220.4493152395617
 20
-186.8932113549226
 30
0
 11
218.9493152395617
 21
-186.8932113549226
 31
0
  0
LINE
  8
1
 62
2
 10
224.1993152395617
 20
-193.3619613549226
 30
0
 11
226.4493152395617
 21
-193.3619613549226
 31
0
  0
LINE
  8
1
 62
2
 10
221.6993152395617
 20
-193.3619613549226
 30
0
 11
224.1993152395617
 21
-193.3619613549226
 31
0
  0
LINE
  8
1
 62
2
 10
224.1993152395617
 20
-185.2057113549226
 30
0
 11
224.1993152395617
 21
-193.3619613549226
 31
0
  0
LINE
  8
1
 62
2
 10
222.4493152395617
 20
-188.5807113549226
 30
0
 11
225.9493152395617
 21
-188.5807113549226
 31
0
  0
LINE
  8
1
 62
2
 10
220.9493152395617
 20
-188.8619613549226
 30
0
 11
222.1993152395617
 21
-190.2682113549226
 31
0
  0
LINE
  8
1
 62
2
 10
220.4493152395617
 20
-186.8932113549226
 30
0
 11
220.4493152395617
 21
-185.2057113549226
 31
0
  0
LINE
  8
1
 62
2
 10
221.6993152395617
 20
-186.8932113549226
 30
0
 11
220.4493152395617
 21
-186.8932113549226
 31
0
  0
LINE
  8
1
 62
2
 10
220.6993152395617
 20
-188.2994613549226
 30
0
 11
221.6993152395617
 21
-186.8932113549226
 31
0
  0
LINE
  8
1
 62
2
 10
219.4493152395617
 20
-189.7057113549226
 30
0
 11
220.4493152395617
 21
-188.5807113549226
 31
0
  0
LINE
  8
1
 62
2
 10
218.4493152395617
 20
-190.5494613549226
 30
0
 11
219.4493152395617
 21
-189.7057113549226
 31
0
  0
LINE
  8
1
 62
2
 10
220.4493152395617
 20
-193.6432113549226
 30
0
 11
220.4493152395617
 21
-188.5807113549226
 31
0
  0
LINE
  8
1
 62
2
 10
213.4493152395617
 20
-190.5494613549226
 30
0
 11
210.9493152395617
 21
-193.6432113549226
 31
0
  0
LINE
  8
1
 62
2
 10
215.6993152395617
 20
-193.0807113549226
 30
0
 11
214.6993152395617
 21
-191.9557113549226
 31
0
  0
LINE
  8
1
 62
2
 10
216.4493152395617
 20
-193.9244613549226
 30
0
 11
215.6993152395617
 21
-193.0807113549226
 31
0
  0
LINE
  8
1
 62
2
 10
210.1993152395617
 20
-193.6432113549226
 30
0
 11
215.6993152395617
 21
-193.0807113549226
 31
0
  0
LINE
  8
1
 62
2
 10
210.6993152395617
 20
-190.2682113549226
 30
0
 11
216.4493152395617
 21
-190.2682113549226
 31
0
  0
LINE
  8
1
 62
2
 10
211.6993152395617
 20
-188.8619613549226
 30
0
 11
215.1993152395617
 21
-188.8619613549226
 31
0
  0
LINE
  8
1
 62
2
 10
213.4493152395617
 20
-185.2057113549226
 30
0
 11
217.4493152395617
 21
-189.4244613549226
 31
0
  0
LINE
  8
1
 62
2
 10
213.4493152395617
 20
-185.2057113549226
 30
0
 11
209.4493152395617
 21
-189.4244613549226
 31
0
  0
LINE
  8
1
 62
2
 10
202.6993152395617
 20
-189.1432113549226
 30
0
 11
200.9493152395617
 21
-189.1432113549226
 31
0
  0
LINE
  8
1
 62
2
 10
202.6993152395617
 20
-192.2369613549226
 30
0
 11
204.4493152395617
 21
-191.6744613549226
 31
0
  0
LINE
  8
1
 62
2
 10
207.6993152395617
 20
-193.6432113549226
 30
0
 11
208.4493152395617
 21
-192.7994613549226
 31
0
  0
LINE
  8
1
 62
2
 10
206.6993152395617
 20
-192.5182113549226
 30
0
 11
207.6993152395617
 21
-193.6432113549226
 31
0
  0
LINE
  8
1
 62
2
 10
205.6993152395617
 20
-190.5494613549226
 30
0
 11
206.6993152395617
 21
-192.5182113549226
 31
0
  0
LINE
  8
1
 62
2
 10
205.1993152395617
 20
-188.2994613549226
 30
0
 11
205.6993152395617
 21
-190.5494613549226
 31
0
  0
LINE
  8
1
 62
2
 10
204.9493152395617
 20
-184.9244613549226
 30
0
 11
205.1993152395617
 21
-188.2994613549226
 31
0
  0
LINE
  8
1
 62
2
 10
206.4493152395617
 20
-186.0494613549226
 30
0
 11
205.6993152395617
 21
-185.2057113549226
 31
0
  0
LINE
  8
1
 62
2
 10
200.4493152395617
 20
-186.8932113549226
 30
0
 11
207.6993152395617
 21
-186.8932113549226
 31
0
  0
LINE
  8
1
 62
2
 10
202.6993152395617
 20
-189.1432113549226
 30
0
 11
202.6993152395617
 21
-192.2369613549226
 31
0
  0
LINE
  8
1
 62
2
 10
204.4493152395617
 20
-189.1432113549226
 30
0
 11
202.6993152395617
 21
-189.1432113549226
 31
0
  0
LINE
  8
1
 62
2
 10
200.9493152395617
 20
-192.7994613549226
 30
0
 11
202.6993152395617
 21
-192.2369613549226
 31
0
  0
LINE
  8
1
 62
2
 10
193.1993152395617
 20
-187.4557113549226
 30
0
 11
193.1993152395617
 21
-184.9244613549226
 31
0
  0
LINE
  8
1
 62
2
 10
193.1993152395617
 20
-187.4557113549226
 30
0
 11
191.9493152395617
 21
-187.4557113549226
 31
0
  0
LINE
  8
1
 62
2
 10
198.1993152395617
 20
-191.6744613549226
 30
0
 11
199.1993152395617
 21
-193.6432113549226
 31
0
  0
LINE
  8
1
 62
2
 10
196.9493152395617
 20
-189.1432113549226
 30
0
 11
198.1993152395617
 21
-191.6744613549226
 31
0
  0
LINE
  8
1
 62
2
 10
196.1993152395617
 20
-191.1119613549226
 30
0
 11
196.9493152395617
 21
-189.1432113549226
 31
0
  0
LINE
  8
1
 62
2
 10
195.1993152395617
 20
-192.5182113549226
 30
0
 11
196.1993152395617
 21
-191.1119613549226
 31
0
  0
LINE
  8
1
 62
2
 10
194.4493152395617
 20
-193.6432113549226
 30
0
 11
195.1993152395617
 21
-192.5182113549226
 31
0
  0
LINE
  8
1
 62
2
 10
196.9493152395617
 20
-184.9244613549226
 30
0
 11
196.9493152395617
 21
-193.9244613549226
 31
0
  0
LINE
  8
1
 62
2
 10
199.1993152395617
 20
-189.1432113549226
 30
0
 11
194.9493152395617
 21
-189.1432113549226
 31
0
  0
LINE
  8
1
 62
2
 10
195.6993152395617
 20
-187.1744613549226
 30
0
 11
198.9493152395617
 21
-187.1744613549226
 31
0
  0
LINE
  8
1
 62
2
 10
195.6993152395617
 20
-187.1744613549226
 30
0
 11
195.9493152395617
 21
-185.7682113549226
 31
0
  0
LINE
  8
1
 62
2
 10
194.9493152395617
 20
-188.5807113549226
 30
0
 11
195.6993152395617
 21
-187.1744613549226
 31
0
  0
LINE
  8
1
 62
2
 10
193.1993152395617
 20
-187.4557113549226
 30
0
 11
194.4493152395617
 21
-189.7057113549226
 31
0
  0
LINE
  8
1
 62
2
 10
191.6993152395617
 20
-191.3932113549226
 30
0
 11
193.1993152395617
 21
-187.4557113549226
 31
0
  0
LINE
  8
1
 62
2
 10
194.4493152395617
 20
-187.4557113549226
 30
0
 11
193.1993152395617
 21
-187.4557113549226
 31
0
  0
LINE
  8
1
 62
2
 10
193.1993152395617
 20
-193.6432113549226
 30
0
 11
193.1993152395617
 21
-187.4557113549226
 31
0
  0
LINE
  8
1
 62
2
 10
183.1993152395617
 20
-188.2994613549226
 30
0
 11
183.1993152395617
 21
-186.8932113549226
 31
0
  0
LINE
  8
1
 62
2
 10
185.6993152395617
 20
-186.8932113549226
 30
0
 11
185.6993152395617
 21
-188.2994613549226
 31
0
  0
LINE
  8
1
 62
2
 10
183.1993152395617
 20
-186.8932113549226
 30
0
 11
183.1993152395617
 21
-185.4869613549226
 31
0
  0
LINE
  8
1
 62
2
 10
189.6993152395617
 20
-188.2994613549226
 30
0
 11
189.6993152395617
 21
-186.8932113549226
 31
0
  0
LINE
  8
1
 62
2
 10
187.1993152395617
 20
-186.8932113549226
 30
0
 11
187.1993152395617
 21
-188.2994613549226
 31
0
  0
LINE
  8
1
 62
2
 10
189.6993152395617
 20
-186.8932113549226
 30
0
 11
189.6993152395617
 21
-185.4869613549226
 31
0
  0
LINE
  8
1
 62
2
 10
183.1993152395617
 20
-193.3619613549226
 30
0
 11
183.1993152395617
 21
-193.6432113549226
 31
0
  0
LINE
  8
1
 62
2
 10
187.1993152395617
 20
-186.8932113549226
 30
0
 11
189.6993152395617
 21
-186.8932113549226
 31
0
  0
LINE
  8
1
 62
2
 10
187.1993152395617
 20
-188.2994613549226
 30
0
 11
189.6993152395617
 21
-188.2994613549226
 31
0
  0
LINE
  8
1
 62
2
 10
187.1993152395617
 20
-185.4869613549226
 30
0
 11
187.1993152395617
 21
-186.8932113549226
 31
0
  0
LINE
  8
1
 62
2
 10
189.6993152395617
 20
-185.4869613549226
 30
0
 11
187.1993152395617
 21
-185.4869613549226
 31
0
  0
LINE
  8
1
 62
2
 10
189.6993152395617
 20
-193.3619613549226
 30
0
 11
189.6993152395617
 21
-188.2994613549226
 31
0
  0
LINE
  8
1
 62
2
 10
189.4493152395617
 20
-193.6432113549226
 30
0
 11
189.6993152395617
 21
-193.3619613549226
 31
0
  0
LINE
  8
1
 62
2
 10
188.6993152395617
 20
-193.6432113549226
 30
0
 11
189.4493152395617
 21
-193.6432113549226
 31
0
  0
LINE
  8
1
 62
2
 10
185.6993152395617
 20
-186.8932113549226
 30
0
 11
183.1993152395617
 21
-186.8932113549226
 31
0
  0
LINE
  8
1
 62
2
 10
185.6993152395617
 20
-188.2994613549226
 30
0
 11
183.1993152395617
 21
-188.2994613549226
 31
0
  0
LINE
  8
1
 62
2
 10
185.6993152395617
 20
-185.4869613549226
 30
0
 11
185.6993152395617
 21
-186.8932113549226
 31
0
  0
LINE
  8
1
 62
2
 10
183.1993152395617
 20
-185.4869613549226
 30
0
 11
185.6993152395617
 21
-185.4869613549226
 31
0
  0
LINE
  8
1
 62
2
 10
183.1993152395617
 20
-193.3619613549226
 30
0
 11
183.1993152395617
 21
-188.2994613549226
 31
0
  0
LINE
  8
1
 62
2
 10
177.4493152395617
 20
-193.6432113549226
 30
0
 11
180.4493152395617
 21
-193.6432113549226
 31
0
  0
LINE
  8
1
 62
2
 10
177.4493152395617
 20
-188.2994613549226
 30
0
 11
179.1993152395617
 21
-188.2994613549226
 31
0
  0
LINE
  8
1
 62
2
 10
180.4493152395617
 20
-188.5807113549226
 30
0
 11
181.4493152395617
 21
-189.4244613549226
 31
0
  0
LINE
  8
1
 62
2
 10
178.6993152395617
 20
-186.6119613549226
 30
0
 11
180.4493152395617
 21
-188.5807113549226
 31
0
  0
LINE
  8
1
 62
2
 10
177.4493152395617
 20
-184.9244613549226
 30
0
 11
178.6993152395617
 21
-186.6119613549226
 31
0
  0
LINE
  8
1
 62
2
 10
176.1993152395617
 20
-186.6119613549226
 30
0
 11
177.4493152395617
 21
-184.9244613549226
 31
0
  0
LINE
  8
1
 62
2
 10
174.4493152395617
 20
-188.5807113549226
 30
0
 11
176.1993152395617
 21
-186.6119613549226
 31
0
  0
LINE
  8
1
 62
2
 10
173.4493152395617
 20
-189.4244613549226
 30
0
 11
174.4493152395617
 21
-188.5807113549226
 31
0
  0
LINE
  8
1
 62
2
 10
178.6993152395617
 20
-192.5182113549226
 30
0
 11
179.1993152395617
 21
-191.1119613549226
 31
0
  0
LINE
  8
1
 62
2
 10
175.6993152395617
 20
-191.1119613549226
 30
0
 11
176.1993152395617
 21
-192.5182113549226
 31
0
  0
LINE
  8
1
 62
2
 10
179.9493152395617
 20
-189.9869613549226
 30
0
 11
174.9493152395617
 21
-189.9869613549226
 31
0
  0
LINE
  8
1
 62
2
 10
175.6993152395617
 20
-188.2994613549226
 30
0
 11
177.4493152395617
 21
-188.2994613549226
 31
0
  0
LINE
  8
1
 62
2
 10
177.4493152395617
 20
-193.6432113549226
 30
0
 11
177.4493152395617
 21
-188.2994613549226
 31
0
  0
LINE
  8
1
 62
2
 10
174.1993152395617
 20
-193.6432113549226
 30
0
 11
177.4493152395617
 21
-193.6432113549226
 31
0
  0
LINE
  8
1
 62
2
 10
170.6993152395617
 20
-191.1119613549226
 30
0
 11
171.9493152395617
 21
-189.4244613549226
 31
0
  0
LINE
  8
1
 62
2
 10
168.6993152395617
 20
-192.2369613549226
 30
0
 11
170.6993152395617
 21
-191.1119613549226
 31
0
  0
LINE
  8
1
 62
2
 10
168.6993152395617
 20
-187.1744613549226
 30
0
 11
168.6993152395617
 21
-192.2369613549226
 31
0
  0
LINE
  8
1
 62
2
 10
166.6993152395617
 20
-189.4244613549226
 30
0
 11
166.9493152395617
 21
-187.1744613549226
 31
0
  0
LINE
  8
1
 62
2
 10
166.1993152395617
 20
-191.1119613549226
 30
0
 11
166.6993152395617
 21
-189.4244613549226
 31
0
  0
LINE
  8
1
 62
2
 10
165.4493152395617
 20
-192.5182113549226
 30
0
 11
166.1993152395617
 21
-191.1119613549226
 31
0
  0
LINE
  8
1
 62
2
 10
156.9493152395617
 20
-190.2682113549226
 30
0
 11
156.9493152395617
 21
-191.9557113549226
 31
0
  0
LINE
  8
1
 62
2
 10
159.6993152395617
 20
-193.0807113549226
 30
0
 11
161.1993152395617
 21
-192.7994613549226
 31
0
  0
LINE
  8
1
 62
2
 10
157.1993152395617
 20
-192.7994613549226
 30
0
 11
159.6993152395617
 21
-193.0807113549226
 31
0
  0
LINE
  8
1
 62
2
 10
156.9493152395617
 20
-191.9557113549226
 30
0
 11
157.1993152395617
 21
-192.7994613549226
 31
0
  0
LINE
  8
1
 62
2
 10
156.9493152395617
 20
-187.1744613549226
 30
0
 11
156.9493152395617
 21
-190.2682113549226
 31
0
  0
LINE
  8
1
 62
2
 10
161.6993152395617
 20
-186.6119613549226
 30
0
 11
162.4493152395617
 21
-187.4557113549226
 31
0
  0
LINE
  8
1
 62
2
 10
161.9493152395617
 20
-188.0182113549226
 30
0
 11
161.1993152395617
 21
-187.1744613549226
 31
0
  0
LINE
  8
1
 62
2
 10
159.1993152395617
 20
-189.4244613549226
 30
0
 11
160.6993152395617
 21
-188.5807113549226
 31
0
  0
LINE
  8
1
 62
2
 10
156.9493152395617
 20
-190.2682113549226
 30
0
 11
159.1993152395617
 21
-189.4244613549226
 31
0
  0
LINE
  8
1
 62
2
 10
151.4493152395617
 20
-191.1119613549226
 30
0
 11
152.9493152395617
 21
-192.7994613549226
 31
0
  0
LINE
  8
1
 62
2
 10
150.1993152395617
 20
-189.9869613549226
 30
0
 11
151.4493152395617
 21
-191.1119613549226
 31
0
  0
LINE
  8
1
 62
2
 10
153.1993152395617
 20
-186.0494613549226
 30
0
 11
153.9493152395617
 21
-186.8932113549226
 31
0
  0
LINE
  8
1
 62
2
 10
152.6993152395617
 20
-186.6119613549226
 30
0
 11
153.4493152395617
 21
-187.4557113549226
 31
0
  0
LINE
  8
1
 62
2
 10
151.6993152395617
 20
-187.1744613549226
 30
0
 11
148.4493152395617
 21
-187.1744613549226
 31
0
  0
LINE
  8
1
 62
2
 10
150.9493152395617
 20
-188.8619613549226
 30
0
 11
151.6993152395617
 21
-187.1744613549226
 31
0
  0
LINE
  8
1
 62
2
 10
149.1993152395617
 20
-191.3932113549226
 30
0
 11
150.9493152395617
 21
-188.8619613549226
 31
0
  0
LINE
  8
1
 62
2
 10
147.4493152395617
 20
-192.7994613549226
 30
0
 11
149.1993152395617
 21
-191.3932113549226
 31
0
  0
LINE
  8
1
 62
2
 10
144.4493152395617
 20
-187.4557113549226
 30
0
 11
142.1993152395617
 21
-189.9869613549226
 31
0
  0
LINE
  8
1
 62
2
 10
138.6993152395617
 20
-187.4557113549226
 30
0
 11
144.4493152395617
 21
-187.4557113549226
 31
0
  0
LINE
  8
1
 62
2
 10
141.4493152395617
 20
-189.9869613549226
 30
0
 11
141.6993152395617
 21
-188.5807113549226
 31
0
  0
LINE
  8
1
 62
2
 10
140.9493152395617
 20
-191.6744613549226
 30
0
 11
141.4493152395617
 21
-189.9869613549226
 31
0
  0
LINE
  8
1
 62
2
 10
139.9493152395617
 20
-193.3619613549226
 30
0
 11
140.9493152395617
 21
-191.6744613549226
 31
0
  0
LINE
  8
1
 62
2
 10
245.8743152395617
 20
-166.1119613549226
 30
0
 11
246.3743152395617
 21
-166.9557113549226
 31
0
  0
LINE
  8
1
 62
2
 10
245.1243152395617
 20
-165.2682113549226
 30
0
 11
245.8743152395617
 21
-166.1119613549226
 31
0
  0
LINE
  8
1
 62
2
 10
244.1243152395617
 20
-164.4244613549226
 30
0
 11
245.1243152395617
 21
-165.2682113549226
 31
0
  0
LINE
  8
1
 62
2
 10
243.6243152395617
 20
-163.2994613549226
 30
0
 11
242.8743152395617
 21
-161.8932113549226
 31
0
  0
LINE
  8
1
 62
2
 10
244.8743152395617
 20
-163.0182113549226
 30
0
 11
244.3743152395617
 21
-161.6119613549226
 31
0
  0
LINE
  8
1
 62
2
 10
246.3743152395617
 20
-163.5807113549226
 30
0
 11
247.1243152395617
 21
-161.8932113549226
 31
0
  0
LINE
  8
1
 62
2
 10
244.8743152395617
 20
-165.8307113549226
 30
0
 11
246.3743152395617
 21
-163.5807113549226
 31
0
  0
LINE
  8
1
 62
2
 10
244.1243152395617
 20
-166.6744613549226
 30
0
 11
244.8743152395617
 21
-165.8307113549226
 31
0
  0
LINE
  8
1
 62
2
 10
242.8743152395617
 20
-167.5182113549226
 30
0
 11
244.1243152395617
 21
-166.6744613549226
 31
0
  0
LINE
  8
1
 62
2
 10
241.6243152395617
 20
-160.4869613549226
 30
0
 11
241.6243152395617
 21
-168.6432113549226
 31
0
  0
LINE
  8
1
 62
2
 10
248.1243152395617
 20
-160.4869613549226
 30
0
 11
241.6243152395617
 21
-160.4869613549226
 31
0
  0
LINE
  8
1
 62
2
 10
248.1243152395617
 20
-168.6432113549226
 30
0
 11
248.1243152395617
 21
-160.4869613549226
 31
0
  0
LINE
  8
1
 62
2
 10
241.6243152395617
 20
-168.6432113549226
 30
0
 11
248.1243152395617
 21
-168.6432113549226
 31
0
  0
LINE
  8
1
 62
2
 10
236.6243152395617
 20
-164.7057113549226
 30
0
 11
239.6243152395617
 21
-164.7057113549226
 31
0
  0
LINE
  8
1
 62
2
 10
237.8743152395617
 20
-166.3932113549226
 30
0
 11
239.3743152395617
 21
-168.9244613549226
 31
0
  0
LINE
  8
1
 62
2
 10
234.3743152395617
 20
-168.6432113549226
 30
0
 11
238.6243152395617
 21
-167.7994613549226
 31
0
  0
LINE
  8
1
 62
2
 10
236.6243152395617
 20
-164.7057113549226
 30
0
 11
235.3743152395617
 21
-168.3619613549226
 31
0
  0
LINE
  8
1
 62
2
 10
233.8743152395617
 20
-164.7057113549226
 30
0
 11
236.6243152395617
 21
-164.7057113549226
 31
0
  0
LINE
  8
1
 62
2
 10
236.8743152395617
 20
-160.2057113549226
 30
0
 11
236.8743152395617
 21
-164.7057113549226
 31
0
  0
LINE
  8
1
 62
2
 10
234.6243152395617
 20
-162.4557113549226
 30
0
 11
239.3743152395617
 21
-162.4557113549226
 31
0
  0
LINE
  8
1
 62
2
 10
232.6243152395617
 20
-160.4869613549226
 30
0
 11
233.3743152395617
 21
-161.6119613549226
 31
0
  0
LINE
  8
1
 62
2
 10
232.6243152395617
 20
-163.8619613549226
 30
0
 11
231.8743152395617
 21
-163.0182113549226
 31
0
  0
LINE
  8
1
 62
2
 10
232.1243152395617
 20
-168.9244613549226
 30
0
 11
233.3743152395617
 21
-165.2682113549226
 31
0
  0
LINE
  8
1
 62
2
 10
226.3743152395617
 20
-165.5494613549226
 30
0
 11
225.3743152395617
 21
-164.1432113549226
 31
0
  0
LINE
  8
1
 62
2
 10
228.3743152395617
 20
-168.6432113549226
 30
0
 11
227.1243152395617
 21
-168.6432113549226
 31
0
  0
LINE
  8
1
 62
2
 10
228.3743152395617
 20
-160.4869613549226
 30
0
 11
228.3743152395617
 21
-168.6432113549226
 31
0
  0
LINE
  8
1
 62
2
 10
223.6243152395617
 20
-162.7369613549226
 30
0
 11
230.3743152395617
 21
-162.7369613549226
 31
0
  0
LINE
  8
1
 62
2
 10
214.8743152395617
 20
-166.9557113549226
 30
0
 11
214.8743152395617
 21
-164.1432113549226
 31
0
  0
LINE
  8
1
 62
2
 10
216.3743152395617
 20
-168.3619613549226
 30
0
 11
214.8743152395617
 21
-168.3619613549226
 31
0
  0
LINE
  8
1
 62
2
 10
216.3743152395617
 20
-164.1432113549226
 30
0
 11
217.6243152395617
 21
-164.1432113549226
 31
0
  0
LINE
  8
1
 62
2
 10
216.1243152395617
 20
-161.3307113549226
 30
0
 11
215.1243152395617
 21
-161.3307113549226
 31
0
  0
LINE
  8
1
 62
2
 10
218.3743152395617
 20
-162.4557113549226
 30
0
 11
218.3743152395617
 21
-164.1432113549226
 31
0
  0
LINE
  8
1
 62
2
 10
220.8743152395617
 20
-164.1432113549226
 30
0
 11
220.8743152395617
 21
-160.7682113549226
 31
0
  0
LINE
  8
1
 62
2
 10
218.3743152395617
 20
-164.1432113549226
 30
0
 11
218.3743152395617
 21
-165.8307113549226
 31
0
  0
LINE
  8
1
 62
2
 10
219.1243152395617
 20
-165.8307113549226
 30
0
 11
219.8743152395617
 21
-165.8307113549226
 31
0
  0
LINE
  8
1
 62
2
 10
219.8743152395617
 20
-165.8307113549226
 30
0
 11
220.8743152395617
 21
-165.8307113549226
 31
0
  0
LINE
  8
1
 62
2
 10
221.6243152395617
 20
-168.9244613549226
 30
0
 11
221.8743152395617
 21
-168.3619613549226
 31
0
  0
LINE
  8
1
 62
2
 10
220.6243152395617
 20
-168.9244613549226
 30
0
 11
221.6243152395617
 21
-168.9244613549226
 31
0
  0
LINE
  8
1
 62
2
 10
219.8743152395617
 20
-168.3619613549226
 30
0
 11
220.6243152395617
 21
-168.9244613549226
 31
0
  0
LINE
  8
1
 62
2
 10
219.8743152395617
 20
-165.8307113549226
 30
0
 11
219.8743152395617
 21
-168.3619613549226
 31
0
  0
LINE
  8
1
 62
2
 10
218.3743152395617
 20
-168.0807113549226
 30
0
 11
217.6243152395617
 21
-168.9244613549226
 31
0
  0
LINE
  8
1
 62
2
 10
218.8743152395617
 20
-166.6744613549226
 30
0
 11
218.3743152395617
 21
-168.0807113549226
 31
0
  0
LINE
  8
1
 62
2
 10
219.1243152395617
 20
-165.8307113549226
 30
0
 11
218.8743152395617
 21
-166.6744613549226
 31
0
  0
LINE
  8
1
 62
2
 10
220.8743152395617
 20
-164.1432113549226
 30
0
 11
218.3743152395617
 21
-164.1432113549226
 31
0
  0
LINE
  8
1
 62
2
 10
218.3743152395617
 20
-162.4557113549226
 30
0
 11
220.8743152395617
 21
-162.4557113549226
 31
0
  0
LINE
  8
1
 62
2
 10
220.8743152395617
 20
-160.7682113549226
 30
0
 11
218.3743152395617
 21
-160.7682113549226
 31
0
  0
LINE
  8
1
 62
2
 10
220.8743152395617
 20
-165.8307113549226
 30
0
 11
220.8743152395617
 21
-164.1432113549226
 31
0
  0
LINE
  8
1
 62
2
 10
218.3743152395617
 20
-165.8307113549226
 30
0
 11
219.1243152395617
 21
-165.8307113549226
 31
0
  0
LINE
  8
1
 62
2
 10
218.3743152395617
 20
-160.7682113549226
 30
0
 11
218.3743152395617
 21
-162.4557113549226
 31
0
  0
LINE
  8
1
 62
2
 10
214.8743152395617
 20
-161.3307113549226
 30
0
 11
215.3743152395617
 21
-160.2057113549226
 31
0
  0
LINE
  8
1
 62
2
 10
214.1243152395617
 20
-162.1744613549226
 30
0
 11
214.8743152395617
 21
-161.3307113549226
 31
0
  0
LINE
  8
1
 62
2
 10
217.6243152395617
 20
-161.3307113549226
 30
0
 11
216.1243152395617
 21
-161.3307113549226
 31
0
  0
LINE
  8
1
 62
2
 10
215.1243152395617
 20
-163.8619613549226
 30
0
 11
216.1243152395617
 21
-161.3307113549226
 31
0
  0
LINE
  8
1
 62
2
 10
213.8743152395617
 20
-165.5494613549226
 30
0
 11
215.1243152395617
 21
-163.8619613549226
 31
0
  0
LINE
  8
1
 62
2
 10
217.8743152395617
 20
-162.7369613549226
 30
0
 11
214.1243152395617
 21
-162.7369613549226
 31
0
  0
LINE
  8
1
 62
2
 10
216.3743152395617
 20
-164.1432113549226
 30
0
 11
216.6243152395617
 21
-163.5807113549226
 31
0
  0
LINE
  8
1
 62
2
 10
216.3743152395617
 20
-168.3619613549226
 30
0
 11
216.3743152395617
 21
-164.1432113549226
 31
0
  0
LINE
  8
1
 62
2
 10
217.6243152395617
 20
-168.3619613549226
 30
0
 11
216.3743152395617
 21
-168.3619613549226
 31
0
  0
LINE
  8
1
 62
2
 10
214.8743152395617
 20
-166.9557113549226
 30
0
 11
217.6243152395617
 21
-166.9557113549226
 31
0
  0
LINE
  8
1
 62
2
 10
217.6243152395617
 20
-165.5494613549226
 30
0
 11
214.8743152395617
 21
-165.5494613549226
 31
0
  0
LINE
  8
1
 62
2
 10
214.8743152395617
 20
-164.1432113549226
 30
0
 11
216.3743152395617
 21
-164.1432113549226
 31
0
  0
LINE
  8
1
 62
2
 10
214.8743152395617
 20
-168.9244613549226
 30
0
 11
214.8743152395617
 21
-166.9557113549226
 31
0
  0
LINE
  8
1
 62
2
 10
211.6243152395617
 20
-164.1432113549226
 30
0
 11
212.8743152395617
 21
-165.5494613549226
 31
0
  0
LINE
  8
1
 62
2
 10
209.6243152395617
 20
-162.1744613549226
 30
0
 11
211.6243152395617
 21
-164.1432113549226
 31
0
  0
LINE
  8
1
 62
2
 10
210.1243152395617
 20
-159.9244613549226
 30
0
 11
210.1243152395617
 21
-168.9244613549226
 31
0
  0
LINE
  8
1
 62
2
 10
205.8743152395617
 20
-163.5807113549226
 30
0
 11
207.6243152395617
 21
-164.9869613549226
 31
0
  0
LINE
  8
1
 62
2
 10
205.8743152395617
 20
-163.2994613549226
 30
0
 11
204.8743152395617
 21
-164.7057113549226
 31
0
  0
LINE
  8
1
 62
2
 10
206.6243152395617
 20
-161.6119613549226
 30
0
 11
205.8743152395617
 21
-163.2994613549226
 31
0
  0
LINE
  8
1
 62
2
 10
207.1243152395617
 20
-159.9244613549226
 30
0
 11
206.6243152395617
 21
-161.6119613549226
 31
0
  0
LINE
  8
1
 62
2
 10
208.8743152395617
 20
-161.8932113549226
 30
0
 11
206.6243152395617
 21
-161.8932113549226
 31
0
  0
LINE
  8
1
 62
2
 10
208.3743152395617
 20
-163.5807113549226
 30
0
 11
208.8743152395617
 21
-161.8932113549226
 31
0
  0
LINE
  8
1
 62
2
 10
207.8743152395617
 20
-164.7057113549226
 30
0
 11
208.3743152395617
 21
-163.5807113549226
 31
0
  0
LINE
  8
1
 62
2
 10
206.8743152395617
 20
-166.3932113549226
 30
0
 11
207.8743152395617
 21
-164.7057113549226
 31
0
  0
LINE
  8
1
 62
2
 10
205.3743152395617
 20
-168.3619613549226
 30
0
 11
206.8743152395617
 21
-166.3932113549226
 31
0
  0
LINE
  8
1
 62
2
 10
190.0243152395617
 20
-162.6244613549226
 30
0
 11
191.8243152395617
 21
-162.6244613549226
 31
0
  0
LINE
  8
1
 62
2
 10
190.0243152395617
 20
-162.6244613549226
 30
0
 11
190.0243152395617
 21
-168.9244613549226
 31
0
  0
LINE
  8
1
 62
2
 10
193.1743152395617
 20
-163.7494613549226
 30
0
 11
193.1743152395617
 21
-168.9244613549226
 31
0
  0
LINE
  8
1
 62
2
 10
192.9493152395617
 20
-163.2994613549226
 30
0
 11
193.1743152395617
 21
-163.7494613549226
 31
0
  0
LINE
  8
1
 62
2
 10
192.4993152395617
 20
-162.8494613549226
 30
0
 11
192.9493152395617
 21
-163.2994613549226
 31
0
  0
LINE
  8
1
 62
2
 10
191.8243152395617
 20
-162.6244613549226
 30
0
 11
192.4993152395617
 21
-162.8494613549226
 31
0
  0
LINE
  8
1
 62
2
 10
186.8743152395617
 20
-162.6244613549226
 30
0
 11
190.0243152395617
 21
-162.6244613549226
 31
0
  0
LINE
  8
1
 62
2
 10
186.8743152395617
 20
-168.9244613549226
 30
0
 11
186.8743152395617
 21
-162.6244613549226
 31
0
  0
LINE
  8
1
 62
2
 10
181.0243152395617
 20
-162.6244613549226
 30
0
 11
182.8243152395617
 21
-162.6244613549226
 31
0
  0
LINE
  8
1
 62
2
 10
181.0243152395617
 20
-162.6244613549226
 30
0
 11
181.0243152395617
 21
-168.9244613549226
 31
0
  0
LINE
  8
1
 62
2
 10
184.1743152395617
 20
-163.7494613549226
 30
0
 11
184.1743152395617
 21
-168.9244613549226
 31
0
  0
LINE
  8
1
 62
2
 10
183.9493152395617
 20
-163.2994613549226
 30
0
 11
184.1743152395617
 21
-163.7494613549226
 31
0
  0
LINE
  8
1
 62
2
 10
183.4993152395617
 20
-162.8494613549226
 30
0
 11
183.9493152395617
 21
-163.2994613549226
 31
0
  0
LINE
  8
1
 62
2
 10
182.8243152395617
 20
-162.6244613549226
 30
0
 11
183.4993152395617
 21
-162.8494613549226
 31
0
  0
LINE
  8
1
 62
2
 10
177.8743152395617
 20
-162.6244613549226
 30
0
 11
181.0243152395617
 21
-162.6244613549226
 31
0
  0
LINE
  8
1
 62
2
 10
177.8743152395617
 20
-168.9244613549226
 30
0
 11
177.8743152395617
 21
-162.6244613549226
 31
0
  0
LINE
  8
1
 62
2
 10
175.1743152395617
 20
-163.2994613549226
 30
0
 11
175.1743152395617
 21
-165.5494613549226
 31
0
  0
LINE
  8
1
 62
2
 10
174.9493152395617
 20
-161.9494613549226
 30
0
 11
175.1743152395617
 21
-163.2994613549226
 31
0
  0
LINE
  8
1
 62
2
 10
174.4993152395617
 20
-161.0494613549226
 30
0
 11
174.9493152395617
 21
-161.9494613549226
 31
0
  0
LINE
  8
1
 62
2
 10
174.0493152395617
 20
-160.5994613549226
 30
0
 11
174.4993152395617
 21
-161.0494613549226
 31
0
  0
LINE
  8
1
 62
2
 10
173.3743152395617
 20
-160.1494613549226
 30
0
 11
174.0493152395617
 21
-160.5994613549226
 31
0
  0
LINE
  8
1
 62
2
 10
172.6993152395617
 20
-159.9244613549226
 30
0
 11
173.3743152395617
 21
-160.1494613549226
 31
0
  0
LINE
  8
1
 62
2
 10
172.2493152395617
 20
-159.9244613549226
 30
0
 11
172.6993152395617
 21
-159.9244613549226
 31
0
  0
LINE
  8
1
 62
2
 10
171.5743152395617
 20
-160.1494613549226
 30
0
 11
172.2493152395617
 21
-159.9244613549226
 31
0
  0
LINE
  8
1
 62
2
 10
170.8993152395617
 20
-160.5994613549226
 30
0
 11
171.5743152395617
 21
-160.1494613549226
 31
0
  0
LINE
  8
1
 62
2
 10
170.4493152395617
 20
-161.0494613549226
 30
0
 11
170.8993152395617
 21
-160.5994613549226
 31
0
  0
LINE
  8
1
 62
2
 10
169.9993152395617
 20
-161.9494613549226
 30
0
 11
170.4493152395617
 21
-161.0494613549226
 31
0
  0
LINE
  8
1
 62
2
 10
169.7743152395617
 20
-163.2994613549226
 30
0
 11
169.9993152395617
 21
-161.9494613549226
 31
0
  0
LINE
  8
1
 62
2
 10
169.7743152395617
 20
-165.5494613549226
 30
0
 11
169.7743152395617
 21
-163.2994613549226
 31
0
  0
LINE
  8
1
 62
2
 10
169.9993152395617
 20
-166.8994613549226
 30
0
 11
169.7743152395617
 21
-165.5494613549226
 31
0
  0
LINE
  8
1
 62
2
 10
170.4493152395617
 20
-167.7994613549226
 30
0
 11
169.9993152395617
 21
-166.8994613549226
 31
0
  0
LINE
  8
1
 62
2
 10
170.8993152395617
 20
-168.2494613549226
 30
0
 11
170.4493152395617
 21
-167.7994613549226
 31
0
  0
LINE
  8
1
 62
2
 10
171.5743152395617
 20
-168.6994613549226
 30
0
 11
170.8993152395617
 21
-168.2494613549226
 31
0
  0
LINE
  8
1
 62
2
 10
172.2493152395617
 20
-168.9244613549226
 30
0
 11
171.5743152395617
 21
-168.6994613549226
 31
0
  0
LINE
  8
1
 62
2
 10
172.6993152395617
 20
-168.9244613549226
 30
0
 11
172.2493152395617
 21
-168.9244613549226
 31
0
  0
LINE
  8
1
 62
2
 10
173.3743152395617
 20
-168.6994613549226
 30
0
 11
172.6993152395617
 21
-168.9244613549226
 31
0
  0
LINE
  8
1
 62
2
 10
174.0493152395617
 20
-168.2494613549226
 30
0
 11
173.3743152395617
 21
-168.6994613549226
 31
0
  0
LINE
  8
1
 62
2
 10
174.4993152395617
 20
-167.7994613549226
 30
0
 11
174.0493152395617
 21
-168.2494613549226
 31
0
  0
LINE
  8
1
 62
2
 10
174.9493152395617
 20
-166.8994613549226
 30
0
 11
174.4993152395617
 21
-167.7994613549226
 31
0
  0
LINE
  8
1
 62
2
 10
175.1743152395617
 20
-165.5494613549226
 30
0
 11
174.9493152395617
 21
-166.8994613549226
 31
0
  0
LINE
  8
1
 62
2
 10
165.7243152395617
 20
-165.3244613549226
 30
0
 11
165.7243152395617
 21
-168.9244613549226
 31
0
  0
LINE
  8
1
 62
2
 10
161.6743152395617
 20
-167.1244613549226
 30
0
 11
167.0743152395617
 21
-167.1244613549226
 31
0
  0
LINE
  8
1
 62
2
 10
165.7243152395617
 20
-159.9244613549226
 30
0
 11
161.6743152395617
 21
-167.1244613549226
 31
0
  0
LINE
  8
1
 62
2
 10
155.6743152395617
 20
-160.4869613549226
 30
0
 11
153.1743152395617
 21
-160.4869613549226
 31
0
  0
LINE
  8
1
 62
2
 10
156.9243152395617
 20
-168.6432113549226
 30
0
 11
160.4243152395617
 21
-168.6432113549226
 31
0
  0
LINE
  8
1
 62
2
 10
156.9243152395617
 20
-165.2682113549226
 30
0
 11
156.9243152395617
 21
-168.6432113549226
 31
0
  0
LINE
  8
1
 62
2
 10
159.9243152395617
 20
-165.2682113549226
 30
0
 11
159.1743152395617
 21
-165.2682113549226
 31
0
  0
LINE
  8
1
 62
2
 10
159.9243152395617
 20
-160.2057113549226
 30
0
 11
159.9243152395617
 21
-165.2682113549226
 31
0
  0
LINE
  8
1
 62
2
 10
158.1743152395617
 20
-164.1432113549226
 30
0
 11
158.1743152395617
 21
-160.4869613549226
 31
0
  0
LINE
  8
1
 62
2
 10
155.6743152395617
 20
-160.4869613549226
 30
0
 11
155.6743152395617
 21
-165.2682113549226
 31
0
  0
LINE
  8
1
 62
2
 10
152.9243152395617
 20
-162.4557113549226
 30
0
 11
157.1743152395617
 21
-162.4557113549226
 31
0
  0
LINE
  8
1
 62
2
 10
156.9243152395617
 20
-160.4869613549226
 30
0
 11
155.6743152395617
 21
-160.4869613549226
 31
0
  0
LINE
  8
1
 62
2
 10
154.4243152395617
 20
-162.4557113549226
 30
0
 11
154.4243152395617
 21
-160.4869613549226
 31
0
  0
LINE
  8
1
 62
2
 10
153.9243152395617
 20
-164.4244613549226
 30
0
 11
154.4243152395617
 21
-162.4557113549226
 31
0
  0
LINE
  8
1
 62
2
 10
153.1743152395617
 20
-165.5494613549226
 30
0
 11
153.9243152395617
 21
-164.4244613549226
 31
0
  0
LINE
  8
1
 62
2
 10
159.4243152395617
 20
-166.6744613549226
 30
0
 11
153.9243152395617
 21
-166.6744613549226
 31
0
  0
LINE
  8
1
 62
2
 10
153.1743152395617
 20
-168.6432113549226
 30
0
 11
156.9243152395617
 21
-168.6432113549226
 31
0
  0
LINE
  8
1
 62
2
 10
146.3743152395617
 20
-159.9244613549226
 30
0
 11
149.9743152395617
 21
-168.9244613549226
 31
0
  0
LINE
  8
1
 62
2
 10
142.7743152395617
 20
-168.9244613549226
 30
0
 11
146.3743152395617
 21
-159.9244613549226
 31
0
  0
LINE
  8
1
 62
2
 10
143.8993152395617
 20
-166.2244613549226
 30
0
 11
148.8493152395617
 21
-166.2244613549226
 31
0
  0
LINE
  8
1
 62
2
 10
139.8493152395617
 20
-161.7244613549226
 30
0
 11
140.0743152395617
 21
-162.6244613549226
 31
0
  0
LINE
  8
1
 62
2
 10
139.3993152395617
 20
-161.0494613549226
 30
0
 11
139.8493152395617
 21
-161.7244613549226
 31
0
  0
LINE
  8
1
 62
2
 10
138.9493152395617
 20
-160.5994613549226
 30
0
 11
139.3993152395617
 21
-161.0494613549226
 31
0
  0
LINE
  8
1
 62
2
 10
138.2743152395617
 20
-160.1494613549226
 30
0
 11
138.9493152395617
 21
-160.5994613549226
 31
0
  0
LINE
  8
1
 62
2
 10
137.3743152395617
 20
-159.9244613549226
 30
0
 11
138.2743152395617
 21
-160.1494613549226
 31
0
  0
LINE
  8
1
 62
2
 10
133.7743152395617
 20
-159.9244613549226
 30
0
 11
137.3743152395617
 21
-159.9244613549226
 31
0
  0
LINE
  8
1
 62
2
 10
133.7743152395617
 20
-168.9244613549226
 30
0
 11
133.7743152395617
 21
-159.9244613549226
 31
0
  0
LINE
  8
1
 62
2
 10
137.3743152395617
 20
-168.9244613549226
 30
0
 11
133.7743152395617
 21
-168.9244613549226
 31
0
  0
LINE
  8
1
 62
2
 10
138.2743152395617
 20
-168.6994613549226
 30
0
 11
137.3743152395617
 21
-168.9244613549226
 31
0
  0
LINE
  8
1
 62
2
 10
138.9493152395617
 20
-168.2494613549226
 30
0
 11
138.2743152395617
 21
-168.6994613549226
 31
0
  0
LINE
  8
1
 62
2
 10
139.3993152395617
 20
-167.7994613549226
 30
0
 11
138.9493152395617
 21
-168.2494613549226
 31
0
  0
LINE
  8
1
 62
2
 10
139.8493152395617
 20
-167.1244613549226
 30
0
 11
139.3993152395617
 21
-167.7994613549226
 31
0
  0
LINE
  8
1
 62
2
 10
140.0743152395617
 20
-166.2244613549226
 30
0
 11
139.8493152395617
 21
-167.1244613549226
 31
0
  0
LINE
  8
1
 62
2
 10
140.0743152395617
 20
-162.6244613549226
 30
0
 11
140.0743152395617
 21
-166.2244613549226
 31
0
  0
LINE
  8
1
 62
2
 10
124.7743152395617
 20
-166.2244613549226
 30
0
 11
124.7743152395617
 21
-159.9244613549226
 31
0
  0
LINE
  8
1
 62
2
 10
124.7743152395617
 20
-168.9244613549226
 30
0
 11
124.7743152395617
 21
-166.2244613549226
 31
0
  0
LINE
  8
1
 62
2
 10
126.5743152395617
 20
-164.4244613549226
 30
0
 11
131.0743152395617
 21
-168.9244613549226
 31
0
  0
LINE
  8
1
 62
2
 10
131.0743152395617
 20
-159.9244613549226
 30
0
 11
126.5743152395617
 21
-164.4244613549226
 31
0
  0
LINE
  8
1
 62
2
 10
126.5743152395617
 20
-164.4244613549226
 30
0
 11
124.7743152395617
 21
-166.2244613549226
 31
0
  0
LINE
  8
1
 62
2
 10
122.0743152395617
 20
-163.9744613549226
 30
0
 11
119.8243152395617
 21
-163.9744613549226
 31
0
  0
LINE
  8
1
 62
2
 10
122.0743152395617
 20
-168.9244613549226
 30
0
 11
122.0743152395617
 21
-163.9744613549226
 31
0
  0
LINE
  8
1
 62
2
 10
118.2493152395617
 20
-168.9244613549226
 30
0
 11
122.0743152395617
 21
-168.9244613549226
 31
0
  0
LINE
  8
1
 62
2
 10
117.5743152395617
 20
-168.6994613549226
 30
0
 11
118.2493152395617
 21
-168.9244613549226
 31
0
  0
LINE
  8
1
 62
2
 10
116.6743152395617
 20
-168.2494613549226
 30
0
 11
117.5743152395617
 21
-168.6994613549226
 31
0
  0
LINE
  8
1
 62
2
 10
116.2243152395617
 20
-167.7994613549226
 30
0
 11
116.6743152395617
 21
-168.2494613549226
 31
0
  0
LINE
  8
1
 62
2
 10
115.9993152395617
 20
-167.1244613549226
 30
0
 11
116.2243152395617
 21
-167.7994613549226
 31
0
  0
LINE
  8
1
 62
2
 10
115.7743152395617
 20
-166.2244613549226
 30
0
 11
115.9993152395617
 21
-167.1244613549226
 31
0
  0
LINE
  8
1
 62
2
 10
115.7743152395617
 20
-162.6244613549226
 30
0
 11
115.7743152395617
 21
-166.2244613549226
 31
0
  0
LINE
  8
1
 62
2
 10
115.9993152395617
 20
-161.7244613549226
 30
0
 11
115.7743152395617
 21
-162.6244613549226
 31
0
  0
LINE
  8
1
 62
2
 10
116.2243152395617
 20
-161.0494613549226
 30
0
 11
115.9993152395617
 21
-161.7244613549226
 31
0
  0
LINE
  8
1
 62
2
 10
116.6743152395617
 20
-160.5994613549226
 30
0
 11
116.2243152395617
 21
-161.0494613549226
 31
0
  0
LINE
  8
1
 62
2
 10
117.3493152395617
 20
-160.1494613549226
 30
0
 11
116.6743152395617
 21
-160.5994613549226
 31
0
  0
LINE
  8
1
 62
2
 10
118.2493152395617
 20
-159.9244613549226
 30
0
 11
117.3493152395617
 21
-160.1494613549226
 31
0
  0
LINE
  8
1
 62
2
 10
122.0743152395617
 20
-159.9244613549226
 30
0
 11
118.2493152395617
 21
-159.9244613549226
 31
0
  0
LINE
  8
1
 62
2
  6
DASHDOT
 10
136.1678622117088
 20
-69.47565210135934
 30
0
 11
158.0363107067914
 21
-69.4801790978988
 31
0
  0
LINE
  8
1
 62
2
  6
DASHDOT
 10
206.1034501970243
 20
-69.49012949626305
 30
0
 11
259.8189341558783
 21
-69.50124916074459
 31
0
  0
LINE
  8
1
 62
2
  6
DASHDOT
 10
259.8189341558783
 20
-69.50124916074459
 30
0
 11
312.4818152395617
 21
-69.51215092547095
 31
0
  0
LINE
  8
1
 62
2
  6
DASHDOT
 10
181.9493152395617
 20
-119.7617683464798
 30
0
 11
181.9493152395617
 21
7.379575862732131
 31
0
  0
LINE
  8
1
 62
2
  6
DASHDOT
 10
55.14931523956184
 20
-69.45888041854622
 30
0
 11
113.649901993527
 21
-69.47099064913029
 31
0
  0
LINE
  8
1
 62
2
  6
DASHDOT
 10
50.15011274316822
 20
111.2668545256893
 30
0
 11
308.135333687942
 21
111.2668545256893
 31
0
  0
LINE
  8
1
 62
2
  6
DASHDOT
 10
181.9493152395617
 20
170.456518348863
 30
0
 11
181.9493152395617
 21
50.410996824587
 31
0
  0
LINE
  8
1
 62
2
 10
127.023342855296
 20
-65.7847209645129
 30
0
 11
116.910763383641
 21
-65.7847209645129
 31
0
  0
LINE
  8
1
 62
2
 10
127.023342855296
 20
-72.7096395157544
 30
0
 11
127.023342855296
 21
-65.7847209645129
 31
0
  0
LINE
  8
1
 62
2
 10
116.910763383641
 20
-72.7096395157544
 30
0
 11
127.023342855296
 21
-72.7096395157544
 31
0
  0
LINE
  8
1
 62
2
 10
116.910763383641
 20
-65.7847209645129
 30
0
 11
116.910763383641
 21
-72.7096395157544
 31
0
  0
LINE
  8
1
 62
7
 10
201.9493152395618
 20
-49.50224506149793
 30
0
 11
191.9493152395618
 21
-45.50224506149793
 31
0
  0
LINE
  8
1
 62
7
 10
191.9493152395618
 20
-45.50224506149793
 30
0
 11
191.9493152395618
 21
-48.00224506149793
 31
0
  0
LINE
  8
1
 62
7
 10
191.9493152395618
 20
-48.00224506149793
 30
0
 11
161.9493152395618
 21
-48.00224506149793
 31
0
  0
LINE
  8
1
 62
7
 10
161.9493152395618
 20
-48.00224506149793
 30
0
 11
161.9493152395618
 21
-51.00224506149793
 31
0
  0
LINE
  8
1
 62
7
 10
161.9493152395618
 20
-51.00224506149793
 30
0
 11
191.9493152395618
 21
-51.00224506149793
 31
0
  0
LINE
  8
1
 62
7
 10
191.9493152395618
 20
-51.00224506149793
 30
0
 11
191.9493152395618
 21
-53.50224506149804
 31
0
  0
LINE
  8
1
 62
7
 10
191.9493152395618
 20
-53.50224506149804
 30
0
 11
201.9493152395618
 21
-49.50224506149793
 31
0
  0
LINE
  8
1
 62
7
 10
161.9493152395618
 20
-45.50224506149793
 30
0
 11
163.3926909125359
 21
-48.00224506149793
 31
0
  0
LINE
  8
1
 62
7
 10
161.9493152395618
 20
-53.50224506149804
 30
0
 11
163.3926909125359
 21
-51.00224506149793
 31
0
  0
LINE
  8
1
 62
7
 10
181.9493152395617
 20
-45.50224506149793
 30
0
 11
183.3926909125359
 21
-48.00224506149793
 31
0
  0
LINE
  8
1
 62
7
 10
181.9493152395617
 20
-53.50224506149804
 30
0
 11
183.3926909125359
 21
-51.00224506149793
 31
0
  0
LINE
  8
1
 62
7
 10
161.9493152395618
 20
-45.50224506149793
 30
0
 11
181.9493152395617
 21
-45.50224506149793
 31
0
  0
LINE
  8
1
 62
7
 10
161.9493152395618
 20
-53.50224506149804
 30
0
 11
181.9493152395617
 21
-53.50224506149804
 31
0
  0
LINE
  8
1
 62
2
 10
141.7835557477776
 20
-31.87060251866525
 30
0
 11
222.1150747313457
 21
-31.87060251866525
 31
0
  0
LINE
  8
1
 62
7
 10
224.4493152395617
 20
-29.00224506149801
 30
0
 11
139.4493152395617
 21
-29.00224506149801
 31
0
  0
LINE
  8
1
 62
7
 10
224.4493152395617
 20
-26.95224506149802
 30
0
 11
224.4493152395617
 21
-29.00224506149801
 31
0
  0
LINE
  8
1
 62
2
 10
140.5318152395614
 20
-26.95224506149802
 30
0
 11
140.5318152395619
 21
-31.29853379744283
 31
0
  0
LINE
  8
1
 62
2
  6
CENTER
 10
134.4694481589853
 20
-33.60484711861652
 30
0
 11
134.4694481589853
 21
-37.16617542909872
 31
0
  0
LINE
  8
1
 62
2
  6
CENTER
 10
132.3562512405827
 20
-35.53894174065274
 30
0
 11
136.4394983551873
 21
-35.53894174065274
 31
0
  0
LINE
  8
1
 62
7
 10
126.1628522681693
 20
-38.00224506149802
 30
0
 11
135.6513672840178
 21
-38.00224506149802
 31
0
  0
LINE
  8
1
 62
7
 10
133.5594731679801
 20
-33.00224506149802
 30
0
 11
126.1628522681693
 21
-38.00224506149802
 31
0
  0
LINE
  8
1
 62
7
 10
140.3642181975851
 20
-33.00224506149802
 30
0
 11
133.5594731679801
 21
-33.00224506149802
 31
0
  0
LINE
  8
1
 62
7
 10
144.5237274337594
 20
-111.0210618289704
 30
0
 11
146.9493152395617
 21
-114.5022450614981
 31
0
  0
LINE
  8
1
 62
7
 10
104.5452331818269
 20
-38.00224506149802
 30
0
 11
126.1628522681693
 21
-38.00224506149802
 31
0
  0
LINE
  8
1
 62
7
 10
227.4493152395617
 20
-87.63931681577732
 30
0
 11
227.4493152395617
 21
-93.62318504920076
 31
0
  0
LINE
  8
1
 62
7
 10
279.826581561453
 20
-93.39195568571586
 30
0
 11
230.9756750326965
 21
-84.68585353207614
 31
0
  0
LINE
  8
1
 62
7
 10
226.5573416359303
 20
-35.69070964364533
 30
0
 11
278.1467763036426
 21
-45.97276244117431
 31
0
  0
LINE
  8
1
 62
7
 10
180.4493152395617
 20
-114.5022450614981
 30
0
 11
179.9493152395617
 21
-113.4951902999996
 31
0
  0
LINE
  8
1
 62
7
 10
139.4493152395617
 20
-29.00224506149801
 30
0
 11
139.4493152395617
 21
-26.95224506149802
 31
0
  0
LINE
  8
1
 62
7
 10
146.9493152395617
 20
-114.5022450614981
 30
0
 11
216.9493152395617
 21
-114.5022450614981
 31
0
  0
LINE
  8
1
 62
7
 10
183.9493152395617
 20
-113.4951902999996
 30
0
 11
183.4493152395617
 21
-114.5022450614981
 31
0
  0
LINE
  8
1
 62
7
 10
216.9493152395617
 20
-114.5022450614981
 30
0
 11
224.1280953969356
 21
-104.1993201151928
 31
0
  0
LINE
  8
1
 62
2
 10
223.366815239562
 20
-31.29853379744283
 30
0
 11
223.366815239562
 21
-26.95224506149802
 31
0
  0
LINE
  8
1
 62
7
 10
140.5318152395614
 20
-28.70224506149803
 30
0
 11
140.5318152395614
 21
-29.00224506149801
 31
0
  0
LINE
  8
1
 62
7
 10
59.84063976816909
 20
-97.50224506149803
 30
0
 11
78.93374359641061
 21
-97.50224506149803
 31
0
  0
LINE
  8
1
 62
7
 10
58.94931523956173
 20
-96.00224506149803
 30
0
 11
59.81534064334615
 21
-97.50224506149802
 31
0
  0
LINE
  8
1
 62
2
 10
58.94931523956173
 20
-43.00224506149804
 30
0
 11
79.87796049477365
 21
-43.00224506149804
 31
0
  0
LINE
  8
1
 62
7
 10
58.94931523956173
 20
-43.00224506149804
 30
0
 11
58.94931523956173
 21
-96.00224506149803
 31
0
  0
LINE
  8
1
 62
2
 10
58.94931523956173
 20
-96.00224506149803
 30
0
 11
79.89715195430139
 21
-96.00224506149803
 31
0
  0
LINE
  8
1
 62
7
 10
78.94931523956174
 20
-41.50224506149804
 30
0
 11
78.93374359641061
 21
-41.50224506149804
 31
0
  0
LINE
  8
1
 62
7
 10
59.81534064334615
 20
-41.50224506149804
 30
0
 11
58.94931523956173
 21
-43.00224506149804
 31
0
  0
LINE
  8
1
 62
2
 10
59.81534064334615
 20
-41.50224506149804
 30
0
 11
59.81534064334615
 21
-97.50224506149802
 31
0
  0
LINE
  8
1
 62
7
 10
78.93374359641061
 20
-41.50224506149804
 30
0
 11
78.93374359641061
 21
-97.50224506149803
 31
0
  0
LINE
  8
1
 62
7
 10
78.93374359641061
 20
-97.50224506149803
 30
0
 11
78.94931523956174
 21
-97.50224506149803
 31
0
  0
LINE
  8
1
 62
7
 10
78.93374359641061
 20
-41.50224506149804
 30
0
 11
59.81534064334615
 21
-41.50224506149804
 31
0
  0
LINE
  8
1
 62
7
 10
283.9493152395614
 20
-97.50224506149803
 30
0
 11
303.083289835777
 21
-97.50224506149803
 31
0
  0
LINE
  8
1
 62
7
 10
303.9493152395614
 20
-96.00224506149803
 30
0
 11
303.083289835777
 21
-97.50224506149803
 31
0
  0
LINE
  8
1
 62
7
 10
283.9493152395614
 20
-41.50224506149804
 30
0
 11
303.083289835777
 21
-41.50224506149804
 31
0
  0
LINE
  8
1
 62
7
 10
303.9493152395614
 20
-43.00224506149804
 30
0
 11
303.083289835777
 21
-41.50224506149804
 31
0
  0
LINE
  8
1
 62
7
 10
283.9493152395614
 20
-41.50224506149804
 30
0
 11
283.9230012208724
 21
-41.50224506149804
 31
0
  0
LINE
  8
1
 62
7
 10
303.9493152395614
 20
-96.00224506149803
 30
0
 11
303.9493152395614
 21
-43.00224506149804
 31
0
  0
LINE
  8
1
 62
2
 10
303.9493152395614
 20
-43.00224506149804
 30
0
 11
283.5422286176473
 21
-43.00224506149804
 31
0
  0
LINE
  8
1
 62
2
 10
303.9493152395614
 20
-96.00224506149803
 30
0
 11
283.4277616772843
 21
-96.00224506149803
 31
0
  0
LINE
  8
1
 62
7
 10
283.9493152395614
 20
-41.50224506149804
 30
0
 11
283.9493152395614
 21
-97.50224506149803
 31
0
  0
LINE
  8
1
 62
2
 10
303.083289835777
 20
-41.50224506149804
 30
0
 11
303.083289835777
 21
-97.50224506149803
 31
0
  0
LINE
  8
1
 62
7
 10
133.7859211098692
 20
75.81204618071814
 30
0
 11
133.8814294944613
 21
76.80747480622233
 31
0
  0
LINE
  8
1
 62
7
 10
129.8042066078536
 20
76.19407971908805
 30
0
 11
133.7859211098692
 21
75.81204618071814
 31
0
  0
LINE
  8
1
 62
7
 10
129.899714992446
 20
77.18950834459201
 30
0
 11
129.8042066078536
 21
76.19407971908805
 31
0
  0
LINE
  8
1
 62
7
 10
127.7485433888913
 20
76.39131442610631
 30
0
 11
127.8440517734834
 21
77.38674305161055
 31
0
  0
LINE
  8
1
 62
7
 10
123.7668288868757
 20
76.77334796447622
 30
0
 11
127.7485433888913
 21
76.39131442610631
 31
0
  0
LINE
  8
1
 62
7
 10
123.8623372714681
 20
77.76877658998023
 30
0
 11
123.7668288868757
 21
76.77334796447622
 31
0
  0
LINE
  8
1
 62
7
 10
121.7759716358682
 20
76.96436473366123
 30
0
 11
121.8714800204604
 21
77.95979335916536
 31
0
  0
LINE
  8
1
 62
7
 10
117.7942571338525
 20
77.34639827203012
 30
0
 11
121.7759716358682
 21
76.96436473366123
 31
0
  0
LINE
  8
1
 62
7
 10
117.8897655184448
 20
78.34182689753413
 30
0
 11
117.7942571338525
 21
77.34639827203012
 31
0
  0
LINE
  8
1
 62
7
 10
101.5367190671667
 20
142.6228559578622
 30
0
 11
152.0916973514906
 21
147.4734541678492
 31
0
  0
LINE
  8
1
 62
7
 10
152.0916973514906
 20
75.06025434112922
 30
0
 11
101.5367190671667
 21
79.91085255111722
 31
0
  0
LINE
  8
1
 62
7
 10
212.3669978290049
 20
146.6361644524791
 30
0
 11
278.0629566370314
 21
134.8027099193212
 31
0
  0
LINE
  8
1
 62
7
 10
278.0629566370314
 20
87.73099858965725
 30
0
 11
212.3669978290046
 21
75.89754405649916
 31
0
  0
LINE
  8
1
 62
7
 10
78.93374359641061
 20
139.2668542544892
 30
0
 11
59.81534064334615
 21
139.2668542544892
 31
0
  0
LINE
  8
1
 62
7
 10
59.81534064334615
 20
139.2668542544892
 30
0
 11
58.94931523956173
 21
137.7668542544892
 31
0
  0
LINE
  8
1
 62
2
 10
79.87796049477365
 20
84.76685425448915
 30
0
 11
58.94931523956173
 21
84.76685425448915
 31
0
  0
LINE
  8
1
 62
7
 10
58.94931523956173
 20
137.7668542544892
 30
0
 11
58.94931523956173
 21
84.76685425448915
 31
0
  0
LINE
  8
1
 62
2
 10
79.89715195430139
 20
137.7668542544892
 30
0
 11
58.94931523956173
 21
137.7668542544892
 31
0
  0
LINE
  8
1
 62
7
 10
78.93374359641061
 20
83.26685425448915
 30
0
 11
78.94931523956174
 21
83.26685425448915
 31
0
  0
LINE
  8
1
 62
7
 10
58.94931523956173
 20
84.76685425448915
 30
0
 11
59.81534064334615
 21
83.26685425448915
 31
0
  0
LINE
  8
1
 62
2
 10
59.81534064334615
 20
139.2668542544892
 30
0
 11
59.81534064334615
 21
83.26685425448915
 31
0
  0
LINE
  8
1
 62
7
 10
78.93374359641061
 20
139.2668542544892
 30
0
 11
78.93374359641061
 21
83.26685425448915
 31
0
  0
LINE
  8
1
 62
7
 10
78.94931523956174
 20
139.2668542544892
 30
0
 11
78.93374359641061
 21
139.2668542544892
 31
0
  0
LINE
  8
1
 62
7
 10
59.81534064334615
 20
83.26685425448915
 30
0
 11
78.93374359641061
 21
83.26685425448915
 31
0
  0
LINE
  8
1
 62
7
 10
303.083289835777
 20
139.2668542544892
 30
0
 11
283.9493152395614
 21
139.2668542544892
 31
0
  0
LINE
  8
1
 62
7
 10
303.083289835777
 20
139.2668542544892
 30
0
 11
303.9493152395614
 21
137.7668542544892
 31
0
  0
LINE
  8
1
 62
7
 10
303.083289835777
 20
83.26685425448915
 30
0
 11
283.9493152395614
 21
83.26685425448915
 31
0
  0
LINE
  8
1
 62
7
 10
303.083289835777
 20
83.26685425448915
 30
0
 11
303.9493152395614
 21
84.76685425448915
 31
0
  0
LINE
  8
1
 62
7
 10
303.9493152395614
 20
84.76685425448915
 30
0
 11
303.9493152395614
 21
137.7668542544892
 31
0
  0
LINE
  8
1
 62
2
 10
283.5422286176473
 20
84.76685425448915
 30
0
 11
303.9493152395614
 21
84.76685425448915
 31
0
  0
LINE
  8
1
 62
2
 10
283.5691984722163
 20
137.7668542544892
 30
0
 11
303.9493152395614
 21
137.7668542544892
 31
0
  0
LINE
  8
1
 62
7
 10
283.9493152395614
 20
139.2668542544892
 30
0
 11
283.9493152395614
 21
83.26685425448915
 31
0
  0
LINE
  8
1
 62
2
 10
303.083289835777
 20
139.2668542544892
 30
0
 11
303.083289835777
 21
83.26685425448915
 31
0
  0
LINE
  8
1
 62
7
 10
227.9493152395615
 20
-9.952244764197946
 30
0
 11
135.4493152395615
 21
-9.952244764197946
 31
0
  0
LINE
  8
1
 62
7
 10
228.4493152395615
 20
-26.95224476419795
 30
0
 11
135.4493152395615
 21
-26.95224476419795
 31
0
  0
LINE
  8
1
 62
7
 10
224.4493152395615
 20
-0.9522447641979159
 30
0
 11
139.4493152395615
 21
-0.9522447641979159
 31
0
  0
LINE
  8
1
 62
7
 10
224.4493152395615
 20
-0.9522447641979159
 30
0
 11
224.4493152395615
 21
-2.452244764197916
 31
0
  0
LINE
  8
1
 62
7
 10
139.4493152395615
 20
-0.9522447641979159
 30
0
 11
139.4493152395615
 21
-2.452244764197916
 31
0
  0
LINE
  8
1
 62
7
 10
228.4493152395615
 20
-26.95224476419795
 30
0
 11
228.4493152395615
 21
-9.952244764197946
 31
0
  0
LINE
  8
1
 62
7
 10
234.9493152395615
 20
-9.952244764197946
 30
0
 11
227.9493152395615
 21
-9.952244764197946
 31
0
  0
LINE
  8
1
 62
7
 10
226.9493152395615
 20
-2.452244764197916
 30
0
 11
226.9493152395615
 21
-8.952244764197946
 31
0
  0
LINE
  8
1
 62
7
 10
228.4493152395615
 20
-25.95224476419795
 30
0
 11
234.9493152395615
 21
-25.95224476419795
 31
0
  0
LINE
  8
1
 62
7
 10
235.9493152395615
 20
-10.95224476419795
 30
0
 11
235.9493152395615
 21
-24.95224476419795
 31
0
  0
LINE
  8
1
 62
7
 10
226.9493152395615
 20
-2.452244764197916
 30
0
 11
136.9493152395615
 21
-2.452244764197916
 31
0
  0
LINE
  8
1
 62
7
 10
136.9493152395615
 20
-2.452244764197916
 30
0
 11
136.9493152395615
 21
-8.452244764197918
 31
0
  0
LINE
  8
1
 62
7
 10
135.4493152395615
 20
-9.952244764197946
 30
0
 11
135.4493152395615
 21
-26.95224476419795
 31
0
  0
LINE
  8
1
 62
7
 10
136.9493152395615
 20
-3.452244764197916
 30
0
 11
129.4493152395615
 21
-3.452244764197916
 31
0
  0
LINE
  8
1
 62
7
 10
135.4493152395615
 20
-25.95224476419795
 30
0
 11
128.9493152395615
 21
-25.95224476419795
 31
0
  0
LINE
  8
1
 62
7
 10
127.9493152395615
 20
-4.952244764197916
 30
0
 11
127.9493152395615
 21
-24.95224476419795
 31
0
  0
LINE
  8
1
 62
7
 10
177.9493152395617
 20
-10.95224476419792
 30
0
 11
177.9493152395617
 21
-24.95224476419792
 31
0
  0
LINE
  8
1
 62
7
 10
185.9493152395617
 20
-24.95224476419792
 30
0
 11
185.9493152395617
 21
-10.95224476419792
 31
0
  0
LINE
  8
1
 62
7
 10
178.9493152395617
 20
-25.95224476419792
 30
0
 11
184.9493152395617
 21
-25.95224476419792
 31
0
  0
LINE
  8
0
 62
7
 10
160.5493150380615
 20
-0.9522447641979159
 30
0
 11
160.5493150380615
 21
0.04775567160189009
 31
0
  0
LINE
  8
0
 62
7
 10
163.2785940271614
 20
-0.9522447641979159
 30
0
 11
163.2785940271614
 21
0.04775567160189009
 31
0
  0
LINE
  8
0
 62
7
 10
157.5493147791614
 20
10.04775544810188
 30
0
 11
157.5493147791614
 21
0.04775567160189009
 31
0
  0
LINE
  8
0
 62
7
 10
156.5493150808615
 20
10.04775544810188
 30
0
 11
168.0493148703615
 21
10.04775544810188
 31
0
  0
LINE
  8
0
 62
7
 10
167.0493149393615
 20
-0.9522447641979159
 30
0
 11
167.0493149393615
 21
10.04775544810188
 31
0
  0
LINE
  8
0
 62
7
 10
156.5493150808615
 20
9.04775528420188
 30
0
 11
168.0493148703615
 21
9.04775528420188
 31
0
  0
LINE
  8
0
 62
7
 10
156.5493150808615
 20
1.047754904201879
 30
0
 11
156.5493150808615
 21
10.04775544810188
 31
0
  0
LINE
  8
0
 62
7
 10
168.0493148703615
 20
10.04775544810188
 30
0
 11
168.0493148703615
 21
-0.9522447641979159
 31
0
  0
LINE
  8
0
 62
7
 10
162.8051671394615
 20
10.54775493850188
 30
0
 11
162.8051671394615
 21
10.04775544810188
 31
0
  0
LINE
  8
0
 62
7
 10
166.2471773995615
 20
10.54775493850188
 30
0
 11
162.8051671394615
 21
10.54775493850188
 31
0
  0
LINE
  8
0
 62
7
 10
166.2471773995615
 20
10.54775493850188
 30
0
 11
166.2471773995615
 21
10.04775544810188
 31
0
  0
LINE
  8
0
 62
7
 10
162.4333354373616
 20
10.54775493850188
 30
0
 11
162.4333354373616
 21
10.04775544810188
 31
0
  0
LINE
  8
0
 62
7
 10
162.7888551409615
 20
10.54775493850188
 30
0
 11
162.7888551409615
 21
10.04775544810188
 31
0
  0
LINE
  8
0
 62
7
 10
162.7888551409615
 20
10.54775493850188
 30
0
 11
162.3317584124615
 21
10.54775493850188
 31
0
  0
LINE
  8
0
 62
7
 10
162.3317584124615
 20
10.54775493850188
 30
0
 11
162.3317584124615
 21
10.04775544810188
 31
0
  0
LINE
  8
0
 62
7
 10
168.0493148703615
 20
1.047754904201879
 30
0
 11
156.5493150808615
 21
1.047754904201879
 31
0
  0
LINE
  8
0
 62
7
 10
167.0493149393615
 20
0.04775567160189009
 30
0
 11
157.5493147791614
 21
0.04775567160189009
 31
0
  0
LINE
  8
0
 62
7
 10
163.9869230819615
 20
0.04775567160189009
 30
0
 11
163.9869230819615
 21
-0.9522447641979159
 31
0
  0
LINE
  8
0
 62
7
 10
160.7453933645615
 20
0.04775567160189009
 30
0
 11
160.7453933645615
 21
-0.9522447641979159
 31
0
  0
LINE
  8
0
 62
7
 10
158.0493148611617
 20
110.4668544876892
 30
0
 11
158.0493148611617
 21
116.4668545398892
 31
0
  0
LINE
  8
0
 62
7
 10
158.9493151949617
 20
91.94361169748922
 30
0
 11
158.4706023530616
 21
92.46685479688921
 31
0
  0
LINE
  8
0
 62
7
 10
157.9493150310615
 20
116.4668545398892
 30
0
 11
158.0493148611617
 21
116.4668545398892
 31
0
  0
LINE
  8
0
 62
7
 10
157.9493150310615
 20
110.4668544876892
 30
0
 11
158.0493148611617
 21
110.4668544876892
 31
0
  0
LINE
  8
0
 62
7
 10
155.9493147031616
 20
116.4668545398892
 30
0
 11
157.4493158803617
 21
116.4668545398892
 31
0
  0
LINE
  8
0
 62
7
 10
155.9493147031616
 20
110.4668544876892
 30
0
 11
157.4493158803617
 21
110.4668544876892
 31
0
  0
LINE
  8
0
 62
7
 10
155.9493147031616
 20
116.4668545398892
 30
0
 11
155.9493147031616
 21
110.4668544876892
 31
0
  0
LINE
  8
0
 62
7
 10
157.4493158803617
 20
116.4668545398892
 30
0
 11
157.9493150310615
 21
116.4668545398892
 31
0
  0
LINE
  8
0
 62
7
 10
157.4493158803617
 20
110.4668544876892
 30
0
 11
157.9493150310615
 21
110.4668544876892
 31
0
  0
LINE
  8
0
 62
7
 10
157.9493150310615
 20
116.4668545398892
 30
0
 11
157.9493150310615
 21
110.4668544876892
 31
0
  0
LINE
  8
0
 62
7
 10
157.4493158803617
 20
116.4668545398892
 30
0
 11
157.4493158803617
 21
110.4668544876892
 31
0
  0
LINE
  8
0
 62
7
 10
166.9493155749616
 20
132.4668539028892
 30
0
 11
163.8869229899617
 21
132.4668539028892
 31
0
  0
LINE
  8
0
 62
7
 10
157.4493158803617
 20
92.46685479688921
 30
0
 11
166.9493155749616
 21
92.46685479688921
 31
0
  0
LINE
  8
0
 62
7
 10
167.9493148074616
 20
93.46685496078919
 30
0
 11
167.9493148074616
 21
131.4668537389892
 31
0
  0
LINE
  8
0
 62
7
 10
160.4493145094617
 20
128.6326053823892
 30
0
 11
160.4493145094617
 21
110.3950576662892
 31
0
  0
LINE
  8
0
 62
7
 10
160.4493145094617
 20
110.3950576662892
 30
0
 11
156.4493157164617
 21
103.4668547372892
 31
0
  0
LINE
  8
0
 62
7
 10
156.4493157164617
 20
103.4668547372892
 30
0
 11
156.4493157164617
 21
93.46685496078919
 31
0
  0
LINE
  8
0
 62
2
 10
166.1471776859616
 20
120.6591402451892
 30
0
 11
166.1471776859616
 21
120.0446619923892
 31
0
  0
LINE
  8
0
 62
2
 10
163.3336112098617
 20
120.6591402451892
 30
0
 11
166.1471776859616
 21
120.6591402451892
 31
0
  0
LINE
  8
0
 62
2
 10
162.7051677749617
 20
117.8595394167892
 30
0
 11
163.1325088636617
 21
117.8595394167892
 31
0
  0
LINE
  8
0
 62
2
 10
162.7051677749617
 20
117.2450609311892
 30
0
 11
162.7051677749617
 21
117.8595394167892
 31
0
  0
LINE
  8
0
 62
2
 10
166.1471776859616
 20
117.2450609311892
 30
0
 11
162.7051677749617
 21
117.2450609311892
 31
0
  0
LINE
  8
0
 62
2
 10
166.1471776859616
 20
117.8595394167892
 30
0
 11
166.1471776859616
 21
117.2450609311892
 31
0
  0
LINE
  8
0
 62
2
 10
163.8615034715617
 20
117.8595394167892
 30
0
 11
166.1471776859616
 21
117.8595394167892
 31
0
  0
LINE
  8
0
 62
2
 10
166.1471776859616
 20
118.6304305020893
 30
0
 11
163.5347135560616
 21
118.6304305020893
 31
0
  0
LINE
  8
0
 62
2
 10
166.1471776859616
 20
119.2449087548892
 30
0
 11
166.1471776859616
 21
118.6304305020893
 31
0
  0
LINE
  8
0
 62
2
 10
163.8615034715617
 20
119.2449087548892
 30
0
 11
166.1471776859616
 21
119.2449087548892
 31
0
  0
LINE
  8
0
 62
2
 10
166.1471776859616
 20
120.0446619923892
 30
0
 11
163.5598518149616
 21
120.0446619923892
 31
0
  0
LINE
  8
0
 62
2
 10
163.3914295779616
 20
120.8352947879892
 30
0
 11
163.3914295779616
 21
121.0876697014892
 31
0
  0
LINE
  8
0
 62
2
 10
162.6888547287617
 20
121.1205882291892
 30
0
 11
162.6888547287617
 21
120.8791856925891
 31
0
  0
LINE
  8
0
 62
2
 10
163.1036285506618
 20
121.3180993955892
 30
0
 11
162.9597280369616
 21
121.3180993955892
 31
0
  0
LINE
  8
0
 62
7
 10
163.9493160144615
 20
52.16685620058919
 30
0
 11
163.9493160144615
 21
92.46685479688921
 31
0
  0
LINE
  8
0
 62
7
 10
158.9493151949617
 20
92.46685479688921
 30
0
 11
158.9493151949617
 21
52.16685620058919
 31
0
  0
LINE
  8
0
 62
7
 10
167.9493148074616
 20
93.46685496078919
 30
0
 11
167.9493148074617
 21
88.17464795818937
 31
0
  0
LINE
  8
0
 62
7
 10
156.0493145332617
 20
109.9668545221893
 30
0
 11
157.5493157104617
 21
109.9668545221893
 31
0
  0
LINE
  8
0
 62
7
 10
155.5493153826616
 20
116.4668545398893
 30
0
 11
155.5493153826616
 21
110.4668545458892
 31
0
  0
LINE
  8
0
 62
7
 10
157.5493157104617
 20
116.9668546217893
 30
0
 11
156.0493145332617
 21
116.9668546217893
 31
0
  0
LINE
  8
0
 62
7
 10
158.0493148610617
 20
110.4668545458892
 30
0
 11
158.0493148610617
 21
116.4668545398893
 31
0
  0
LINE
  8
0
 62
7
 10
167.9493148074617
 20
134.3590610931893
 30
0
 11
167.9493148074617
 21
132.4668539027893
 31
0
  0
LINE
  8
0
 62
7
 10
167.9493148074617
 20
132.4668539027893
 30
0
 11
166.9493155749616
 21
132.4668539028892
 31
0
  0
LINE
  8
1
 62
2
 10
175.9193819817701
 20
126.6565922015088
 30
0
 11
177.9496780859113
 21
128.6868883056499
 31
0
  0
LINE
  8
1
 62
2
 10
174.3981359534641
 20
126.3727489494172
 30
0
 11
178.1900820983321
 21
130.1646950942851
 31
0
  0
LINE
  8
1
 62
2
 10
173.7796114863872
 20
126.991273416485
 30
0
 11
177.5715576312552
 21
130.7832195613529
 31
0
  0
LINE
  8
1
 62
2
 10
174.0074021625132
 20
128.6060583521086
 30
0
 11
176.0376982666542
 21
130.6363544562496
 31
0
  0
LINE
  8
1
 62
2
 10
190.7375981900001
 20
94.44840325304037
 30
0
 11
192.7678942941413
 21
96.47869935718146
 31
0
  0
LINE
  8
1
 62
2
 10
189.2163521616942
 20
94.16456000094874
 30
0
 11
193.0082983065622
 21
97.95650614581663
 31
0
  0
LINE
  8
1
 62
2
 10
188.5978276946173
 20
94.78308446801654
 30
0
 11
192.3897738394853
 21
98.57503061288443
 31
0
  0
LINE
  8
1
 62
2
 10
188.8256183707433
 20
96.39786940364016
 30
0
 11
190.8559144748842
 21
98.42816550778113
 31
0
  0
LINE
  8
1
 62
7
 10
129.4493152395617
 20
115.2668545256893
 30
0
 11
135.775729717101
 21
115.2668545256893
 31
0
  0
LINE
  8
1
 62
7
 10
127.9493152395617
 20
108.7668545256893
 30
0
 11
127.9493152395617
 21
113.7668545256893
 31
0
  0
LINE
  8
1
 62
7
 10
135.775729717101
 20
107.2668545256893
 30
0
 11
129.4493152395617
 21
107.2668545256893
 31
0
  0
LINE
  8
1
 62
7
 10
179.4493152395617
 20
165.2668545256893
 30
0
 11
184.4493152395617
 21
165.2668545256893
 31
0
  0
LINE
  8
1
 62
7
 10
177.9493152395617
 20
163.7668545256893
 30
0
 11
177.9493152395617
 21
158.9507092356432
 31
0
  0
LINE
  8
1
 62
7
 10
185.9493152395617
 20
163.7668545256893
 30
0
 11
185.9493152395617
 21
158.9507092356432
 31
0
  0
LINE
  8
1
 62
7
 10
229.6331699495156
 20
115.2668545256893
 30
0
 11
234.4493152395617
 21
115.2668545256893
 31
0
  0
LINE
  8
1
 62
7
 10
235.9493152395617
 20
113.7668545256893
 30
0
 11
235.9493152395617
 21
108.7668545256893
 31
0
  0
LINE
  8
1
 62
7
 10
184.4493152395617
 20
57.2668545256893
 30
0
 11
179.4493152395617
 21
57.2668545256893
 31
0
  0
LINE
  8
1
 62
7
 10
177.9493152395617
 20
63.5829998157353
 30
0
 11
177.9493152395617
 21
58.7668545256893
 31
0
  0
LINE
  8
1
 62
7
 10
185.9493152395617
 20
63.5829998157353
 30
0
 11
185.9493152395617
 21
58.7668545256893
 31
0
  0
LINE
  8
1
 62
7
 10
234.4493152395617
 20
107.2668545256893
 30
0
 11
229.6331699495156
 21
107.2668545256893
 31
0
  0
LINE
  8
1
 62
2
 10
53.26933282075762
 20
-4.211872203044073
 30
0
 11
57.66933282075762
 21
-4.211872203044073
 31
0
  0
LINE
  8
1
 62
2
 10
56.98183282075762
 20
-1.272809703044073
 30
0
 11
55.33183282075762
 21
-1.272809703044073
 31
0
  0
LINE
  8
1
 62
2
 10
55.33183282075762
 20
0.5834402969559269
 30
0
 11
55.33183282075762
 21
-4.211872203044073
 31
0
  0
LINE
  8
1
 62
2
 10
58.49433282075761
 20
-3.593122203044072
 30
0
 11
59.04433282075762
 21
-2.974372203044073
 31
0
  0
LINE
  8
1
 62
2
 10
59.04433282075762
 20
-2.974372203044073
 30
0
 11
59.59433282075761
 21
-2.046247203044073
 31
0
  0
LINE
  8
1
 62
2
 10
59.59433282075761
 20
-2.046247203044073
 30
0
 11
59.86933282075761
 21
-1.118122203044073
 31
0
  0
LINE
  8
1
 62
2
 10
59.86933282075761
 20
-1.118122203044073
 30
0
 11
58.49433282075761
 21
-1.118122203044073
 31
0
  0
LINE
  8
1
 62
2
 10
60.55683282075761
 20
0.4287527969559273
 30
0
 11
60.55683282075761
 21
-4.366559703044072
 31
0
  0
LINE
  8
1
 62
2
 10
60.55683282075761
 20
-4.366559703044072
 30
0
 11
60.14433282075761
 21
-4.211872203044073
 31
0
  0
LINE
  8
1
 62
2
 10
62.20683282075761
 20
-0.6540597030440729
 30
0
 11
61.24433282075761
 21
-1.427497203044073
 31
0
  0
LINE
  8
1
 62
2
 10
60.96933282075761
 20
-0.808747203044073
 30
0
 11
61.38183282075762
 21
-1.891559703044073
 31
0
  0
LINE
  8
1
 62
2
 10
61.38183282075762
 20
-1.891559703044073
 30
0
 11
61.93183282075761
 21
-2.819684703044072
 31
0
  0
LINE
  8
1
 62
2
 10
61.93183282075761
 20
-2.819684703044072
 30
0
 11
62.61933282075761
 21
-3.593122203044072
 31
0
  0
LINE
  8
1
 62
2
 10
63.58183282075762
 20
-3.747809703044073
 30
0
 11
63.71933282075761
 21
-4.057184703044072
 31
0
  0
LINE
  8
1
 62
2
 10
63.71933282075761
 20
-4.057184703044072
 30
0
 11
63.99433282075762
 21
-4.211872203044073
 31
0
  0
LINE
  8
1
 62
2
 10
63.99433282075762
 20
-4.211872203044073
 30
0
 11
64.54433282075762
 21
-4.366559703044072
 31
0
  0
LINE
  8
1
 62
2
 10
64.54433282075762
 20
-4.366559703044072
 30
0
 11
66.19433282075762
 21
-4.366559703044072
 31
0
  0
LINE
  8
1
 62
2
 10
66.19433282075762
 20
-4.366559703044072
 30
0
 11
66.74433282075762
 21
-4.211872203044073
 31
0
  0
LINE
  8
1
 62
2
 10
66.74433282075762
 20
-4.211872203044073
 30
0
 11
67.01933282075761
 21
-3.902497203044073
 31
0
  0
LINE
  8
1
 62
2
 10
67.01933282075761
 20
-3.902497203044073
 30
0
 11
67.15683282075761
 21
-3.438434703044073
 31
0
  0
LINE
  8
1
 62
2
 10
67.15683282075761
 20
-3.438434703044073
 30
0
 11
67.15683282075761
 21
-2.664997203044073
 31
0
  0
LINE
  8
1
 62
2
 10
67.15683282075761
 20
-2.664997203044073
 30
0
 11
67.01933282075761
 21
-2.200934703044073
 31
0
  0
LINE
  8
1
 62
2
 10
67.01933282075761
 20
-2.200934703044073
 30
0
 11
66.74433282075762
 21
-1.891559703044073
 31
0
  0
LINE
  8
1
 62
2
 10
66.74433282075762
 20
-1.891559703044073
 30
0
 11
66.19433282075762
 21
-1.736872203044073
 31
0
  0
LINE
  8
1
 62
2
 10
66.19433282075762
 20
-1.736872203044073
 30
0
 11
64.54433282075762
 21
-1.736872203044073
 31
0
  0
LINE
  8
1
 62
2
 10
64.54433282075762
 20
-1.736872203044073
 30
0
 11
63.99433282075762
 21
-1.891559703044073
 31
0
  0
LINE
  8
1
 62
2
 10
63.99433282075762
 20
-1.891559703044073
 30
0
 11
63.58183282075762
 21
-2.355622203044073
 31
0
  0
LINE
  8
1
 62
2
 10
63.58183282075762
 20
-2.355622203044073
 30
0
 11
63.58183282075762
 21
-0.3446847030440727
 31
0
  0
LINE
  8
1
 62
2
 10
63.58183282075762
 20
-0.3446847030440727
 30
0
 11
67.01933282075761
 21
-0.3446847030440727
 31
0
  0
LINE
  8
1
 62
2
 10
68.66933282075762
 20
-4.057184703044072
 30
0
 11
68.94433282075762
 21
-4.211872203044073
 31
0
  0
LINE
  8
1
 62
2
 10
68.94433282075762
 20
-4.211872203044073
 30
0
 11
69.49433282075762
 21
-4.366559703044072
 31
0
  0
LINE
  8
1
 62
2
 10
69.49433282075762
 20
-4.366559703044072
 30
0
 11
71.00683282075762
 21
-4.366559703044072
 31
0
  0
LINE
  8
1
 62
2
 10
71.00683282075762
 20
-4.366559703044072
 30
0
 11
71.69433282075762
 21
-4.211872203044073
 31
0
  0
LINE
  8
1
 62
2
 10
71.69433282075762
 20
-4.211872203044073
 30
0
 11
71.96933282075761
 21
-3.902497203044073
 31
0
  0
LINE
  8
1
 62
2
 10
71.96933282075761
 20
-3.902497203044073
 30
0
 11
72.10683282075762
 21
-3.283747203044073
 31
0
  0
LINE
  8
1
 62
2
 10
72.10683282075762
 20
-3.283747203044073
 30
0
 11
72.10683282075762
 21
-1.272809703044073
 31
0
  0
LINE
  8
1
 62
2
 10
72.10683282075762
 20
-1.272809703044073
 30
0
 11
71.96933282075761
 21
-0.808747203044073
 31
0
  0
LINE
  8
1
 62
2
 10
71.96933282075761
 20
-0.808747203044073
 30
0
 11
71.69433282075762
 21
-0.4993722030440728
 31
0
  0
LINE
  8
1
 62
2
 10
71.69433282075762
 20
-0.4993722030440728
 30
0
 11
71.00683282075762
 21
-0.3446847030440727
 31
0
  0
LINE
  8
1
 62
2
 10
71.00683282075762
 20
-0.3446847030440727
 30
0
 11
69.63183282075762
 21
-0.3446847030440727
 31
0
  0
LINE
  8
1
 62
2
 10
69.63183282075762
 20
-0.3446847030440727
 30
0
 11
68.94433282075762
 21
-0.4993722030440728
 31
0
  0
LINE
  8
1
 62
2
 10
68.94433282075762
 20
-0.4993722030440728
 30
0
 11
68.66933282075762
 21
-0.6540597030440729
 31
0
  0
LINE
  8
1
 62
2
 10
68.66933282075762
 20
-0.6540597030440729
 30
0
 11
68.53183282075761
 21
-1.118122203044073
 31
0
  0
LINE
  8
1
 62
2
 10
68.53183282075761
 20
-1.118122203044073
 30
0
 11
68.53183282075761
 21
-2.046247203044073
 31
0
  0
LINE
  8
1
 62
2
 10
68.53183282075761
 20
-2.046247203044073
 30
0
 11
68.66933282075762
 21
-2.355622203044073
 31
0
  0
LINE
  8
1
 62
2
 10
68.66933282075762
 20
-2.355622203044073
 30
0
 11
68.94433282075762
 21
-2.510309703044073
 31
0
  0
LINE
  8
1
 62
2
 10
68.94433282075762
 20
-2.510309703044073
 30
0
 11
69.63183282075762
 21
-2.664997203044073
 31
0
  0
LINE
  8
1
 62
2
 10
69.63183282075762
 20
-2.664997203044073
 30
0
 11
71.00683282075762
 21
-2.664997203044073
 31
0
  0
LINE
  8
1
 62
2
 10
71.00683282075762
 20
-2.664997203044073
 30
0
 11
71.69433282075762
 21
-2.510309703044073
 31
0
  0
LINE
  8
1
 62
2
 10
71.69433282075762
 20
-2.510309703044073
 30
0
 11
71.96933282075761
 21
-2.355622203044073
 31
0
  0
LINE
  8
1
 62
2
 10
71.96933282075761
 20
-2.355622203044073
 30
0
 11
72.10683282075762
 21
-2.046247203044073
 31
0
  0
LINE
  8
1
 62
2
 10
73.06933282075761
 20
-4.366559703044072
 30
0
 11
73.06933282075761
 21
-4.242809703044072
 31
0
  0
LINE
  8
1
 62
2
 10
73.06933282075761
 20
-4.242809703044072
 30
0
 11
73.19308282075761
 21
-4.242809703044072
 31
0
  0
LINE
  8
1
 62
2
 10
73.19308282075761
 20
-4.242809703044072
 30
0
 11
73.19308282075761
 21
-4.366559703044072
 31
0
  0
LINE
  8
1
 62
2
 10
73.19308282075761
 20
-4.366559703044072
 30
0
 11
73.06933282075761
 21
-4.366559703044072
 31
0
  0
LINE
  8
1
 62
2
 10
75.21433282075761
 20
-2.664997203044073
 30
0
 11
75.35183282075761
 21
-2.355622203044073
 31
0
  0
LINE
  8
1
 62
2
 10
75.35183282075761
 20
-2.355622203044073
 30
0
 11
75.62683282075761
 21
-2.200934703044073
 31
0
  0
LINE
  8
1
 62
2
 10
75.62683282075761
 20
-2.200934703044073
 30
0
 11
76.31433282075761
 21
-2.046247203044073
 31
0
  0
LINE
  8
1
 62
2
 10
76.31433282075761
 20
-2.046247203044073
 30
0
 11
77.68933282075761
 21
-2.046247203044073
 31
0
  0
LINE
  8
1
 62
2
 10
77.68933282075761
 20
-2.046247203044073
 30
0
 11
78.37683282075761
 21
-2.200934703044073
 31
0
  0
LINE
  8
1
 62
2
 10
78.37683282075761
 20
-2.200934703044073
 30
0
 11
78.65183282075761
 21
-2.355622203044073
 31
0
  0
LINE
  8
1
 62
2
 10
78.65183282075761
 20
-2.355622203044073
 30
0
 11
78.78933282075761
 21
-2.664997203044073
 31
0
  0
LINE
  8
1
 62
2
 10
78.78933282075761
 20
-2.664997203044073
 30
0
 11
78.78933282075761
 21
-3.593122203044072
 31
0
  0
LINE
  8
1
 62
2
 10
78.78933282075761
 20
-3.593122203044072
 30
0
 11
78.51433282075762
 21
-4.057184703044072
 31
0
  0
LINE
  8
1
 62
2
 10
78.51433282075762
 20
-4.057184703044072
 30
0
 11
78.23933282075761
 21
-4.211872203044073
 31
0
  0
LINE
  8
1
 62
2
 10
78.23933282075761
 20
-4.211872203044073
 30
0
 11
77.68933282075761
 21
-4.366559703044072
 31
0
  0
LINE
  8
1
 62
2
 10
77.68933282075761
 20
-4.366559703044072
 30
0
 11
76.31433282075761
 21
-4.366559703044072
 31
0
  0
LINE
  8
1
 62
2
 10
76.31433282075761
 20
-4.366559703044072
 30
0
 11
75.76433282075762
 21
-4.211872203044073
 31
0
  0
LINE
  8
1
 62
2
 10
75.76433282075762
 20
-4.211872203044073
 30
0
 11
75.48933282075761
 21
-4.057184703044072
 31
0
  0
LINE
  8
1
 62
2
 10
75.48933282075761
 20
-4.057184703044072
 30
0
 11
75.21433282075761
 21
-3.283747203044073
 31
0
  0
LINE
  8
1
 62
2
 10
75.21433282075761
 20
-3.283747203044073
 30
0
 11
75.21433282075761
 21
-1.272809703044073
 31
0
  0
LINE
  8
1
 62
2
 10
75.21433282075761
 20
-1.272809703044073
 30
0
 11
75.35183282075761
 21
-0.808747203044073
 31
0
  0
LINE
  8
1
 62
2
 10
75.35183282075761
 20
-0.808747203044073
 30
0
 11
75.62683282075761
 21
-0.4993722030440728
 31
0
  0
LINE
  8
1
 62
2
 10
75.62683282075761
 20
-0.4993722030440728
 30
0
 11
76.31433282075761
 21
-0.3446847030440727
 31
0
  0
LINE
  8
1
 62
2
 10
76.31433282075761
 20
-0.3446847030440727
 30
0
 11
77.82683282075762
 21
-0.3446847030440727
 31
0
  0
LINE
  8
1
 62
2
 10
77.82683282075762
 20
-0.3446847030440727
 30
0
 11
78.37683282075761
 21
-0.4993722030440728
 31
0
  0
LINE
  8
1
 62
2
 10
78.37683282075761
 20
-0.4993722030440728
 30
0
 11
78.65183282075761
 21
-0.6540597030440729
 31
0
  0
LINE
  8
1
 62
2
 10
81.12683282075761
 20
-4.366559703044072
 30
0
 11
83.32683282075762
 21
-4.366559703044072
 31
0
  0
LINE
  8
1
 62
2
 10
81.12683282075761
 20
-1.891559703044073
 30
0
 11
82.36433282075761
 21
-0.3446847030440727
 31
0
  0
LINE
  8
1
 62
2
 10
82.36433282075761
 20
-0.3446847030440727
 30
0
 11
82.36433282075761
 21
-4.366559703044072
 31
0
  0
LINE
  8
1
 62
2
 10
88.13933282075762
 20
-4.366559703044072
 30
0
 11
88.13933282075762
 21
-0.3446847030440727
 31
0
  0
LINE
  8
1
 62
2
 10
88.13933282075762
 20
-0.3446847030440727
 30
0
 11
85.11433282075761
 21
-3.283747203044073
 31
0
  0
LINE
  8
1
 62
2
 10
85.11433282075761
 20
-3.283747203044073
 30
0
 11
88.68933282075761
 21
-3.283747203044073
 31
0
  0
LINE
  8
1
 62
2
 10
90.06433282075761
 20
-0.808747203044073
 30
0
 11
90.06433282075761
 21
-4.057184703044072
 31
0
  0
LINE
  8
1
 62
2
 10
90.06433282075761
 20
-4.057184703044072
 30
0
 11
93.63933282075762
 21
-4.057184703044072
 31
0
  0
LINE
  8
1
 62
2
 10
93.63933282075762
 20
-4.057184703044072
 30
0
 11
93.63933282075762
 21
-0.808747203044073
 31
0
  0
LINE
  8
1
 62
2
 10
91.85183282075762
 20
0.2740652969559267
 30
0
 11
91.85183282075762
 21
-4.057184703044072
 31
0
  0
LINE
  8
1
 62
2
 10
95.97683282075761
 20
-4.366559703044072
 30
0
 11
98.17683282075761
 21
-4.366559703044072
 31
0
  0
LINE
  8
1
 62
2
 10
95.97683282075761
 20
-1.891559703044073
 30
0
 11
97.21433282075761
 21
-0.3446847030440727
 31
0
  0
LINE
  8
1
 62
2
 10
97.21433282075761
 20
-0.3446847030440727
 30
0
 11
97.21433282075761
 21
-4.366559703044072
 31
0
  0
LINE
  8
1
 62
2
 10
100.9268328207576
 20
-4.366559703044072
 30
0
 11
103.1268328207576
 21
-4.366559703044072
 31
0
  0
LINE
  8
1
 62
2
 10
100.9268328207576
 20
-1.891559703044073
 30
0
 11
102.1643328207576
 21
-0.3446847030440727
 31
0
  0
LINE
  8
1
 62
2
 10
102.1643328207576
 20
-0.3446847030440727
 30
0
 11
102.1643328207576
 21
-4.366559703044072
 31
0
  0
LINE
  8
1
 62
2
 10
53.41466020595521
 20
-13.12052754508806
 30
0
 11
56.85216020595521
 21
-13.12052754508806
 31
0
  0
LINE
  8
1
 62
2
 10
55.20216020595521
 20
-13.12052754508806
 30
0
 11
55.20216020595521
 21
-10.18146504508806
 31
0
  0
LINE
  8
1
 62
2
 10
54.2396602059552
 20
-10.18146504508806
 30
0
 11
56.16466020595521
 21
-10.18146504508806
 31
0
  0
LINE
  8
1
 62
2
 10
56.57716020595521
 20
-11.10959004508806
 30
0
 11
53.82716020595521
 21
-11.10959004508806
 31
0
  0
LINE
  8
1
 62
2
 10
54.2396602059552
 20
-11.72834004508806
 30
0
 11
54.51466020595521
 21
-12.50177754508806
 31
0
  0
LINE
  8
1
 62
2
 10
55.88966020595521
 20
-12.50177754508806
 30
0
 11
56.16466020595521
 21
-11.72834004508806
 31
0
  0
LINE
  8
1
 62
2
 10
53.00216020595521
 20
-10.80021504508806
 30
0
 11
53.5521602059552
 21
-10.33615254508806
 31
0
  0
LINE
  8
1
 62
2
 10
53.5521602059552
 20
-10.33615254508806
 30
0
 11
54.51466020595521
 21
-9.253340045088061
 31
0
  0
LINE
  8
1
 62
2
 10
54.51466020595521
 20
-9.253340045088061
 30
0
 11
55.20216020595521
 21
-8.325215045088061
 31
0
  0
LINE
  8
1
 62
2
 10
55.20216020595521
 20
-8.325215045088061
 30
0
 11
55.88966020595521
 21
-9.253340045088061
 31
0
  0
LINE
  8
1
 62
2
 10
55.88966020595521
 20
-9.253340045088061
 30
0
 11
56.85216020595521
 21
-10.33615254508806
 31
0
  0
LINE
  8
1
 62
2
 10
56.85216020595521
 20
-10.33615254508806
 30
0
 11
57.40216020595521
 21
-10.80021504508806
 31
0
  0
LINE
  8
1
 62
2
 10
58.36466020595521
 20
-13.12052754508806
 30
0
 11
58.36466020595521
 21
-8.634590045088061
 31
0
  0
LINE
  8
1
 62
2
 10
58.36466020595521
 20
-8.634590045088061
 30
0
 11
59.73966020595521
 21
-8.634590045088061
 31
0
  0
LINE
  8
1
 62
2
 10
59.73966020595521
 20
-8.634590045088061
 30
0
 11
59.73966020595521
 21
-10.18146504508806
 31
0
  0
LINE
  8
1
 62
2
 10
59.73966020595521
 20
-10.18146504508806
 30
0
 11
58.36466020595521
 21
-10.18146504508806
 31
0
  0
LINE
  8
1
 62
2
 10
59.73966020595521
 20
-9.408027545088061
 30
0
 11
58.36466020595521
 21
-9.408027545088061
 31
0
  0
LINE
  8
1
 62
2
 10
61.38966020595521
 20
-13.12052754508806
 30
0
 11
61.80216020595521
 21
-13.12052754508806
 31
0
  0
LINE
  8
1
 62
2
 10
61.80216020595521
 20
-13.12052754508806
 30
0
 11
61.93966020595521
 21
-12.96584004508806
 31
0
  0
LINE
  8
1
 62
2
 10
61.93966020595521
 20
-12.96584004508806
 30
0
 11
61.93966020595521
 21
-8.634590045088061
 31
0
  0
LINE
  8
1
 62
2
 10
61.93966020595521
 20
-8.634590045088061
 30
0
 11
60.56466020595521
 21
-8.634590045088061
 31
0
  0
LINE
  8
1
 62
2
 10
60.56466020595521
 20
-8.634590045088061
 30
0
 11
60.56466020595521
 21
-10.18146504508806
 31
0
  0
LINE
  8
1
 62
2
 10
60.56466020595521
 20
-10.18146504508806
 30
0
 11
61.93966020595521
 21
-10.18146504508806
 31
0
  0
LINE
  8
1
 62
2
 10
60.56466020595521
 20
-9.408027545088061
 30
0
 11
61.93966020595521
 21
-9.408027545088061
 31
0
  0
LINE
  8
1
 62
2
 10
63.31466020595521
 20
-12.65646504508806
 30
0
 11
63.4521602059552
 21
-12.96584004508806
 31
0
  0
LINE
  8
1
 62
2
 10
63.4521602059552
 20
-12.96584004508806
 30
0
 11
63.72716020595521
 21
-13.12052754508806
 31
0
  0
LINE
  8
1
 62
2
 10
63.72716020595521
 20
-13.12052754508806
 30
0
 11
64.2771602059552
 21
-13.27521504508806
 31
0
  0
LINE
  8
1
 62
2
 10
64.2771602059552
 20
-13.27521504508806
 30
0
 11
65.9271602059552
 21
-13.27521504508806
 31
0
  0
LINE
  8
1
 62
2
 10
65.9271602059552
 20
-13.27521504508806
 30
0
 11
66.4771602059552
 21
-13.12052754508806
 31
0
  0
LINE
  8
1
 62
2
 10
66.4771602059552
 20
-13.12052754508806
 30
0
 11
66.75216020595521
 21
-12.81115254508806
 31
0
  0
LINE
  8
1
 62
2
 10
66.75216020595521
 20
-12.81115254508806
 30
0
 11
66.88966020595521
 21
-12.34709004508806
 31
0
  0
LINE
  8
1
 62
2
 10
66.88966020595521
 20
-12.34709004508806
 30
0
 11
66.88966020595521
 21
-11.57365254508806
 31
0
  0
LINE
  8
1
 62
2
 10
66.88966020595521
 20
-11.57365254508806
 30
0
 11
66.75216020595521
 21
-11.10959004508806
 31
0
  0
LINE
  8
1
 62
2
 10
66.75216020595521
 20
-11.10959004508806
 30
0
 11
66.4771602059552
 21
-10.80021504508806
 31
0
  0
LINE
  8
1
 62
2
 10
66.4771602059552
 20
-10.80021504508806
 30
0
 11
65.9271602059552
 21
-10.64552754508806
 31
0
  0
LINE
  8
1
 62
2
 10
65.9271602059552
 20
-10.64552754508806
 30
0
 11
64.2771602059552
 21
-10.64552754508806
 31
0
  0
LINE
  8
1
 62
2
 10
64.2771602059552
 20
-10.64552754508806
 30
0
 11
63.72716020595521
 21
-10.80021504508806
 31
0
  0
LINE
  8
1
 62
2
 10
63.72716020595521
 20
-10.80021504508806
 30
0
 11
63.31466020595521
 21
-11.26427754508806
 31
0
  0
LINE
  8
1
 62
2
 10
63.31466020595521
 20
-11.26427754508806
 30
0
 11
63.31466020595521
 21
-9.253340045088061
 31
0
  0
LINE
  8
1
 62
2
 10
63.31466020595521
 20
-9.253340045088061
 30
0
 11
66.75216020595521
 21
-9.253340045088061
 31
0
  0
LINE
  8
1
 62
2
 10
68.2646602059552
 20
-11.57365254508806
 30
0
 11
68.4021602059552
 21
-11.26427754508806
 31
0
  0
LINE
  8
1
 62
2
 10
68.4021602059552
 20
-11.26427754508806
 30
0
 11
68.6771602059552
 21
-11.10959004508806
 31
0
  0
LINE
  8
1
 62
2
 10
68.6771602059552
 20
-11.10959004508806
 30
0
 11
69.3646602059552
 21
-10.95490254508806
 31
0
  0
LINE
  8
1
 62
2
 10
69.3646602059552
 20
-10.95490254508806
 30
0
 11
70.7396602059552
 21
-10.95490254508806
 31
0
  0
LINE
  8
1
 62
2
 10
70.7396602059552
 20
-10.95490254508806
 30
0
 11
71.4271602059552
 21
-11.10959004508806
 31
0
  0
LINE
  8
1
 62
2
 10
71.4271602059552
 20
-11.10959004508806
 30
0
 11
71.7021602059552
 21
-11.26427754508806
 31
0
  0
LINE
  8
1
 62
2
 10
71.7021602059552
 20
-11.26427754508806
 30
0
 11
71.8396602059552
 21
-11.57365254508806
 31
0
  0
LINE
  8
1
 62
2
 10
71.8396602059552
 20
-11.57365254508806
 30
0
 11
71.8396602059552
 21
-12.50177754508806
 31
0
  0
LINE
  8
1
 62
2
 10
71.8396602059552
 20
-12.50177754508806
 30
0
 11
71.56466020595521
 21
-12.96584004508806
 31
0
  0
LINE
  8
1
 62
2
 10
71.56466020595521
 20
-12.96584004508806
 30
0
 11
71.2896602059552
 21
-13.12052754508806
 31
0
  0
LINE
  8
1
 62
2
 10
71.2896602059552
 20
-13.12052754508806
 30
0
 11
70.7396602059552
 21
-13.27521504508806
 31
0
  0
LINE
  8
1
 62
2
 10
70.7396602059552
 20
-13.27521504508806
 30
0
 11
69.3646602059552
 21
-13.27521504508806
 31
0
  0
LINE
  8
1
 62
2
 10
69.3646602059552
 20
-13.27521504508806
 30
0
 11
68.81466020595521
 21
-13.12052754508806
 31
0
  0
LINE
  8
1
 62
2
 10
68.81466020595521
 20
-13.12052754508806
 30
0
 11
68.5396602059552
 21
-12.96584004508806
 31
0
  0
LINE
  8
1
 62
2
 10
68.5396602059552
 20
-12.96584004508806
 30
0
 11
68.2646602059552
 21
-12.19240254508806
 31
0
  0
LINE
  8
1
 62
2
 10
68.2646602059552
 20
-12.19240254508806
 30
0
 11
68.2646602059552
 21
-10.18146504508806
 31
0
  0
LINE
  8
1
 62
2
 10
68.2646602059552
 20
-10.18146504508806
 30
0
 11
68.4021602059552
 21
-9.717402545088062
 31
0
  0
LINE
  8
1
 62
2
 10
68.4021602059552
 20
-9.717402545088062
 30
0
 11
68.6771602059552
 21
-9.408027545088061
 31
0
  0
LINE
  8
1
 62
2
 10
68.6771602059552
 20
-9.408027545088061
 30
0
 11
69.3646602059552
 21
-9.253340045088061
 31
0
  0
LINE
  8
1
 62
2
 10
69.3646602059552
 20
-9.253340045088061
 30
0
 11
70.87716020595521
 21
-9.253340045088061
 31
0
  0
LINE
  8
1
 62
2
 10
70.87716020595521
 20
-9.253340045088061
 30
0
 11
71.4271602059552
 21
-9.408027545088061
 31
0
  0
LINE
  8
1
 62
2
 10
71.4271602059552
 20
-9.408027545088061
 30
0
 11
71.7021602059552
 21
-9.562715045088062
 31
0
  0
LINE
  8
1
 62
2
 10
72.8021602059552
 20
-13.27521504508806
 30
0
 11
72.8021602059552
 21
-13.15146504508806
 31
0
  0
LINE
  8
1
 62
2
 10
72.8021602059552
 20
-13.15146504508806
 30
0
 11
72.92591020595521
 21
-13.15146504508806
 31
0
  0
LINE
  8
1
 62
2
 10
72.92591020595521
 20
-13.15146504508806
 30
0
 11
72.92591020595521
 21
-13.27521504508806
 31
0
  0
LINE
  8
1
 62
2
 10
72.92591020595521
 20
-13.27521504508806
 30
0
 11
72.8021602059552
 21
-13.27521504508806
 31
0
  0
LINE
  8
1
 62
2
 10
76.3221602059552
 20
-13.27521504508806
 30
0
 11
75.7721602059552
 21
-13.12052754508806
 31
0
  0
LINE
  8
1
 62
2
 10
75.7721602059552
 20
-13.12052754508806
 30
0
 11
75.35966020595521
 21
-12.81115254508806
 31
0
  0
LINE
  8
1
 62
2
 10
75.35966020595521
 20
-12.81115254508806
 30
0
 11
75.0846602059552
 21
-12.34709004508806
 31
0
  0
LINE
  8
1
 62
2
 10
75.0846602059552
 20
-12.34709004508806
 30
0
 11
74.9471602059552
 21
-11.72834004508806
 31
0
  0
LINE
  8
1
 62
2
 10
74.9471602059552
 20
-11.72834004508806
 30
0
 11
74.9471602059552
 21
-10.80021504508806
 31
0
  0
LINE
  8
1
 62
2
 10
74.9471602059552
 20
-10.80021504508806
 30
0
 11
75.0846602059552
 21
-10.18146504508806
 31
0
  0
LINE
  8
1
 62
2
 10
75.0846602059552
 20
-10.18146504508806
 30
0
 11
75.35966020595521
 21
-9.717402545088062
 31
0
  0
LINE
  8
1
 62
2
 10
75.35966020595521
 20
-9.717402545088062
 30
0
 11
75.7721602059552
 21
-9.408027545088061
 31
0
  0
LINE
  8
1
 62
2
 10
75.7721602059552
 20
-9.408027545088061
 30
0
 11
76.3221602059552
 21
-9.253340045088061
 31
0
  0
LINE
  8
1
 62
2
 10
76.3221602059552
 20
-9.253340045088061
 30
0
 11
76.87216020595521
 21
-9.253340045088061
 31
0
  0
LINE
  8
1
 62
2
 10
76.87216020595521
 20
-9.253340045088061
 30
0
 11
77.42216020595521
 21
-9.408027545088061
 31
0
  0
LINE
  8
1
 62
2
 10
77.42216020595521
 20
-9.408027545088061
 30
0
 11
77.8346602059552
 21
-9.717402545088062
 31
0
  0
LINE
  8
1
 62
2
 10
77.8346602059552
 20
-9.717402545088062
 30
0
 11
78.10966020595521
 21
-10.18146504508806
 31
0
  0
LINE
  8
1
 62
2
 10
78.10966020595521
 20
-10.18146504508806
 30
0
 11
78.24716020595521
 21
-10.80021504508806
 31
0
  0
LINE
  8
1
 62
2
 10
78.24716020595521
 20
-10.80021504508806
 30
0
 11
78.24716020595521
 21
-11.72834004508806
 31
0
  0
LINE
  8
1
 62
2
 10
78.24716020595521
 20
-11.72834004508806
 30
0
 11
78.10966020595521
 21
-12.34709004508806
 31
0
  0
LINE
  8
1
 62
2
 10
78.10966020595521
 20
-12.34709004508806
 30
0
 11
77.8346602059552
 21
-12.81115254508806
 31
0
  0
LINE
  8
1
 62
2
 10
77.8346602059552
 20
-12.81115254508806
 30
0
 11
77.42216020595521
 21
-13.12052754508806
 31
0
  0
LINE
  8
1
 62
2
 10
77.42216020595521
 20
-13.12052754508806
 30
0
 11
76.87216020595521
 21
-13.27521504508806
 31
0
  0
LINE
  8
1
 62
2
 10
76.87216020595521
 20
-13.27521504508806
 30
0
 11
76.3221602059552
 21
-13.27521504508806
 31
0
  0
LINE
  8
1
 62
2
 10
79.8971602059552
 20
-9.717402545088062
 30
0
 11
79.8971602059552
 21
-12.96584004508806
 31
0
  0
LINE
  8
1
 62
2
 10
79.8971602059552
 20
-12.96584004508806
 30
0
 11
83.47216020595521
 21
-12.96584004508806
 31
0
  0
LINE
  8
1
 62
2
 10
83.47216020595521
 20
-12.96584004508806
 30
0
 11
83.47216020595521
 21
-9.717402545088062
 31
0
  0
LINE
  8
1
 62
2
 10
81.68466020595521
 20
-8.634590045088061
 30
0
 11
81.68466020595521
 21
-12.96584004508806
 31
0
  0
LINE
  8
1
 62
2
 10
85.8096602059552
 20
-13.27521504508806
 30
0
 11
88.0096602059552
 21
-13.27521504508806
 31
0
  0
LINE
  8
1
 62
2
 10
85.8096602059552
 20
-10.80021504508806
 30
0
 11
87.04716020595519
 21
-9.253340045088061
 31
0
  0
LINE
  8
1
 62
2
 10
87.04716020595519
 20
-9.253340045088061
 30
0
 11
87.04716020595519
 21
-13.27521504508806
 31
0
  0
LINE
  8
1
 62
2
 10
90.7596602059552
 20
-13.27521504508806
 30
0
 11
92.9596602059552
 21
-13.27521504508806
 31
0
  0
LINE
  8
1
 62
2
 10
90.7596602059552
 20
-10.80021504508806
 30
0
 11
91.9971602059552
 21
-9.253340045088061
 31
0
  0
LINE
  8
1
 62
2
 10
91.9971602059552
 20
-9.253340045088061
 30
0
 11
91.9971602059552
 21
-13.27521504508806
 31
0
  0
LINE
  8
1
 62
2
 10
62.53588517121597
 20
-130.9449796837172
 30
0
 11
62.04088517121598
 21
-131.9349796837172
 31
0
  0
LINE
  8
1
 62
2
 10
62.04088517121598
 20
-131.9349796837172
 30
0
 11
61.79338517121597
 21
-132.9249796837172
 31
0
  0
LINE
  8
1
 62
2
 10
61.79338517121597
 20
-132.9249796837172
 30
0
 11
61.79338517121597
 21
-133.9149796837172
 31
0
  0
LINE
  8
1
 62
2
 10
61.79338517121597
 20
-133.9149796837172
 30
0
 11
62.04088517121598
 21
-134.9049796837172
 31
0
  0
LINE
  8
1
 62
2
 10
62.04088517121598
 20
-134.9049796837172
 30
0
 11
62.53588517121597
 21
-135.8949796837172
 31
0
  0
LINE
  8
1
 62
2
 10
64.57088517121598
 20
-135.5856046837172
 30
0
 11
64.57088517121598
 21
-132.6465421837172
 31
0
  0
LINE
  8
1
 62
2
 10
64.57088517121598
 20
-132.6465421837172
 30
0
 11
67.87088517121597
 21
-132.6465421837172
 31
0
  0
LINE
  8
1
 62
2
 10
67.87088517121597
 20
-132.6465421837172
 30
0
 11
67.87088517121597
 21
-135.5856046837172
 31
0
  0
LINE
  8
1
 62
2
 10
67.87088517121597
 20
-135.5856046837172
 30
0
 11
64.57088517121598
 21
-135.5856046837172
 31
0
  0
LINE
  8
1
 62
2
 10
64.84588517121598
 20
-134.5027921837172
 30
0
 11
65.25838517121598
 21
-134.0387296837172
 31
0
  0
LINE
  8
1
 62
2
 10
65.25838517121598
 20
-134.0387296837172
 30
0
 11
65.67088517121599
 21
-133.1106046837172
 31
0
  0
LINE
  8
1
 62
2
 10
65.67088517121599
 20
-133.1106046837172
 30
0
 11
65.67088517121599
 21
-131.4090421837172
 31
0
  0
LINE
  8
1
 62
2
 10
64.15838517121598
 20
-131.4090421837172
 30
0
 11
68.28338517121598
 21
-131.4090421837172
 31
0
  0
LINE
  8
1
 62
2
 10
66.63338517121598
 20
-131.4090421837172
 30
0
 11
66.63338517121598
 21
-133.8840421837172
 31
0
  0
LINE
  8
1
 62
2
 10
66.63338517121598
 20
-133.8840421837172
 30
0
 11
66.77088517121598
 21
-134.1934171837172
 31
0
  0
LINE
  8
1
 62
2
 10
66.77088517121598
 20
-134.1934171837172
 30
0
 11
67.45838517121598
 21
-134.1934171837172
 31
0
  0
LINE
  8
1
 62
2
 10
67.45838517121598
 20
-134.1934171837172
 30
0
 11
67.59588517121598
 21
-133.8840421837172
 31
0
  0
LINE
  8
1
 62
2
 10
68.97088517121597
 20
-135.5856046837172
 30
0
 11
69.10838517121597
 21
-135.1215421837172
 31
0
  0
LINE
  8
1
 62
2
 10
69.10838517121597
 20
-135.1215421837172
 30
0
 11
69.24588517121597
 21
-133.7293546837172
 31
0
  0
LINE
  8
1
 62
2
 10
69.24588517121597
 20
-133.7293546837172
 30
0
 11
69.24588517121597
 21
-131.0996671837172
 31
0
  0
LINE
  8
1
 62
2
 10
69.24588517121597
 20
-131.0996671837172
 30
0
 11
73.09588517121597
 21
-131.0996671837172
 31
0
  0
LINE
  8
1
 62
2
 10
73.09588517121597
 20
-132.1824796837172
 30
0
 11
71.44588517121596
 21
-132.1824796837172
 31
0
  0
LINE
  8
1
 62
2
 10
71.17088517121597
 20
-132.1824796837172
 30
0
 11
69.79588517121597
 21
-132.1824796837172
 31
0
  0
LINE
  8
1
 62
2
 10
70.48338517121597
 20
-131.4090421837172
 30
0
 11
70.48338517121597
 21
-133.7293546837172
 31
0
  0
LINE
  8
1
 62
2
 10
69.65838517121597
 20
-133.4199796837172
 30
0
 11
70.07088517121596
 21
-132.9559171837172
 31
0
  0
LINE
  8
1
 62
2
 10
70.07088517121596
 20
-132.9559171837172
 30
0
 11
70.48338517121597
 21
-132.1824796837172
 31
0
  0
LINE
  8
1
 62
2
 10
70.75838517121596
 20
-132.6465421837172
 30
0
 11
71.17088517121597
 21
-133.1106046837172
 31
0
  0
LINE
  8
1
 62
2
 10
71.17088517121597
 20
-133.5746671837172
 30
0
 11
71.58338517121597
 21
-133.2652921837172
 31
0
  0
LINE
  8
1
 62
2
 10
71.58338517121597
 20
-133.2652921837172
 30
0
 11
72.27088517121597
 21
-132.1824796837172
 31
0
  0
LINE
  8
1
 62
2
 10
72.27088517121597
 20
-131.4090421837172
 30
0
 11
72.27088517121597
 21
-133.7293546837172
 31
0
  0
LINE
  8
1
 62
2
 10
72.27088517121597
 20
-132.1824796837172
 30
0
 11
72.68338517121597
 21
-132.8012296837172
 31
0
  0
LINE
  8
1
 62
2
 10
72.68338517121597
 20
-132.8012296837172
 30
0
 11
73.37088517121597
 21
-133.5746671837172
 31
0
  0
LINE
  8
1
 62
2
 10
72.54588517121597
 20
-134.1934171837172
 30
0
 11
70.34588517121597
 21
-134.1934171837172
 31
0
  0
LINE
  8
1
 62
2
 10
70.34588517121597
 20
-134.1934171837172
 30
0
 11
70.34588517121597
 21
-135.7402921837172
 31
0
  0
LINE
  8
1
 62
2
 10
70.34588517121597
 20
-135.7402921837172
 30
0
 11
72.54588517121597
 21
-135.7402921837172
 31
0
  0
LINE
  8
1
 62
2
 10
72.54588517121597
 20
-135.7402921837172
 30
0
 11
72.54588517121597
 21
-134.1934171837172
 31
0
  0
LINE
  8
1
 62
2
 10
70.34588517121597
 20
-134.9668546837172
 30
0
 11
72.54588517121597
 21
-134.9668546837172
 31
0
  0
LINE
  8
1
 62
2
 10
76.12088517121597
 20
-135.8949796837172
 30
0
 11
76.12088517121597
 21
-131.5637296837172
 31
0
  0
LINE
  8
1
 62
2
 10
78.18338517121597
 20
-131.5637296837172
 30
0
 11
74.05838517121597
 21
-131.5637296837172
 31
0
  0
LINE
  8
1
 62
2
 10
76.80838517121597
 20
-132.6465421837172
 30
0
 11
77.63338517121598
 21
-133.5746671837172
 31
0
  0
LINE
  8
1
 62
2
 10
79.42088517121597
 20
-132.6465421837172
 30
0
 11
79.55838517121597
 21
-132.3371671837172
 31
0
  0
LINE
  8
1
 62
2
 10
79.55838517121597
 20
-132.3371671837172
 30
0
 11
80.10838517121597
 21
-132.0277921837172
 31
0
  0
LINE
  8
1
 62
2
 10
80.10838517121597
 20
-132.0277921837172
 30
0
 11
80.65838517121597
 21
-131.8731046837172
 31
0
  0
LINE
  8
1
 62
2
 10
80.65838517121597
 20
-131.8731046837172
 30
0
 11
81.62088517121597
 21
-131.8731046837172
 31
0
  0
LINE
  8
1
 62
2
 10
81.62088517121597
 20
-131.8731046837172
 30
0
 11
82.17088517121597
 21
-132.0277921837172
 31
0
  0
LINE
  8
1
 62
2
 10
82.17088517121597
 20
-132.0277921837172
 30
0
 11
82.72088517121597
 21
-132.3371671837172
 31
0
  0
LINE
  8
1
 62
2
 10
82.72088517121597
 20
-132.3371671837172
 30
0
 11
82.85838517121597
 21
-132.6465421837172
 31
0
  0
LINE
  8
1
 62
2
 10
82.85838517121597
 20
-132.6465421837172
 30
0
 11
82.85838517121597
 21
-133.4199796837172
 31
0
  0
LINE
  8
1
 62
2
 10
82.85838517121597
 20
-133.4199796837172
 30
0
 11
82.72088517121597
 21
-133.7293546837172
 31
0
  0
LINE
  8
1
 62
2
 10
82.72088517121597
 20
-133.7293546837172
 30
0
 11
82.17088517121597
 21
-134.0387296837172
 31
0
  0
LINE
  8
1
 62
2
 10
82.17088517121597
 20
-134.0387296837172
 30
0
 11
79.97088517121597
 21
-134.3481046837172
 31
0
  0
LINE
  8
1
 62
2
 10
79.97088517121597
 20
-134.3481046837172
 30
0
 11
79.55838517121597
 21
-134.6574796837172
 31
0
  0
LINE
  8
1
 62
2
 10
79.55838517121597
 20
-134.6574796837172
 30
0
 11
79.42088517121597
 21
-134.9668546837172
 31
0
  0
LINE
  8
1
 62
2
 10
79.42088517121597
 20
-134.9668546837172
 30
0
 11
79.28338517121597
 21
-135.8949796837172
 31
0
  0
LINE
  8
1
 62
2
 10
79.28338517121597
 20
-135.8949796837172
 30
0
 11
82.85838517121597
 21
-135.8949796837172
 31
0
  0
LINE
  8
1
 62
2
 10
84.09588517121597
 20
-132.3371671837172
 30
0
 11
85.47088517121597
 21
-132.3371671837172
 31
0
  0
LINE
  8
1
 62
2
 10
84.78338517121597
 20
-131.0996671837172
 30
0
 11
84.78338517121597
 21
-135.7402921837172
 31
0
  0
LINE
  8
1
 62
2
 10
84.78338517121597
 20
-132.3371671837172
 30
0
 11
84.37088517121596
 21
-133.5746671837172
 31
0
  0
LINE
  8
1
 62
2
 10
84.37088517121596
 20
-133.5746671837172
 30
0
 11
84.09588517121597
 21
-134.0387296837172
 31
0
  0
LINE
  8
1
 62
2
 10
84.09588517121597
 20
-134.0387296837172
 30
0
 11
83.95838517121597
 21
-134.3481046837172
 31
0
  0
LINE
  8
1
 62
2
 10
84.78338517121597
 20
-132.3371671837172
 30
0
 11
85.33338517121597
 21
-133.5746671837172
 31
0
  0
LINE
  8
1
 62
2
 10
86.29588517121596
 20
-131.2543546837172
 30
0
 11
85.60838517121596
 21
-132.3371671837172
 31
0
  0
LINE
  8
1
 62
2
 10
86.57088517121596
 20
-132.1824796837172
 30
0
 11
85.74588517121596
 21
-133.7293546837172
 31
0
  0
LINE
  8
1
 62
2
 10
85.74588517121596
 20
-133.7293546837172
 30
0
 11
85.33338517121597
 21
-134.1934171837172
 31
0
  0
LINE
  8
1
 62
2
 10
86.02088517121597
 20
-133.2652921837172
 30
0
 11
86.02088517121597
 21
-135.7402921837172
 31
0
  0
LINE
  8
1
 62
2
 10
86.70838517121597
 20
-131.5637296837172
 30
0
 11
87.94588517121596
 21
-131.5637296837172
 31
0
  0
LINE
  8
1
 62
2
 10
86.57088517121596
 20
-132.8012296837172
 30
0
 11
88.22088517121597
 21
-132.8012296837172
 31
0
  0
LINE
  8
1
 62
2
 10
87.53338517121597
 20
-132.8012296837172
 30
0
 11
87.53338517121597
 21
-135.4309171837172
 31
0
  0
LINE
  8
1
 62
2
 10
87.53338517121597
 20
-135.4309171837172
 30
0
 11
87.39588517121597
 21
-135.7402921837172
 31
0
  0
LINE
  8
1
 62
2
 10
87.39588517121597
 20
-135.7402921837172
 30
0
 11
86.98338517121596
 21
-135.7402921837172
 31
0
  0
LINE
  8
1
 62
2
 10
88.77088517121597
 20
-130.9449796837172
 30
0
 11
89.26588517121597
 21
-131.9349796837172
 31
0
  0
LINE
  8
1
 62
2
 10
89.26588517121597
 20
-131.9349796837172
 30
0
 11
89.51338517121597
 21
-132.9249796837172
 31
0
  0
LINE
  8
1
 62
2
 10
89.51338517121597
 20
-132.9249796837172
 30
0
 11
89.51338517121597
 21
-133.9149796837172
 31
0
  0
LINE
  8
1
 62
2
 10
89.51338517121597
 20
-133.9149796837172
 30
0
 11
89.26588517121597
 21
-134.9049796837172
 31
0
  0
LINE
  8
1
 62
2
 10
89.26588517121597
 20
-134.9049796837172
 30
0
 11
88.77088517121597
 21
-135.8949796837172
 31
0
  0
LINE
  8
1
 62
7
 10
198.9513902395617
 20
-68.34905699818475
 30
0
 11
198.6785214895617
 21
-68.99874449818475
 31
0
  0
LINE
  8
1
 62
7
 10
198.6785214895617
 20
-68.99874449818475
 30
0
 11
198.3146964895617
 21
-68.47899449818475
 31
0
  0
LINE
  8
1
 62
7
 10
198.3146964895617
 20
-68.47899449818475
 30
0
 11
197.7689589895617
 21
-67.95924449818475
 31
0
  0
LINE
  8
1
 62
7
 10
197.7689589895617
 20
-67.95924449818475
 30
0
 11
197.1322652395617
 21
-67.69936949818475
 31
0
  0
LINE
  8
1
 62
7
 10
197.1322652395617
 20
-67.69936949818475
 30
0
 11
196.7684402395617
 21
-67.69936949818475
 31
0
  0
LINE
  8
1
 62
7
 10
196.7684402395617
 20
-67.69936949818475
 30
0
 11
196.2227027395617
 21
-67.95924449818475
 31
0
  0
LINE
  8
1
 62
7
 10
196.2227027395617
 20
-67.95924449818475
 30
0
 11
195.9498339895617
 21
-68.47899449818475
 31
0
  0
LINE
  8
1
 62
7
 10
195.9498339895617
 20
-68.47899449818475
 30
0
 11
195.9498339895617
 21
-67.82930699818475
 31
0
  0
LINE
  8
1
 62
7
 10
195.9498339895617
 20
-67.82930699818475
 30
0
 11
194.9493152395617
 21
-67.82930699818475
 31
0
  0
LINE
  8
1
 62
7
 10
194.9493152395617
 20
-67.82930699818475
 30
0
 11
194.9493152395617
 21
-75.49561949818475
 31
0
  0
LINE
  8
1
 62
7
 10
194.9493152395617
 20
-75.49561949818475
 30
0
 11
195.9498339895617
 21
-75.49561949818475
 31
0
  0
LINE
  8
1
 62
7
 10
195.9498339895617
 20
-75.49561949818475
 30
0
 11
195.9498339895617
 21
-70.16818199818475
 31
0
  0
LINE
  8
1
 62
7
 10
195.9498339895617
 20
-70.16818199818475
 30
0
 11
196.1317464895617
 21
-69.51849449818475
 31
0
  0
LINE
  8
1
 62
7
 10
196.1317464895617
 20
-69.51849449818475
 30
0
 11
196.4955714895617
 21
-69.12868199818475
 31
0
  0
LINE
  8
1
 62
7
 10
196.4955714895617
 20
-69.12868199818475
 30
0
 11
196.8593964895617
 21
-68.99874449818475
 31
0
  0
LINE
  8
1
 62
7
 10
196.8593964895617
 20
-68.99874449818475
 30
0
 11
197.3141777395617
 21
-69.12868199818475
 31
0
  0
LINE
  8
1
 62
7
 10
197.3141777395617
 20
-69.12868199818475
 30
0
 11
197.5870464895617
 21
-69.51849449818475
 31
0
  0
LINE
  8
1
 62
7
 10
197.5870464895617
 20
-69.51849449818475
 30
0
 11
197.8599152395617
 21
-70.16818199818475
 31
0
  0
LINE
  8
1
 62
7
 10
197.8599152395617
 20
-70.16818199818475
 30
0
 11
197.9508714895617
 21
-70.68793199818475
 31
0
  0
LINE
  8
1
 62
7
 10
197.9508714895617
 20
-70.68793199818475
 30
0
 11
197.9508714895617
 21
-75.49561949818475
 31
0
  0
LINE
  8
1
 62
7
 10
197.9508714895617
 20
-75.49561949818475
 30
0
 11
198.9513902395617
 21
-75.49561949818475
 31
0
  0
LINE
  8
1
 62
7
 10
198.9513902395617
 20
-75.49561949818475
 30
0
 11
198.9513902395617
 21
-70.16818199818475
 31
0
  0
LINE
  8
1
 62
7
 10
198.9513902395617
 20
-70.16818199818475
 30
0
 11
199.1333027395617
 21
-69.51849449818475
 31
0
  0
LINE
  8
1
 62
7
 10
199.1333027395617
 20
-69.51849449818475
 30
0
 11
199.4971277395617
 21
-69.12868199818475
 31
0
  0
LINE
  8
1
 62
7
 10
199.4971277395617
 20
-69.12868199818475
 30
0
 11
199.8609527395617
 21
-68.99874449818475
 31
0
  0
LINE
  8
1
 62
7
 10
199.8609527395617
 20
-68.99874449818475
 30
0
 11
200.3157339895617
 21
-69.12868199818475
 31
0
  0
LINE
  8
1
 62
7
 10
200.3157339895617
 20
-69.12868199818475
 30
0
 11
200.5886027395617
 21
-69.51849449818475
 31
0
  0
LINE
  8
1
 62
7
 10
200.5886027395617
 20
-69.51849449818475
 30
0
 11
200.8614714895617
 21
-70.16818199818475
 31
0
  0
LINE
  8
1
 62
7
 10
200.8614714895617
 20
-70.16818199818475
 30
0
 11
200.9524277395617
 21
-70.68793199818475
 31
0
  0
LINE
  8
1
 62
7
 10
200.9524277395617
 20
-70.68793199818475
 30
0
 11
200.9524277395617
 21
-75.49561949818475
 31
0
  0
LINE
  8
1
 62
7
 10
200.9524277395617
 20
-75.49561949818475
 30
0
 11
201.9529464895617
 21
-75.49561949818475
 31
0
  0
LINE
  8
1
 62
7
 10
201.9529464895617
 20
-75.49561949818475
 30
0
 11
201.9529464895617
 21
-70.81786949818475
 31
0
  0
LINE
  8
1
 62
7
 10
201.9529464895617
 20
-70.81786949818475
 30
0
 11
201.8619902395617
 21
-69.77836949818476
 31
0
  0
LINE
  8
1
 62
7
 10
201.8619902395617
 20
-69.77836949818476
 30
0
 11
201.5891214895617
 21
-68.99874449818475
 31
0
  0
LINE
  8
1
 62
7
 10
201.5891214895617
 20
-68.99874449818475
 30
0
 11
201.3162527395617
 21
-68.47899449818475
 31
0
  0
LINE
  8
1
 62
7
 10
201.3162527395617
 20
-68.47899449818475
 30
0
 11
200.7705152395617
 21
-67.95924449818475
 31
0
  0
LINE
  8
1
 62
7
 10
200.7705152395617
 20
-67.95924449818475
 30
0
 11
200.1338214895617
 21
-67.69936949818475
 31
0
  0
LINE
  8
1
 62
7
 10
200.1338214895617
 20
-67.69936949818475
 30
0
 11
199.7699964895617
 21
-67.69936949818475
 31
0
  0
LINE
  8
1
 62
7
 10
199.7699964895617
 20
-67.69936949818475
 30
0
 11
199.3152152395617
 21
-67.95924449818475
 31
0
  0
LINE
  8
1
 62
7
 10
199.3152152395617
 20
-67.95924449818475
 30
0
 11
198.9513902395617
 21
-68.34905699818475
 31
0
  0
LINE
  8
1
 62
7
 10
189.9513902395617
 20
-68.34905699818475
 30
0
 11
189.6785214895617
 21
-68.99874449818475
 31
0
  0
LINE
  8
1
 62
7
 10
189.6785214895617
 20
-68.99874449818475
 30
0
 11
189.3146964895617
 21
-68.47899449818475
 31
0
  0
LINE
  8
1
 62
7
 10
189.3146964895617
 20
-68.47899449818475
 30
0
 11
188.7689589895617
 21
-67.95924449818475
 31
0
  0
LINE
  8
1
 62
7
 10
188.7689589895617
 20
-67.95924449818475
 30
0
 11
188.1322652395617
 21
-67.69936949818475
 31
0
  0
LINE
  8
1
 62
7
 10
188.1322652395617
 20
-67.69936949818475
 30
0
 11
187.7684402395617
 21
-67.69936949818475
 31
0
  0
LINE
  8
1
 62
7
 10
187.7684402395617
 20
-67.69936949818475
 30
0
 11
187.2227027395617
 21
-67.95924449818475
 31
0
  0
LINE
  8
1
 62
7
 10
187.2227027395617
 20
-67.95924449818475
 30
0
 11
186.9498339895617
 21
-68.47899449818475
 31
0
  0
LINE
  8
1
 62
7
 10
186.9498339895617
 20
-68.47899449818475
 30
0
 11
186.9498339895617
 21
-67.82930699818475
 31
0
  0
LINE
  8
1
 62
7
 10
186.9498339895617
 20
-67.82930699818475
 30
0
 11
185.9493152395617
 21
-67.82930699818475
 31
0
  0
LINE
  8
1
 62
7
 10
185.9493152395617
 20
-67.82930699818475
 30
0
 11
185.9493152395617
 21
-75.49561949818475
 31
0
  0
LINE
  8
1
 62
7
 10
185.9493152395617
 20
-75.49561949818475
 30
0
 11
186.9498339895617
 21
-75.49561949818475
 31
0
  0
LINE
  8
1
 62
7
 10
186.9498339895617
 20
-75.49561949818475
 30
0
 11
186.9498339895617
 21
-70.16818199818475
 31
0
  0
LINE
  8
1
 62
7
 10
186.9498339895617
 20
-70.16818199818475
 30
0
 11
187.1317464895617
 21
-69.51849449818475
 31
0
  0
LINE
  8
1
 62
7
 10
187.1317464895617
 20
-69.51849449818475
 30
0
 11
187.4955714895617
 21
-69.12868199818475
 31
0
  0
LINE
  8
1
 62
7
 10
187.4955714895617
 20
-69.12868199818475
 30
0
 11
187.8593964895617
 21
-68.99874449818475
 31
0
  0
LINE
  8
1
 62
7
 10
187.8593964895617
 20
-68.99874449818475
 30
0
 11
188.3141777395617
 21
-69.12868199818475
 31
0
  0
LINE
  8
1
 62
7
 10
188.3141777395617
 20
-69.12868199818475
 30
0
 11
188.5870464895617
 21
-69.51849449818475
 31
0
  0
LINE
  8
1
 62
7
 10
188.5870464895617
 20
-69.51849449818475
 30
0
 11
188.8599152395617
 21
-70.16818199818475
 31
0
  0
LINE
  8
1
 62
7
 10
188.8599152395617
 20
-70.16818199818475
 30
0
 11
188.9508714895617
 21
-70.68793199818475
 31
0
  0
LINE
  8
1
 62
7
 10
188.9508714895617
 20
-70.68793199818475
 30
0
 11
188.9508714895617
 21
-75.49561949818475
 31
0
  0
LINE
  8
1
 62
7
 10
188.9508714895617
 20
-75.49561949818475
 30
0
 11
189.9513902395617
 21
-75.49561949818475
 31
0
  0
LINE
  8
1
 62
7
 10
189.9513902395617
 20
-75.49561949818475
 30
0
 11
189.9513902395617
 21
-70.16818199818475
 31
0
  0
LINE
  8
1
 62
7
 10
189.9513902395617
 20
-70.16818199818475
 30
0
 11
190.1333027395617
 21
-69.51849449818475
 31
0
  0
LINE
  8
1
 62
7
 10
190.1333027395617
 20
-69.51849449818475
 30
0
 11
190.4971277395617
 21
-69.12868199818475
 31
0
  0
LINE
  8
1
 62
7
 10
190.4971277395617
 20
-69.12868199818475
 30
0
 11
190.8609527395617
 21
-68.99874449818475
 31
0
  0
LINE
  8
1
 62
7
 10
190.8609527395617
 20
-68.99874449818475
 30
0
 11
191.3157339895617
 21
-69.12868199818475
 31
0
  0
LINE
  8
1
 62
7
 10
191.3157339895617
 20
-69.12868199818475
 30
0
 11
191.5886027395617
 21
-69.51849449818475
 31
0
  0
LINE
  8
1
 62
7
 10
191.5886027395617
 20
-69.51849449818475
 30
0
 11
191.8614714895617
 21
-70.16818199818475
 31
0
  0
LINE
  8
1
 62
7
 10
191.8614714895617
 20
-70.16818199818475
 30
0
 11
191.9524277395617
 21
-70.68793199818475
 31
0
  0
LINE
  8
1
 62
7
 10
191.9524277395617
 20
-70.68793199818475
 30
0
 11
191.9524277395617
 21
-75.49561949818475
 31
0
  0
LINE
  8
1
 62
7
 10
191.9524277395617
 20
-75.49561949818475
 30
0
 11
192.9529464895617
 21
-75.49561949818475
 31
0
  0
LINE
  8
1
 62
7
 10
192.9529464895617
 20
-75.49561949818475
 30
0
 11
192.9529464895617
 21
-70.81786949818475
 31
0
  0
LINE
  8
1
 62
7
 10
192.9529464895617
 20
-70.81786949818475
 30
0
 11
192.8619902395617
 21
-69.77836949818476
 31
0
  0
LINE
  8
1
 62
7
 10
192.8619902395617
 20
-69.77836949818476
 30
0
 11
192.5891214895617
 21
-68.99874449818475
 31
0
  0
LINE
  8
1
 62
7
 10
192.5891214895617
 20
-68.99874449818475
 30
0
 11
192.3162527395617
 21
-68.47899449818475
 31
0
  0
LINE
  8
1
 62
7
 10
192.3162527395617
 20
-68.47899449818475
 30
0
 11
191.7705152395617
 21
-67.95924449818475
 31
0
  0
LINE
  8
1
 62
7
 10
191.7705152395617
 20
-67.95924449818475
 30
0
 11
191.1338214895617
 21
-67.69936949818475
 31
0
  0
LINE
  8
1
 62
7
 10
191.1338214895617
 20
-67.69936949818475
 30
0
 11
190.7699964895617
 21
-67.69936949818475
 31
0
  0
LINE
  8
1
 62
7
 10
190.7699964895617
 20
-67.69936949818475
 30
0
 11
190.3152152395617
 21
-67.95924449818475
 31
0
  0
LINE
  8
1
 62
7
 10
190.3152152395617
 20
-67.95924449818475
 30
0
 11
189.9513902395617
 21
-68.34905699818475
 31
0
  0
LINE
  8
1
 62
7
 10
176.8635124348688
 20
-74.00030699818476
 30
0
 11
178.0044358723688
 21
-74.00030699818476
 31
0
  0
LINE
  8
1
 62
7
 10
178.0044358723688
 20
-74.00030699818476
 30
0
 11
178.6563921223688
 21
-73.70124449818475
 31
0
  0
LINE
  8
1
 62
7
 10
178.6563921223688
 20
-73.70124449818475
 30
0
 11
179.3083483723688
 21
-73.25265074818475
 31
0
  0
LINE
  8
1
 62
7
 10
179.3083483723688
 20
-73.25265074818475
 30
0
 11
179.6343264973688
 21
-72.80405699818475
 31
0
  0
LINE
  8
1
 62
7
 10
179.6343264973688
 20
-72.80405699818475
 30
0
 11
179.9603046223688
 21
-72.05640074818476
 31
0
  0
LINE
  8
1
 62
7
 10
179.9603046223688
 20
-72.05640074818476
 30
0
 11
180.1232936848688
 21
-70.41155699818475
 31
0
  0
LINE
  8
1
 62
7
 10
180.1232936848688
 20
-70.41155699818475
 30
0
 11
180.1232936848688
 21
-68.61718199818475
 31
0
  0
LINE
  8
1
 62
7
 10
180.1232936848688
 20
-68.61718199818475
 30
0
 11
179.9603046223688
 21
-66.97233824818476
 31
0
  0
LINE
  8
1
 62
7
 10
179.9603046223688
 20
-66.97233824818476
 30
0
 11
179.6343264973688
 21
-66.22468199818475
 31
0
  0
LINE
  8
1
 62
7
 10
179.6343264973688
 20
-66.22468199818475
 30
0
 11
179.3083483723688
 21
-65.77608824818475
 31
0
  0
LINE
  8
1
 62
7
 10
179.3083483723688
 20
-65.77608824818475
 30
0
 11
178.6563921223688
 21
-65.32749449818475
 31
0
  0
LINE
  8
1
 62
7
 10
178.6563921223688
 20
-65.32749449818475
 30
0
 11
178.0044358723688
 21
-65.02843199818476
 31
0
  0
LINE
  8
1
 62
7
 10
178.0044358723688
 20
-65.02843199818476
 30
0
 11
176.8635124348688
 21
-65.02843199818476
 31
0
  0
LINE
  8
1
 62
7
 10
176.8635124348688
 20
-65.02843199818476
 30
0
 11
176.2115561848688
 21
-65.32749449818475
 31
0
  0
LINE
  8
1
 62
7
 10
176.2115561848688
 20
-65.32749449818475
 30
0
 11
175.5595999348688
 21
-65.77608824818475
 31
0
  0
LINE
  8
1
 62
7
 10
175.5595999348688
 20
-65.77608824818475
 30
0
 11
175.2336218098688
 21
-66.22468199818475
 31
0
  0
LINE
  8
1
 62
7
 10
175.2336218098688
 20
-66.22468199818475
 30
0
 11
174.9076436848688
 21
-66.97233824818476
 31
0
  0
LINE
  8
1
 62
7
 10
174.9076436848688
 20
-66.97233824818476
 30
0
 11
174.7446546223688
 21
-68.61718199818475
 31
0
  0
LINE
  8
1
 62
7
 10
174.7446546223688
 20
-68.61718199818475
 30
0
 11
174.7446546223688
 21
-70.41155699818475
 31
0
  0
LINE
  8
1
 62
7
 10
174.7446546223688
 20
-70.41155699818475
 30
0
 11
174.9076436848688
 21
-72.05640074818476
 31
0
  0
LINE
  8
1
 62
7
 10
174.9076436848688
 20
-72.05640074818476
 30
0
 11
175.2336218098688
 21
-72.80405699818475
 31
0
  0
LINE
  8
1
 62
7
 10
175.2336218098688
 20
-72.80405699818475
 30
0
 11
175.5595999348688
 21
-73.25265074818475
 31
0
  0
LINE
  8
1
 62
7
 10
175.5595999348688
 20
-73.25265074818475
 30
0
 11
176.2115561848688
 21
-73.70124449818475
 31
0
  0
LINE
  8
1
 62
7
 10
176.2115561848688
 20
-73.70124449818475
 30
0
 11
176.8635124348688
 21
-74.00030699818476
 31
0
  0
LINE
  8
1
 62
7
 10
179.9603046223688
 20
-74.74796324818475
 30
0
 11
180.4492718098688
 21
-74.29936949818475
 31
0
  0
LINE
  8
1
 62
7
 10
180.4492718098688
 20
-74.29936949818475
 30
0
 11
180.9382389973688
 21
-73.70124449818475
 31
0
  0
LINE
  8
1
 62
7
 10
180.9382389973688
 20
-73.70124449818475
 30
0
 11
181.2642171223688
 21
-73.10311949818475
 31
0
  0
LINE
  8
1
 62
7
 10
181.2642171223688
 20
-73.10311949818475
 30
0
 11
181.5901952473688
 21
-72.35546324818475
 31
0
  0
LINE
  8
1
 62
7
 10
181.5901952473688
 20
-72.35546324818475
 30
0
 11
181.7531843098688
 21
-71.45827574818475
 31
0
  0
LINE
  8
1
 62
7
 10
181.7531843098688
 20
-71.45827574818475
 30
0
 11
181.9161733723688
 21
-70.11249449818476
 31
0
  0
LINE
  8
1
 62
7
 10
181.9161733723688
 20
-70.11249449818476
 30
0
 11
181.9161733723688
 21
-68.91624449818475
 31
0
  0
LINE
  8
1
 62
7
 10
181.9161733723688
 20
-68.91624449818475
 30
0
 11
181.7531843098688
 21
-67.57046324818475
 31
0
  0
LINE
  8
1
 62
7
 10
181.7531843098688
 20
-67.57046324818475
 30
0
 11
181.5901952473688
 21
-66.67327574818475
 31
0
  0
LINE
  8
1
 62
7
 10
181.5901952473688
 20
-66.67327574818475
 30
0
 11
181.2642171223688
 21
-65.92561949818476
 31
0
  0
LINE
  8
1
 62
7
 10
181.2642171223688
 20
-65.92561949818476
 30
0
 11
180.9382389973688
 21
-65.32749449818475
 31
0
  0
LINE
  8
1
 62
7
 10
180.9382389973688
 20
-65.32749449818475
 30
0
 11
180.4492718098688
 21
-64.72936949818475
 31
0
  0
LINE
  8
1
 62
7
 10
180.4492718098688
 20
-64.72936949818475
 30
0
 11
179.9603046223688
 21
-64.28077574818475
 31
0
  0
LINE
  8
1
 62
7
 10
179.9603046223688
 20
-64.28077574818475
 30
0
 11
179.4713374348688
 21
-63.98171324818475
 31
0
  0
LINE
  8
1
 62
7
 10
179.4713374348688
 20
-63.98171324818475
 30
0
 11
178.6563921223688
 21
-63.68265074818476
 31
0
  0
LINE
  8
1
 62
7
 10
178.6563921223688
 20
-63.68265074818476
 30
0
 11
178.0044358723688
 21
-63.53311949818475
 31
0
  0
LINE
  8
1
 62
7
 10
178.0044358723688
 20
-63.53311949818475
 30
0
 11
176.8635124348688
 21
-63.53311949818475
 31
0
  0
LINE
  8
1
 62
7
 10
176.8635124348688
 20
-63.53311949818475
 30
0
 11
176.2115561848688
 21
-63.68265074818476
 31
0
  0
LINE
  8
1
 62
7
 10
176.2115561848688
 20
-63.68265074818476
 30
0
 11
175.3966108723688
 21
-63.98171324818475
 31
0
  0
LINE
  8
1
 62
7
 10
175.3966108723688
 20
-63.98171324818475
 30
0
 11
174.9076436848688
 21
-64.28077574818475
 31
0
  0
LINE
  8
1
 62
7
 10
174.9076436848688
 20
-64.28077574818475
 30
0
 11
174.4186764973688
 21
-64.72936949818475
 31
0
  0
LINE
  8
1
 62
7
 10
174.4186764973688
 20
-64.72936949818475
 30
0
 11
173.9297093098688
 21
-65.32749449818475
 31
0
  0
LINE
  8
1
 62
7
 10
173.9297093098688
 20
-65.32749449818475
 30
0
 11
173.6037311848688
 21
-65.92561949818476
 31
0
  0
LINE
  8
1
 62
7
 10
173.6037311848688
 20
-65.92561949818476
 30
0
 11
173.2777530598688
 21
-66.67327574818475
 31
0
  0
LINE
  8
1
 62
7
 10
173.2777530598688
 20
-66.67327574818475
 30
0
 11
173.1147639973688
 21
-67.57046324818475
 31
0
  0
LINE
  8
1
 62
7
 10
173.1147639973688
 20
-67.57046324818475
 30
0
 11
172.9517749348688
 21
-68.91624449818475
 31
0
  0
LINE
  8
1
 62
7
 10
172.9517749348688
 20
-68.91624449818475
 30
0
 11
172.9517749348688
 21
-70.11249449818476
 31
0
  0
LINE
  8
1
 62
7
 10
172.9517749348688
 20
-70.11249449818476
 30
0
 11
173.1147639973688
 21
-71.45827574818475
 31
0
  0
LINE
  8
1
 62
7
 10
173.1147639973688
 20
-71.45827574818475
 30
0
 11
173.2777530598688
 21
-72.35546324818475
 31
0
  0
LINE
  8
1
 62
7
 10
173.2777530598688
 20
-72.35546324818475
 30
0
 11
173.6037311848688
 21
-73.10311949818475
 31
0
  0
LINE
  8
1
 62
7
 10
173.6037311848688
 20
-73.10311949818475
 30
0
 11
173.9297093098688
 21
-73.70124449818475
 31
0
  0
LINE
  8
1
 62
7
 10
173.9297093098688
 20
-73.70124449818475
 30
0
 11
174.4186764973688
 21
-74.29936949818475
 31
0
  0
LINE
  8
1
 62
7
 10
174.4186764973688
 20
-74.29936949818475
 30
0
 11
174.9076436848688
 21
-74.74796324818475
 31
0
  0
LINE
  8
1
 62
7
 10
174.9076436848688
 20
-74.74796324818475
 30
0
 11
175.3966108723688
 21
-75.04702574818475
 31
0
  0
LINE
  8
1
 62
7
 10
175.3966108723688
 20
-75.04702574818475
 30
0
 11
176.2115561848688
 21
-75.34608824818476
 31
0
  0
LINE
  8
1
 62
7
 10
176.2115561848688
 20
-75.34608824818476
 30
0
 11
176.8635124348688
 21
-75.49561949818475
 31
0
  0
LINE
  8
1
 62
7
 10
176.8635124348688
 20
-75.49561949818475
 30
0
 11
178.0044358723688
 21
-75.49561949818475
 31
0
  0
LINE
  8
1
 62
7
 10
178.0044358723688
 20
-75.49561949818475
 30
0
 11
178.6563921223688
 21
-75.34608824818476
 31
0
  0
LINE
  8
1
 62
7
 10
178.6563921223688
 20
-75.34608824818476
 30
0
 11
179.4713374348688
 21
-75.04702574818475
 31
0
  0
LINE
  8
1
 62
7
 10
179.4713374348688
 20
-75.04702574818475
 30
0
 11
179.9603046223688
 21
-74.74796324818475
 31
0
  0
LINE
  8
1
 62
7
 10
167.4934030598688
 20
-63.53311949818475
 30
0
 11
169.2862827473688
 21
-63.53311949818475
 31
0
  0
LINE
  8
1
 62
7
 10
169.2862827473688
 20
-63.53311949818475
 30
0
 11
169.2862827473688
 21
-71.30874449818475
 31
0
  0
LINE
  8
1
 62
7
 10
169.2862827473688
 20
-71.30874449818475
 30
0
 11
170.9161733723688
 21
-71.30874449818475
 31
0
  0
LINE
  8
1
 62
7
 10
170.9161733723688
 20
-71.30874449818475
 30
0
 11
170.9161733723688
 21
-72.80405699818475
 31
0
  0
LINE
  8
1
 62
7
 10
170.9161733723688
 20
-72.80405699818475
 30
0
 11
169.2862827473688
 21
-72.80405699818475
 31
0
  0
LINE
  8
1
 62
7
 10
169.2862827473688
 20
-72.80405699818475
 30
0
 11
169.2862827473688
 21
-75.49561949818475
 31
0
  0
LINE
  8
1
 62
7
 10
169.2862827473688
 20
-75.49561949818475
 30
0
 11
167.4934030598688
 21
-75.49561949818475
 31
0
  0
LINE
  8
1
 62
7
 10
167.4934030598688
 20
-75.49561949818475
 30
0
 11
167.4934030598688
 21
-72.80405699818475
 31
0
  0
LINE
  8
1
 62
7
 10
167.4934030598688
 20
-72.80405699818475
 30
0
 11
161.9517749348688
 21
-72.80405699818475
 31
0
  0
LINE
  8
1
 62
7
 10
161.9517749348688
 20
-72.80405699818475
 30
0
 11
161.9517749348688
 21
-71.15921324818476
 31
0
  0
LINE
  8
1
 62
7
 10
161.9517749348688
 20
-71.15921324818476
 30
0
 11
167.4934030598688
 21
-63.53311949818475
 31
0
  0
LINE
  8
1
 62
7
 10
167.4934030598688
 20
-66.22468199818475
 30
0
 11
163.7446546223688
 21
-71.30874449818475
 31
0
  0
LINE
  8
1
 62
7
 10
163.7446546223688
 20
-71.30874449818475
 30
0
 11
167.4934030598688
 21
-71.30874449818475
 31
0
  0
LINE
  8
1
 62
7
 10
167.4934030598688
 20
-71.30874449818475
 30
0
 11
167.4934030598688
 21
-66.22468199818475
 31
0
  0
LINE
  8
1
 62
7
 10
132.9207973096527
 20
-72.70224506149799
 30
0
 11
128.2984873096527
 21
-72.70224506149799
 31
0
  0
LINE
  8
1
 62
7
 10
128.2984873096527
 20
-72.70224506149799
 30
0
 11
128.2984873096527
 21
-65.77224506149798
 31
0
  0
LINE
  8
1
 62
7
 10
128.2984873096527
 20
-65.77224506149798
 30
0
 11
132.8411023096527
 21
-65.77224506149798
 31
0
  0
LINE
  8
1
 62
7
 10
132.8411023096527
 20
-65.77224506149798
 30
0
 11
132.8411023096527
 21
-66.63849506149799
 31
0
  0
LINE
  8
1
 62
7
 10
132.8411023096527
 20
-66.63849506149799
 30
0
 11
129.1751323096527
 21
-66.63849506149799
 31
0
  0
LINE
  8
1
 62
7
 10
129.1751323096527
 20
-66.63849506149799
 30
0
 11
129.1751323096527
 21
-68.71749506149799
 31
0
  0
LINE
  8
1
 62
7
 10
129.1751323096527
 20
-68.71749506149799
 30
0
 11
132.5223223096527
 21
-68.71749506149799
 31
0
  0
LINE
  8
1
 62
7
 10
132.5223223096527
 20
-68.71749506149799
 30
0
 11
132.5223223096527
 21
-69.58374506149799
 31
0
  0
LINE
  8
1
 62
7
 10
132.5223223096527
 20
-69.58374506149799
 30
0
 11
129.1751323096527
 21
-69.58374506149799
 31
0
  0
LINE
  8
1
 62
7
 10
129.1751323096527
 20
-69.58374506149799
 30
0
 11
129.1751323096527
 21
-71.835995061498
 31
0
  0
LINE
  8
1
 62
7
 10
129.1751323096527
 20
-71.835995061498
 30
0
 11
132.9207973096527
 21
-71.835995061498
 31
0
  0
LINE
  8
1
 62
7
 10
132.9207973096527
 20
-71.835995061498
 30
0
 11
132.9207973096527
 21
-72.70224506149799
 31
0
  0
LINE
  8
1
 62
2
 10
102.2510189397078
 20
-127.6390815184781
 30
0
 11
102.2510189397078
 21
-122.6890815184781
 31
0
  0
LINE
  8
1
 62
2
 10
102.9385189397078
 20
-124.0812690184781
 30
0
 11
101.4260189397078
 21
-124.0812690184781
 31
0
  0
LINE
  8
1
 62
2
 10
101.2885189397078
 20
-126.0922065184781
 30
0
 11
101.8385189397078
 21
-125.1640815184781
 31
0
  0
LINE
  8
1
 62
2
 10
101.8385189397078
 20
-125.1640815184781
 30
0
 11
102.2510189397078
 21
-124.2359565184781
 31
0
  0
LINE
  8
1
 62
2
 10
102.2510189397078
 20
-124.2359565184781
 30
0
 11
102.9385189397078
 21
-125.3187690184781
 31
0
  0
LINE
  8
1
 62
2
 10
103.0760189397078
 20
-126.7109565184781
 30
0
 11
103.9010189397078
 21
-125.7828315184781
 31
0
  0
LINE
  8
1
 62
2
 10
103.9010189397078
 20
-125.7828315184781
 30
0
 11
104.5885189397078
 21
-124.3906440184781
 31
0
  0
LINE
  8
1
 62
2
 10
105.4135189397078
 20
-124.2359565184781
 30
0
 11
103.3510189397078
 21
-124.2359565184781
 31
0
  0
LINE
  8
1
 62
2
 10
104.5885189397078
 20
-122.8437690184781
 30
0
 11
104.7260189397078
 21
-127.3297065184781
 31
0
  0
LINE
  8
1
 62
2
 10
104.7260189397078
 20
-127.3297065184781
 30
0
 11
104.3135189397078
 21
-127.3297065184781
 31
0
  0
LINE
  8
1
 62
2
 10
106.2385189397078
 20
-126.7109565184781
 30
0
 11
106.6510189397078
 21
-125.9375190184781
 31
0
  0
LINE
  8
1
 62
2
 10
106.6510189397078
 20
-125.9375190184781
 30
0
 11
107.2010189397078
 21
-124.5453315184781
 31
0
  0
LINE
  8
1
 62
2
 10
108.1635189397078
 20
-124.5453315184781
 30
0
 11
106.2385189397078
 21
-124.5453315184781
 31
0
  0
LINE
  8
1
 62
2
 10
106.3760189397078
 20
-123.3078315184781
 30
0
 11
106.7885189397078
 21
-123.9265815184781
 31
0
  0
LINE
  8
1
 62
2
 10
107.6135189397078
 20
-123.7718940184781
 30
0
 11
107.8885189397078
 21
-123.1531440184781
 31
0
  0
LINE
  8
1
 62
2
 10
107.2010189397078
 20
-122.8437690184781
 30
0
 11
107.2010189397078
 21
-127.4843940184781
 31
0
  0
LINE
  8
1
 62
2
 10
107.6135189397078
 20
-125.1640815184781
 30
0
 11
107.8885189397078
 21
-125.7828315184781
 31
0
  0
LINE
  8
1
 62
2
 10
108.1635189397078
 20
-125.9375190184781
 30
0
 11
110.5010189397078
 21
-125.4734565184781
 31
0
  0
LINE
  8
1
 62
2
 10
108.9885189397078
 20
-124.8547065184781
 30
0
 11
108.5760189397078
 21
-124.2359565184781
 31
0
  0
LINE
  8
1
 62
2
 10
108.9885189397078
 20
-123.6172065184781
 30
0
 11
108.5760189397078
 21
-122.9984565184781
 31
0
  0
LINE
  8
1
 62
2
 10
109.6760189397078
 20
-122.6890815184781
 30
0
 11
109.6760189397078
 21
-127.6390815184781
 31
0
  0
LINE
  8
1
 62
2
 10
111.3260189397078
 20
-127.3297065184781
 30
0
 11
111.3260189397078
 21
-126.0922065184781
 31
0
  0
LINE
  8
1
 62
2
 10
111.3260189397078
 20
-126.0922065184781
 30
0
 11
112.4260189397078
 21
-126.0922065184781
 31
0
  0
LINE
  8
1
 62
2
 10
112.4260189397078
 20
-126.0922065184781
 30
0
 11
112.4260189397078
 21
-127.3297065184781
 31
0
  0
LINE
  8
1
 62
2
 10
112.4260189397078
 20
-127.3297065184781
 30
0
 11
111.3260189397078
 21
-127.3297065184781
 31
0
  0
LINE
  8
1
 62
2
 10
111.3260189397078
 20
-125.4734565184781
 30
0
 11
112.4260189397078
 21
-125.4734565184781
 31
0
  0
LINE
  8
1
 62
2
 10
112.4260189397078
 20
-124.7000190184781
 30
0
 11
111.3260189397078
 21
-124.7000190184781
 31
0
  0
LINE
  8
1
 62
2
 10
111.0510189397078
 20
-124.0812690184781
 30
0
 11
112.8385189397078
 21
-124.0812690184781
 31
0
  0
LINE
  8
1
 62
2
 10
111.1885189397078
 20
-123.3078315184781
 30
0
 11
112.4260189397078
 21
-123.3078315184781
 31
0
  0
LINE
  8
1
 62
2
 10
113.2510189397078
 20
-123.4625190184781
 30
0
 11
114.7635189397078
 21
-123.4625190184781
 31
0
  0
LINE
  8
1
 62
2
 10
114.7635189397078
 20
-123.4625190184781
 30
0
 11
114.7635189397078
 21
-125.0093940184781
 31
0
  0
LINE
  8
1
 62
2
 10
114.7635189397078
 20
-125.0093940184781
 30
0
 11
113.2510189397078
 21
-125.0093940184781
 31
0
  0
LINE
  8
1
 62
2
 10
113.2510189397078
 20
-125.0093940184781
 30
0
 11
113.2510189397078
 21
-127.3297065184781
 31
0
  0
LINE
  8
1
 62
2
 10
113.2510189397078
 20
-127.3297065184781
 30
0
 11
115.1760189397078
 21
-127.3297065184781
 31
0
  0
LINE
  8
1
 62
2
 10
115.1760189397078
 20
-127.3297065184781
 30
0
 11
115.1760189397078
 21
-126.8656440184781
 31
0
  0
LINE
  8
1
 62
2
 10
117.1010189397078
 20
-122.9984565184781
 30
0
 11
117.1010189397078
 21
-124.0812690184781
 31
0
  0
LINE
  8
1
 62
2
 10
117.1010189397078
 20
-124.0812690184781
 30
0
 11
119.3010189397078
 21
-124.0812690184781
 31
0
  0
LINE
  8
1
 62
2
 10
119.3010189397078
 20
-124.0812690184781
 30
0
 11
119.3010189397078
 21
-122.9984565184781
 31
0
  0
LINE
  8
1
 62
2
 10
119.3010189397078
 20
-122.9984565184781
 30
0
 11
117.1010189397078
 21
-122.9984565184781
 31
0
  0
LINE
  8
1
 62
2
 10
116.1385189397078
 20
-124.8547065184781
 30
0
 11
120.1260189397078
 21
-124.8547065184781
 31
0
  0
LINE
  8
1
 62
2
 10
117.6510189397078
 20
-124.8547065184781
 30
0
 11
117.2385189397078
 21
-126.4015815184781
 31
0
  0
LINE
  8
1
 62
2
 10
117.3760189397078
 20
-125.7828315184781
 30
0
 11
119.3010189397078
 21
-125.7828315184781
 31
0
  0
LINE
  8
1
 62
2
 10
119.3010189397078
 20
-125.7828315184781
 30
0
 11
119.0260189397078
 21
-126.7109565184781
 31
0
  0
LINE
  8
1
 62
2
 10
119.0260189397078
 20
-126.7109565184781
 30
0
 11
118.6135189397078
 21
-127.4843940184781
 31
0
  0
LINE
  8
1
 62
2
 10
118.6135189397078
 20
-127.4843940184781
 30
0
 11
118.3385189397078
 21
-127.6390815184781
 31
0
  0
LINE
  8
1
 62
2
 10
118.3385189397078
 20
-127.6390815184781
 30
0
 11
117.7885189397078
 21
-127.3297065184781
 31
0
  0
LINE
  8
1
 62
2
 10
109.9620990783728
 20
-132.8297478624452
 30
0
 11
106.9920990783728
 21
-132.8297478624452
 31
0
  0
LINE
  8
1
 62
2
 10
110.4570990783728
 20
-130.6022478624452
 30
0
 11
106.9920990783728
 21
-130.6022478624452
 31
0
  0
LINE
  8
1
 62
2
 10
106.9920990783728
 20
-130.6022478624452
 30
0
 11
106.9920990783728
 21
-135.5522478624452
 31
0
  0
LINE
  8
1
 62
2
 10
106.9920990783728
 20
-135.5522478624452
 30
0
 11
110.4570990783728
 21
-135.5522478624452
 31
0
  0
LINE
  8
1
 62
2
 10
68.63157678878648
 20
-127.0785976203762
 30
0
 11
70.14407678878646
 21
-126.4598476203762
 31
0
  0
LINE
  8
1
 62
2
 10
69.86907678878647
 20
-126.3051601203762
 30
0
 11
70.00657678878648
 21
-125.5317226203762
 31
0
  0
LINE
  8
1
 62
2
 10
70.14407678878646
 20
-125.0676601203762
 30
0
 11
68.76907678878646
 21
-125.0676601203762
 31
0
  0
LINE
  8
1
 62
2
 10
68.90657678878647
 20
-124.2942226203762
 30
0
 11
70.14407678878646
 21
-124.2942226203762
 31
0
  0
LINE
  8
1
 62
2
 10
70.28157678878647
 20
-123.5207851203762
 30
0
 11
69.45657678878646
 21
-122.5926601203762
 31
0
  0
LINE
  8
1
 62
2
 10
69.45657678878646
 20
-122.5926601203762
 30
0
 11
68.35657678878647
 21
-124.7582851203762
 31
0
  0
LINE
  8
1
 62
2
 10
68.76907678878646
 20
-125.5317226203762
 30
0
 11
69.04407678878647
 21
-126.3051601203762
 31
0
  0
LINE
  8
1
 62
2
 10
69.45657678878646
 20
-126.7692226203762
 30
0
 11
69.45657678878646
 21
-124.2942226203762
 31
0
  0
LINE
  8
1
 62
2
 10
70.28157678878647
 20
-124.4489101203762
 30
0
 11
72.75657678878648
 21
-124.4489101203762
 31
0
  0
LINE
  8
1
 62
2
 10
72.75657678878648
 20
-125.3770351203762
 30
0
 11
70.41907678878647
 21
-125.3770351203762
 31
0
  0
LINE
  8
1
 62
2
 10
70.28157678878647
 20
-126.9239101203762
 30
0
 11
70.83157678878646
 21
-125.9957851203762
 31
0
  0
LINE
  8
1
 62
2
 10
70.83157678878646
 20
-125.9957851203762
 30
0
 11
71.24407678878647
 21
-124.4489101203762
 31
0
  0
LINE
  8
1
 62
2
 10
71.24407678878647
 20
-124.4489101203762
 30
0
 11
71.38157678878648
 21
-122.5926601203762
 31
0
  0
LINE
  8
1
 62
2
 10
70.41907678878647
 20
-123.0567226203762
 30
0
 11
72.48157678878647
 21
-123.0567226203762
 31
0
  0
LINE
  8
1
 62
2
 10
72.48157678878647
 20
-123.8301601203762
 30
0
 11
70.55657678878647
 21
-123.8301601203762
 31
0
  0
LINE
  8
1
 62
2
 10
72.20657678878646
 20
-124.7582851203762
 30
0
 11
72.20657678878646
 21
-127.2332851203762
 31
0
  0
LINE
  8
1
 62
2
 10
72.20657678878646
 20
-127.2332851203762
 30
0
 11
71.65657678878647
 21
-127.2332851203762
 31
0
  0
LINE
  8
1
 62
2
 10
71.65657678878647
 20
-126.6145351203762
 30
0
 11
71.38157678878648
 21
-125.8410976203762
 31
0
  0
LINE
  8
1
 62
2
 10
73.58157678878648
 20
-126.7692226203762
 30
0
 11
74.26907678878648
 21
-126.1504726203762
 31
0
  0
LINE
  8
1
 62
2
 10
74.26907678878648
 20
-126.1504726203762
 30
0
 11
74.26907678878648
 21
-124.4489101203762
 31
0
  0
LINE
  8
1
 62
2
 10
74.26907678878648
 20
-124.4489101203762
 30
0
 11
73.44407678878648
 21
-124.4489101203762
 31
0
  0
LINE
  8
1
 62
2
 10
74.26907678878648
 20
-126.1504726203762
 30
0
 11
74.54407678878647
 21
-126.7692226203762
 31
0
  0
LINE
  8
1
 62
2
 10
74.54407678878647
 20
-126.7692226203762
 30
0
 11
74.81907678878648
 21
-126.9239101203762
 31
0
  0
LINE
  8
1
 62
2
 10
74.81907678878648
 20
-126.9239101203762
 30
0
 11
77.56907678878648
 21
-126.9239101203762
 31
0
  0
LINE
  8
1
 62
2
 10
76.88157678878648
 20
-126.1504726203762
 30
0
 11
76.88157678878648
 21
-124.9129726203762
 31
0
  0
LINE
  8
1
 62
2
 10
76.88157678878648
 20
-124.9129726203762
 30
0
 11
75.36907678878647
 21
-124.9129726203762
 31
0
  0
LINE
  8
1
 62
2
 10
75.36907678878647
 20
-124.9129726203762
 30
0
 11
75.36907678878647
 21
-126.1504726203762
 31
0
  0
LINE
  8
1
 62
2
 10
75.36907678878647
 20
-126.1504726203762
 30
0
 11
76.88157678878648
 21
-126.1504726203762
 31
0
  0
LINE
  8
1
 62
2
 10
77.43157678878647
 20
-124.2942226203762
 30
0
 11
74.81907678878648
 21
-124.2942226203762
 31
0
  0
LINE
  8
1
 62
2
 10
76.05657678878647
 20
-124.2942226203762
 30
0
 11
76.05657678878647
 21
-122.2832851203762
 31
0
  0
LINE
  8
1
 62
2
 10
77.15657678878647
 20
-123.2114101203762
 30
0
 11
75.09407678878647
 21
-123.2114101203762
 31
0
  0
LINE
  8
1
 62
2
 10
75.36907678878647
 20
-122.4379726203762
 30
0
 11
75.09407678878647
 21
-123.2114101203762
 31
0
  0
LINE
  8
1
 62
2
 10
75.09407678878647
 20
-123.2114101203762
 30
0
 11
74.81907678878648
 21
-123.6754726203762
 31
0
  0
LINE
  8
1
 62
2
 10
74.26907678878648
 20
-123.0567226203762
 30
0
 11
73.85657678878647
 21
-122.4379726203762
 31
0
  0
LINE
  8
1
 62
2
 10
73.58157678878648
 20
-126.7692226203762
 30
0
 11
73.44407678878648
 21
-126.9239101203762
 31
0
  0
LINE
  8
1
 62
2
 10
79.63157678878648
 20
-122.2832851203762
 30
0
 11
79.35657678878647
 21
-122.7473476203762
 31
0
  0
LINE
  8
1
 62
2
 10
79.35657678878647
 20
-122.7473476203762
 30
0
 11
78.94407678878648
 21
-123.3660976203762
 31
0
  0
LINE
  8
1
 62
2
 10
78.94407678878648
 20
-123.3660976203762
 30
0
 11
78.53157678878648
 21
-123.8301601203762
 31
0
  0
LINE
  8
1
 62
2
 10
79.21907678878648
 20
-123.0567226203762
 30
0
 11
81.96907678878648
 21
-123.0567226203762
 31
0
  0
LINE
  8
1
 62
2
 10
80.45657678878648
 20
-123.0567226203762
 30
0
 11
80.45657678878648
 21
-127.2332851203762
 31
0
  0
LINE
  8
1
 62
2
 10
79.08157678878648
 20
-124.2942226203762
 30
0
 11
81.83157678878648
 21
-124.2942226203762
 31
0
  0
LINE
  8
1
 62
2
 10
79.08157678878648
 20
-124.4489101203762
 30
0
 11
79.08157678878648
 21
-125.5317226203762
 31
0
  0
LINE
  8
1
 62
2
 10
78.25657678878648
 20
-125.5317226203762
 30
0
 11
82.65657678878648
 21
-125.5317226203762
 31
0
  0
ARC
  8
1
 62
2
 10
261.4566413400551
 20
-59.93686901467777
 30
0
 40
45
 50
151.7271214029317
 51
209.8006755189268
  0
ARC
  8
1
 62
2
 10
102.9873267379339
 20
-76.65516258680273
 30
0
 40
50.00000000000007
 50
355.1929627963172
 51
43.23238083805223
  0
ARC
  8
1
 62
7
 10
136.559444494416
 20
-31.76786381258272
 30
0
 40
4.000000000000132
 50
336.4866421561076
 51
43.74140518597343
  0
ARC
  8
1
 62
7
 10
181.9493152395617
 20
-51.51652538087575
 30
0
 40
45.49999999999996
 50
156.4866421561078
 51
159.2786222402318
  0
ARC
  8
1
 62
7
 10
135.6513672840178
 20
-34.00224506149802
 30
0
 40
4
 50
270
 51
339.2786222402326
  0
ARC
  8
1
 62
7
 10
104.5452331818269
 20
-69.50224506149802
 30
0
 40
31.49999999999999
 50
90
 51
125.0755077115808
  0
ARC
  8
1
 62
7
 10
105.0116502968782
 20
-69.97015065132344
 30
0
 40
31.50000000000012
 50
232.1510192012058
 51
252.2232934360465
  0
ARC
  8
1
 62
7
 10
230.4493152395617
 20
-87.63931681577732
 30
0
 40
2.999999999999978
 50
79.89496363496349
 51
180
  0
ARC
  8
1
 62
7
 10
208.9493152395617
 20
-93.62318504920076
 30
0
 40
18.50000000000002
 50
275.8478307565206
 51
0
  0
ARC
  8
1
 62
7
 10
181.9493152395617
 20
169.9977549385019
 30
0
 40
283.5000000000001
 50
252.2232934360468
 51
275.8478307565209
  0
ARC
  8
1
 62
7
 10
227.3391859847072
 20
-31.76786381258272
 30
0
 40
3.999999999999887
 50
136.2585948140243
 51
258.7283397247326
  0
ARC
  8
1
 62
7
 10
83.57030873927451
 20
-39.63081147304767
 30
0
 40
4.999999999999734
 50
305.0755077115798
 51
305.4711292009952
  0
ARC
  8
1
 62
7
 10
83.58301115411288
 20
-99.38077165739512
 30
0
 40
5.000000000001894
 50
137.4910537347068
 51
157.9320874271052
  0
ARC
  8
1
 62
7
 10
83.57030873927451
 20
-39.63081147304767
 30
0
 40
5.000000000000076
 50
201.9802345002092
 51
222.3987842053214
  0
ARC
  8
1
 62
7
 10
83.58301115411288
 20
-99.38077165739512
 30
0
 40
5.000000000001858
 50
65.15535809547249
 51
137.4910537347068
  0
ARC
  8
1
 62
7
 10
83.57030873927451
 20
-39.63081147304767
 30
0
 40
4.999999999999991
 50
222.3987842053214
 51
305.0755077115798
  0
ARC
  8
1
 62
7
 10
278.9409931177436
 20
-98.40297785116698
 30
0
 40
5.088674683478434
 50
10.19549433357916
 51
79.9777119005381
  0
ARC
  8
1
 62
7
 10
278.9447082844759
 20
-41.03684261261502
 30
0
 40
5.000000000000043
 50
260.8324032406166
 51
354.6591495962111
  0
ARC
  8
1
 62
7
 10
104.5452331818272
 20
111.2668542544891
 30
0
 40
31.50000000000077
 50
95.48058115612092
 51
125.2591601072234
  0
ARC
  8
1
 62
7
 10
104.5452331818272
 20
111.2668542544891
 30
0
 40
31.4999999999998
 50
234.7408398928421
 51
264.5194188438789
  0
ARC
  8
1
 62
7
 10
278.9597642401602
 20
139.7330993331474
 30
0
 40
5.011287623854703
 50
259.6909558349412
 51
354.6615384157924
  0
ARC
  8
1
 62
7
 10
278.9597642401602
 20
82.80060917583107
 30
0
 40
5.011287623854571
 50
5.338461584206167
 51
100.3090441650588
  0
ARC
  8
1
 62
7
 10
83.58301115411288
 20
141.1453808503862
 30
0
 40
5.00000000000203
 50
202.0679125728938
 51
303.7525493393783
  0
ARC
  8
1
 62
7
 10
83.57030873927451
 20
81.39542066603883
 30
0
 40
4.999999999999957
 50
137.601215794679
 51
158.0197654997913
  0
ARC
  8
1
 62
7
 10
83.57341542435219
 20
81.37714074620344
 30
0
 40
5.014633067812765
 50
56.22730950703743
 51
137.4709125811211
  0
ARC
  8
0
 62
7
 10
157.5493149542614
 20
1.047755209701888
 30
0
 40
1
 50
180
 51
270
  0
ARC
  8
0
 62
7
 10
167.0493149542614
 20
1.047755209701888
 30
0
 40
0.9999999999999998
 50
270
 51
0
  0
ARC
  8
1
 62
7
 10
160.1993153998367
 20
53.30431274747186
 30
0
 40
1.69006151019239
 50
222.3011001572718
 51
317.6988998427257
  0
ARC
  8
1
 62
7
 10
162.6993158095866
 20
51.02939965370651
 30
0
 40
1.690061510192306
 50
42.30110015727434
 51
137.6988998427289
  0
ARC
  8
1
 62
7
 10
162.6993158095866
 20
53.30431274747186
 30
0
 40
1.690061510192412
 50
222.3011001572711
 51
317.6988998427257
  0
ARC
  8
0
 62
7
 10
166.9493152396616
 20
131.4668545137892
 30
0
 40
1
 50
0
 51
90
  0
ARC
  8
0
 62
7
 10
163.8869233714616
 20
131.4668545137892
 30
0
 40
1
 50
90
 51
135.0991278439973
  0
ARC
  8
0
 62
7
 10
166.9493152396616
 20
93.4668545137892
 30
0
 40
1
 50
270
 51
0
  0
ARC
  8
0
 62
7
 10
181.9493152396616
 20
113.4668545137892
 30
0
 40
26.49999999999994
 50
135.0991278439999
 51
143.5062334001999
  0
ARC
  8
0
 62
7
 10
161.4493152396616
 20
128.6326054018892
 30
0
 40
0.9999999999999261
 50
143.5062334001954
 51
180
  0
ARC
  8
0
 62
7
 10
157.4493152396616
 20
93.4668545137892
 30
0
 40
1
 50
180
 51
270
  0
ARC
  8
0
 62
2
 10
163.2790769755616
 20
120.0643128504892
 30
0
 40
0.5973220339834582
 50
84.76172254259333
 51
135.0967903160905
  0
ARC
  8
0
 62
2
 10
163.2947709968616
 20
118.6479394092892
 30
0
 40
0.5908259575681049
 50
105.9403289209853
 51
183.6867956839971
  0
ARC
  8
0
 62
2
 10
163.8000861571616
 20
118.5493501091892
 30
0
 40
0.6925394413759296
 50
224.7756334802992
 51
275.0879152808974
  0
ARC
  8
0
 62
2
 10
163.8000866551616
 20
119.9347196863892
 30
0
 40
0.6925396354065773
 50
224.7755911531027
 51
275.0878724808974
  0
ARC
  8
0
 62
2
 10
163.4243818944617
 20
121.2821037609892
 30
0
 40
0.4480224476422459
 50
265.7820526560849
 51
320.9560264777783
  0
ARC
  8
0
 62
2
 10
162.6982149468617
 20
121.4315120522892
 30
0
 40
0.2383846634592522
 50
38.97350153454289
 51
94.28802074319702
  0
ARC
  8
0
 62
2
 10
163.3922393502616
 20
121.4238852528892
 30
0
 40
0.2782638796938071
 50
90.16673599481757
 51
145.5122325151965
  0
ARC
  8
0
 62
2
 10
163.4222206617616
 20
121.4054473811892
 30
0
 40
0.2982940176546611
 50
41.57426088840673
 51
95.92484978039349
  0
ARC
  8
0
 62
7
 10
181.9493152395617
 20
111.2668545256893
 30
0
 40
33.50000000000004
 50
237.4990624001804
 51
226.6410191881302
  0
ARC
  8
0
 62
7
 10
156.0493152395617
 20
110.4668545256894
 30
0
 40
0.5
 50
180
 51
270
  0
ARC
  8
0
 62
7
 10
156.0493152395617
 20
116.4668545256894
 30
0
 40
0.5
 50
90
 51
180
  0
ARC
  8
0
 62
7
 10
157.5493152395617
 20
116.4668545256894
 30
0
 40
0.5
 50
0
 51
90
  0
ARC
  8
0
 62
7
 10
157.5493152395617
 20
110.4668545256894
 30
0
 40
0.5
 50
270
 51
0
  0
ARC
  8
0
 62
7
 10
168.9493152395617
 20
134.3590610031892
 30
0
 40
1.000000000000133
 50
119.3777923833983
 51
180
  0
ARC
  8
0
 62
7
 10
181.9493152395617
 20
111.2668545256893
 30
0
 40
27.50000000000003
 50
240.6222076165999
 51
119.3777923834002
  0
ARC
  8
0
 62
7
 10
168.9493152395617
 20
88.17464804818927
 30
0
 40
1
 50
180
 51
240.6222076165985
  0
ARC
  8
1
 62
7
 10
181.9493152395617
 20
111.2668545256893
 30
0
 40
34.00000000000009
 50
238.0342827884437
 51
227.431545694654
  0
ARC
  8
1
 62
7
 10
181.9493152395617
 20
111.2668545256893
 30
0
 40
42.49999999999992
 50
244.9423857349044
 51
237.2362376691331
  0
ARC
  8
1
 62
7
 10
181.9493152395617
 20
111.2668545256893
 30
0
 40
46.5
 50
184.9347679805114
 51
240.3550630912724
  0
ARC
  8
1
 62
7
 10
181.9493152395617
 20
111.2668545256893
 30
0
 40
36.00000000000009
 50
240.0000014240822
 51
230.2909833546617
  0
ARC
  8
1
 62
7
 10
181.9493152395617
 20
111.2668545256893
 30
0
 40
46.50000000000001
 50
247.2260286348778
 51
263.4204070550224
  0
ARC
  8
1
 62
7
 10
181.9493152395617
 20
111.2668545256893
 30
0
 40
46.49999999999989
 50
96.57959294497765
 51
175.0652320194886
  0
ARC
  8
1
 62
7
 10
181.9493152395617
 20
111.2668545256893
 30
0
 40
44.99999999999987
 50
246.421822598303
 51
239.2621312618039
  0
ARC
  8
1
 62
7
 10
181.9493152395617
 20
111.2668545256893
 30
0
 40
46.49999999999989
 50
6.579592944977646
 51
83.42040705502235
  0
ARC
  8
1
 62
7
 10
181.9493152395617
 20
111.2668545256893
 30
0
 40
46.49999999999997
 50
276.5795929449776
 51
353.4204070550223
  0
CIRCLE
  8
1
 62
2
 10
134.4694481589853
 20
-35.53894174065274
 30
0
 40
1
  0
CIRCLE
  8
0
 62
7
 10
161.5493149542614
 20
5.047755209701888
 30
0
 40
2.5
  0
CIRCLE
  8
0
 62
7
 10
161.5493149542614
 20
5.047755209701888
 30
0
 40
3.100000000000193
  0
CIRCLE
  8
0
 62
7
 10
161.5493149542614
 20
5.047755209701888
 30
0
 40
2.600000000000193
  0
ARC
  8
1
 62
7
 10
151.1366135055665
 20
65.10596808609131
 30
0
 40
9.999999999999176
 50
79.76842581282207
 51
84.51941884387756
  0
ARC
  8
1
 62
7
 10
214.1397150340656
 20
156.4777839183441
 30
0
 40
10.00000000000019
 50
258.0407529520101
 51
259.7891146042235
  0
ARC
  8
1
 62
7
 10
151.1366135055668
 20
157.4277404228883
 30
0
 40
10.00000000000023
 50
275.48058115612
 51
280.2315741871779
  0
ARC
  8
1
 62
7
 10
214.1397150340654
 20
66.05592459063524
 30
0
 40
9.999999999999508
 50
100.2108853957782
 51
101.9592470479849
  0
ARC
  8
1
 62
7
 10
135.4493152395615
 20
-8.452244764197918
 30
0
 40
1.500000000000028
 50
270
 51
0
  0
ARC
  8
1
 62
7
 10
129.4493152395615
 20
-4.952244764197916
 30
0
 40
1.5
 50
90
 51
180
  0
ARC
  8
1
 62
7
 10
128.9493152395615
 20
-24.95224476419795
 30
0
 40
1.000000000000014
 50
180
 51
270
  0
ARC
  8
1
 62
7
 10
234.9493152395615
 20
-10.95224476419795
 30
0
 40
1
 50
0
 51
90
  0
ARC
  8
1
 62
7
 10
234.9493152395615
 20
-24.95224476419795
 30
0
 40
1
 50
270
 51
0
  0
ARC
  8
1
 62
7
 10
227.9493152395615
 20
-8.952244764197946
 30
0
 40
1
 50
180
 51
270
  0
ARC
  8
1
 62
7
 10
178.9493152395617
 20
-24.95224476419792
 30
0
 40
1
 50
180
 51
270
  0
ARC
  8
1
 62
7
 10
178.9493152395617
 20
-10.95224476419792
 30
0
 40
1.000000000000002
 50
90
 51
180
  0
ARC
  8
1
 62
7
 10
184.9493152395617
 20
-10.95224476419792
 30
0
 40
1
 50
0
 51
90
  0
ARC
  8
1
 62
7
 10
184.9493152395617
 20
-24.95224476419792
 30
0
 40
1
 50
270
 51
0
  0
ARC
  8
1
 62
7
 10
135.775729717101
 20
105.7668545256893
 30
0
 40
1.500000000000051
 50
6.792822055926647
 51
90
  0
ARC
  8
1
 62
7
 10
135.775729717101
 20
116.7668545256893
 30
0
 40
1.5
 50
270
 51
353.2071779440739
  0
ARC
  8
1
 62
7
 10
129.4493152395617
 20
113.7668545256893
 30
0
 40
1.5
 50
90
 51
180
  0
ARC
  8
1
 62
7
 10
129.4493152395617
 20
108.7668545256893
 30
0
 40
1.500000000000014
 50
180
 51
270
  0
ARC
  8
1
 62
7
 10
179.4493152395617
 20
163.7668545256893
 30
0
 40
1.5
 50
90
 51
180
  0
ARC
  8
1
 62
7
 10
184.4493152395617
 20
163.7668545256893
 30
0
 40
1.5
 50
0
 51
90
  0
ARC
  8
1
 62
7
 10
187.4493152395617
 20
158.9507092356432
 30
0
 40
1.5
 50
180
 51
263.4204070550226
  0
ARC
  8
1
 62
7
 10
176.4493152395617
 20
158.9507092356432
 30
0
 40
1.500000000000034
 50
276.5795929449775
 51
0
  0
ARC
  8
1
 62
7
 10
229.6331699495156
 20
116.7668545256893
 30
0
 40
1.500000000000034
 50
186.5795929449775
 51
270
  0
ARC
  8
1
 62
7
 10
234.4493152395617
 20
113.7668545256893
 30
0
 40
1.5
 50
0
 51
90
  0
ARC
  8
1
 62
7
 10
179.4493152395617
 20
58.7668545256893
 30
0
 40
1.5
 50
180
 51
270
  0
ARC
  8
1
 62
7
 10
184.4493152395617
 20
58.7668545256893
 30
0
 40
1.5
 50
270
 51
0
  0
ARC
  8
1
 62
7
 10
187.4493152395617
 20
63.5829998157353
 30
0
 40
1.500000000000056
 50
96.57959294497738
 51
180
  0
ARC
  8
1
 62
7
 10
176.4493152395617
 20
63.5829998157353
 30
0
 40
1.5
 50
0
 51
83.42040705502261
  0
ARC
  8
1
 62
7
 10
229.6331699495156
 20
105.7668545256893
 30
0
 40
1.5
 50
90
 51
173.4204070550225
  0
ARC
  8
1
 62
7
 10
234.4493152395617
 20
108.7668545256893
 30
0
 40
1.5
 50
270
 51
0
  0
LINE
  8
1
 62
2
 10
51.56161423499778
 20
-6.628042301030892
 30
0
 11
112.1580436728818
 21
-6.628042301030892
 31
0
  0
LINE
  8
1
 62
2
 10
112.1580436728818
 20
-6.628042301030892
 30
0
 11
74.10348598589084
 21
-41.50224506149804
 31
0
  0
LINE
  8
1
 62
2
 10
75.77211080558931
 20
-38.88272943096504
 30
0
 11
74.10348598589084
 21
-41.50224506149804
 31
0
  0
LINE
  8
1
 62
2
 10
76.85831528440144
 20
-40.06799038969529
 30
0
 11
74.10348598589084
 21
-41.50224506149804
 31
0
  0
LINE
  8
1
 62
2
 10
61.22857610045806
 20
-129.0155426172302
 30
0
 11
84.49412039325713
 21
-129.0155426172302
 31
0
  0
LINE
  8
1
 62
2
 10
84.49412039325713
 20
-129.0155426172302
 30
0
 11
121.7760538179946
 21
-73.12850620481399
 31
0
  0
LINE
  8
1
 62
2
 10
120.7799236903876
 20
-76.07025665248864
 30
0
 11
121.7760538179946
 21
-73.12850620481399
 31
0
  0
LINE
  8
1
 62
2
 10
119.4425045981746
 20
-75.17807176029098
 30
0
 11
121.7760538179946
 21
-73.12850620481399
 31
0
  0
LINE
  8
1
 62
2
 10
99.68030870044279
 20
-129.0155426172302
 30
0
 11
121.1286932164408
 21
-129.0155426172302
 31
0
  0
LINE
  8
1
 62
2
 10
121.1286932164408
 20
-129.0155426172302
 30
0
 11
130.8563897644872
 21
-73.60513127013647
 31
0
  0
LINE
  8
1
 62
2
 10
131.1293906841335
 20
-76.69893821715057
 30
0
 11
130.8563897644872
 21
-73.60513127013647
 31
0
  0
LINE
  8
1
 62
2
 10
129.5459120226504
 20
-76.4209471404786
 30
0
 11
130.8563897644872
 21
-73.60513127013647
 31
0
  0
DIMENSION
  8
1
  6
CONTINUOUS
 62
2
  2
*D0
  3
DMST_1
 10
254.664567427737
 20
-114.5022450614981
 30
0
 11
252.364567427737
 21
-102.0107998330734
 31
0
 12
0
 22
0
 32
0
 70
0
 13
259.8189341558783
 23
-69.50124916074459
 33
0
 14
216.9493152395617
 24
-114.5022450614981
 34
0
 50
90
 53
0
  0
DIMENSION
  8
1
  6
CONTINUOUS
 62
2
  2
*D1
  3
DMST_1
 10
303.9493152395614
 20
-137.4474346003073
 30
0
 11
182.6339845944009
 21
-135.1474346003073
 31
0
 12
0
 22
0
 32
0
 70
0
 13
58.94931523956173
 23
-96.00224506149803
 33
0
 14
303.9493152395614
 24
-96.00224506149803
 34
0
 53
0
  0
DIMENSION
  8
1
  6
CONTINUOUS
 62
2
  2
*D2
  3
DMST_1
 10
322.231205003035
 20
57.2668545256893
 30
0
 11
319.931205003035
 21
111.2668545256893
 31
0
 12
0
 22
0
 32
0
 70
0
 13
184.4493152395617
 23
165.2668545256893
 33
0
 14
184.4493152395617
 24
57.2668545256893
 34
0
 50
90
 53
0
  0
DIMENSION
  8
1
  6
CONTINUOUS
 62
2
  2
*D3
  3
DMST_1
 10
322.231205003035
 20
-114.5022450614981
 30
0
 11
319.931205003035
 21
-51.97724506149811
 31
0
 12
0
 22
0
 32
0
 70
0
  1
(126)
 13
166.2471773995615
 23
10.54775493850188
 33
0
 14
216.9493152395617
 24
-114.5022450614981
 34
0
 50
90
 53
0
  0
DIMENSION
  8
1
  6
CONTINUOUS
 62
2
  2
*D4
  3
DMST_2
 10
78.94931523956174
 20
-108.254907671836
 30
0
 11
68.94931523956174
 21
-105.654907671836
 31
0
 12
0
 22
0
 32
0
 70
0
 13
58.94931523956173
 23
-96.00224506149803
 33
0
 14
78.94931523956174
 24
-97.50224506149803
 34
0
 53
0
  0
ENDSEC
  0
EOF
